  0
SECTION
  2
HEADER
  9
$ACADVER
  1
AC1021
  9
$ACADMAINTVER
 70
    25
  9
$DWGCODEPAGE
  3
ANSI_1252
  9
$INSBASE
 10
0.0
 20
0.0
 30
0.0
  9
$EXTMIN
 10
0.0
 20
0.0
 30
0.0
  9
$EXTMAX
 10
210.0
 20
297.0
 30
0.0
  9
$LIMMIN
 10
0.0
 20
0.0
  9
$LIMMAX
 10
210.0
 20
297.0
  9
$ORTHOMODE
 70
     0
  9
$REGENMODE
 70
     1
  9
$FILLMODE
 70
     1
  9
$QTEXTMODE
 70
     0
  9
$MIRRTEXT
 70
     1
  9
$LTSCALE
 40
10.0
  9
$ATTMODE
 70
     1
  9
$TEXTSIZE
 40
3.5
  9
$TRACEWID
 40
1.0
  9
$TEXTSTYLE
  7
Standard
  9
$CLAYER
  8
0
  9
$CELTYPE
  6
ByLayer
  9
$CECOLOR
 62
   256
  9
$CELTSCALE
 40
1.0
  9
$DISPSILH
 70
     0
  9
$DIMSCALE
 40
1.0
  9
$DIMASZ
 40
3.302
  9
$DIMEXO
 40
1.0
  9
$DIMDLI
 40
3.75
  9
$DIMRND
 40
0.0
  9
$DIMDLE
 40
0.0
  9
$DIMEXE
 40
1.0
  9
$DIMTP
 40
0.0
  9
$DIMTM
 40
0.0
  9
$DIMTXT
 40
3.5
  9
$DIMCEN
 40
2.5
  9
$DIMTSZ
 40
0.0
  9
$DIMTOL
 70
     0
  9
$DIMLIM
 70
     0
  9
$DIMTIH
 70
     1
  9
$DIMTOH
 70
     1
  9
$DIMSE1
 70
     0
  9
$DIMSE2
 70
     0
  9
$DIMTAD
 70
     1
  9
$DIMZIN
 70
     1
  9
$DIMBLK
  1

  9
$DIMASO
 70
     1
  9
$DIMSHO
 70
     1
  9
$DIMPOST
  1

  9
$DIMAPOST
  1

  9
$DIMALT
 70
     0
  9
$DIMALTD
 70
     3
  9
$DIMALTF
 40
0.0393700787
  9
$DIMLFAC
 40
1.0
  9
$DIMTOFL
 70
     1
  9
$DIMTVP
 40
0.0
  9
$DIMTIX
 70
     0
  9
$DIMSOXD
 70
     0
  9
$DIMSAH
 70
     0
  9
$DIMBLK1
  1

  9
$DIMBLK2
  1

  9
$DIMSTYLE
  2
ISO-25
  9
$DIMCLRD
 70
     0
  9
$DIMCLRE
 70
     0
  9
$DIMCLRT
 70
     0
  9
$DIMTFAC
 40
1.0
  9
$DIMGAP
 40
1.524
  9
$DIMJUST
 70
     0
  9
$DIMSD1
 70
     0
  9
$DIMSD2
 70
     0
  9
$DIMTOLJ
 70
     0
  9
$DIMTZIN
 70
     1
  9
$DIMALTZ
 70
     0
  9
$DIMALTTZ
 70
     0
  9
$DIMUPT
 70
     0
  9
$DIMDEC
 70
     2
  9
$DIMTDEC
 70
     2
  9
$DIMALTU
 70
     2
  9
$DIMALTTD
 70
     3
  9
$DIMTXSTY
  7
Standard
  9
$DIMAUNIT
 70
     0
  9
$DIMADEC
 70
     2
  9
$DIMALTRND
 40
0.0
  9
$DIMAZIN
 70
     0
  9
$DIMDSEP
 70
    44
  9
$DIMATFIT
 70
     3
  9
$DIMFRAC
 70
     0
  9
$DIMLDRBLK
  1

  9
$DIMLUNIT
 70
     2
  9
$DIMLWD
 70
    -2
  9
$DIMLWE
 70
    -2
  9
$DIMTMOVE
 70
     0
  9
$DIMFXL
 40
1.0
  9
$DIMFXLON
 70
     0
  9
$DIMJOGANG
 40
0.7853981634
  9
$DIMTFILL
 70
     0
  9
$DIMTFILLCLR
 70
     0
  9
$DIMARCSYM
 70
     0
  9
$DIMLTYPE
  6

  9
$DIMLTEX1
  6

  9
$DIMLTEX2
  6

  9
$LUNITS
 70
     2
  9
$LUPREC
 70
     2
  9
$SKETCHINC
 40
1.0
  9
$FILLETRAD
 40
10.0
  9
$AUNITS
 70
     0
  9
$AUPREC
 70
     2
  9
$MENU
  1
.
  9
$ELEVATION
 40
0.0
  9
$PELEVATION
 40
0.0
  9
$THICKNESS
 40
0.0
  9
$LIMCHECK
 70
     0
  9
$CHAMFERA
 40
10.0
  9
$CHAMFERB
 40
10.0
  9
$CHAMFERC
 40
20.0
  9
$CHAMFERD
 40
0.0
  9
$SKPOLY
 70
     0
  9
$TDCREATE
 40
2456142.584428889
  9
$TDUCREATE
 40
2456142.084428889
  9
$TDUPDATE
 40
2456142.5844289
  9
$TDUUPDATE
 40
2456142.0844289
  9
$TDINDWG
 40
0.0000000116
  9
$TDUSRTIMER
 40
0.0000000116
  9
$USRTIMER
 70
     1
  9
$ANGBASE
 50
0.0
  9
$ANGDIR
 70
     0
  9
$PDMODE
 70
     0
  9
$PDSIZE
 40
-1.0
  9
$PLINEWID
 40
0.0
  9
$SPLFRAME
 70
     0
  9
$SPLINETYPE
 70
     6
  9
$SPLINESEGS
 70
     8
  9
$HANDSEED
  5
298
  9
$SURFTAB1
 70
     6
  9
$SURFTAB2
 70
     6
  9
$SURFTYPE
 70
     6
  9
$SURFU
 70
     6
  9
$SURFV
 70
     6
  9
$UCSBASE
  2

  9
$UCSNAME
  2

  9
$UCSORG
 10
0.0
 20
0.0
 30
0.0
  9
$UCSXDIR
 10
1.0
 20
0.0
 30
0.0
  9
$UCSYDIR
 10
0.0
 20
1.0
 30
0.0
  9
$UCSORTHOREF
  2

  9
$UCSORTHOVIEW
 70
     0
  9
$UCSORGTOP
 10
0.0
 20
0.0
 30
0.0
  9
$UCSORGBOTTOM
 10
0.0
 20
0.0
 30
0.0
  9
$UCSORGLEFT
 10
0.0
 20
0.0
 30
0.0
  9
$UCSORGRIGHT
 10
0.0
 20
0.0
 30
0.0
  9
$UCSORGFRONT
 10
0.0
 20
0.0
 30
0.0
  9
$UCSORGBACK
 10
0.0
 20
0.0
 30
0.0
  9
$PUCSBASE
  2

  9
$PUCSNAME
  2

  9
$PUCSORG
 10
0.0
 20
0.0
 30
0.0
  9
$PUCSXDIR
 10
1.0
 20
0.0
 30
0.0
  9
$PUCSYDIR
 10
0.0
 20
1.0
 30
0.0
  9
$PUCSORTHOREF
  2

  9
$PUCSORTHOVIEW
 70
     0
  9
$PUCSORGTOP
 10
0.0
 20
0.0
 30
0.0
  9
$PUCSORGBOTTOM
 10
0.0
 20
0.0
 30
0.0
  9
$PUCSORGLEFT
 10
0.0
 20
0.0
 30
0.0
  9
$PUCSORGRIGHT
 10
0.0
 20
0.0
 30
0.0
  9
$PUCSORGFRONT
 10
0.0
 20
0.0
 30
0.0
  9
$PUCSORGBACK
 10
0.0
 20
0.0
 30
0.0
  9
$USERI1
 70
     0
  9
$USERI2
 70
     0
  9
$USERI3
 70
     0
  9
$USERI4
 70
     0
  9
$USERI5
 70
     0
  9
$USERR1
 40
0.0
  9
$USERR2
 40
0.0
  9
$USERR3
 40
0.0
  9
$USERR4
 40
0.0
  9
$USERR5
 40
0.0
  9
$WORLDVIEW
 70
     1
  9
$SHADEDGE
 70
     3
  9
$SHADEDIF
 70
    70
  9
$TILEMODE
 70
     1
  9
$MAXACTVP
 70
    64
  9
$PINSBASE
 10
0.0
 20
0.0
 30
0.0
  9
$PLIMCHECK
 70
     0
  9
$PEXTMIN
 10
1.0000000000E+20
 20
1.0000000000E+20
 30
1.0000000000E+20
  9
$PEXTMAX
 10
-1.0000000000E+20
 20
-1.0000000000E+20
 30
-1.0000000000E+20
  9
$PLIMMIN
 10
0.0
 20
0.0
  9
$PLIMMAX
 10
420.0
 20
297.0
  9
$UNITMODE
 70
     0
  9
$VISRETAIN
 70
     1
  9
$PLINEGEN
 70
     0
  9
$PSLTSCALE
 70
     1
  9
$TREEDEPTH
 70
  3020
  9
$CMLSTYLE
  2
Standard
  9
$CMLJUST
 70
     0
  9
$CMLSCALE
 40
20.0
  9
$PROXYGRAPHICS
 70
     1
  9
$MEASUREMENT
 70
     1
  9
$CELWEIGHT
370
    -1
  9
$ENDCAPS
280
     0
  9
$JOINSTYLE
280
     0
  9
$LWDISPLAY
290
     1
  9
$INSUNITS
 70
     4
  9
$HYPERLINKBASE
  1

  9
$STYLESHEET
  1

  9
$XEDIT
290
     1
  9
$CEPSNTYPE
380
     0
  9
$PSTYLEMODE
290
     1
  9
$FINGERPRINTGUID
  2
{DA18C3BC-481D-4CF4-8C0E-5E37D0E01949}
  9
$VERSIONGUID
  2
{FAEB1C32-E019-11D5-929B-00C0DF256EC4}
  9
$EXTNAMES
290
     1
  9
$PSVPSCALE
 40
0.0
  9
$OLESTARTUP
290
     0
  9
$SORTENTS
280
   127
  9
$INDEXCTL
280
     0
  9
$HIDETEXT
280
     1
  9
$XCLIPFRAME
290
     0
  9
$HALOGAP
280
     0
  9
$OBSCOLOR
 70
   257
  9
$OBSLTYPE
280
     0
  9
$INTERSECTIONDISPLAY
280
     0
  9
$INTERSECTIONCOLOR
 70
   257
  9
$DIMASSOC
280
     2
  9
$PROJECTNAME
  1

  9
$CAMERADISPLAY
290
     0
  9
$LENSLENGTH
 40
50.0
  9
$CAMERAHEIGHT
 40
0.0
  9
$STEPSPERSEC
 40
2.0
  9
$STEPSIZE
 40
6.0
  9
$3DDWFPREC
 40
2.0
  9
$PSOLWIDTH
 40
5.0
  9
$PSOLHEIGHT
 40
80.0
  9
$LOFTANG1
 40
1.5707963268
  9
$LOFTANG2
 40
1.5707963268
  9
$LOFTMAG1
 40
0.0
  9
$LOFTMAG2
 40
0.0
  9
$LOFTPARAM
 70
     7
  9
$LOFTNORMALS
280
     1
  9
$LATITUDE
 40
37.795
  9
$LONGITUDE
 40
-122.394
  9
$NORTHDIRECTION
 40
0.0
  9
$TIMEZONE
 70
 -8000
  9
$LIGHTGLYPHDISPLAY
280
     1
  9
$TILEMODELIGHTSYNCH
280
     1
  9
$SOLIDHIST
280
     1
  9
$SHOWHIST
280
     1
  9
$DWFFRAME
280
     2
  9
$DGNFRAME
280
     2
  9
$REALWORLDSCALE
290
     1
  9
$INTERFERECOLOR
 62
   256
  9
$CSHADOW
280
     0
  9
$SHADOWPLANELOCATION
 40
0.0
  0
ENDSEC
  0
SECTION
  2
CLASSES
  0
CLASS
  1
ACDBDICTIONARYWDFLT
  2
AcDbDictionaryWithDefault
  3
ObjectDBX Classes
 90
        0
 91
        4
280
     0
281
     0
  0
CLASS
  1
VISUALSTYLE
  2
AcDbVisualStyle
  3
ObjectDBX Classes
 90
     4095
 91
        4
280
     0
281
     0
  0
CLASS
  1
MATERIAL
  2
AcDbMaterial
  3
ObjectDBX Classes
 90
     1153
 91
        4
280
     0
281
     0
  0
CLASS
  1
SCALE
  2
AcDbScale
  3
ObjectDBX Classes
 90
     1153
 91
        4
280
     0
281
     0
  0
CLASS
  1
IMAGEDEF
  2
AcDbRasterImageDef
  3
ISM
 90
        0
 91
        4
280
     0
281
     0
  0
CLASS
  1
IMAGE
  2
AcDbRasterImage
  3
ISM
 90
      127
 91
        5
280
     0
281
     1
  0
CLASS
  1
IMAGEDEF_REACTOR
  2
AcDbRasterImageDefReactor
  3
ISM
 90
        1
 91
        4
280
     0
281
     0
  0
CLASS
  1
DICTIONARYVAR
  2
AcDbDictionaryVar
  3
ObjectDBX Classes
 90
        0
 91
        4
280
     0
281
     0
  0
ENDSEC
  0
SECTION
  2
TABLES
  0
TABLE
  2
VPORT
  5
8
330
0
100
AcDbSymbolTable
 70
     1
  0
VPORT
  5
29
330
8
100
AcDbSymbolTableRecord
100
AcDbViewportTableRecord
  2
*Active
 70
     0
 10
0.0
 20
0.0
 11
1.0
 21
1.0
 12
105.0
 22
148.5
 13
0.0
 23
0.0
 14
10.0
 24
10.0
 15
10.0
 25
10.0
 16
0.0
 26
0.0
 36
1.0
 17
0.0
 27
0.0
 37
0.0
 40
297.0
 41
0.7070707071
 42
50.0
 43
0.0
 44
0.0
 50
0.0
 51
0.0
 71
     0
 72
  2000
 73
     1
 74
     3
 75
     0
 76
     0
 77
     0
 78
     0
281
     0
 65
     1
110
0.0
120
0.0
130
0.0
111
1.0
121
0.0
131
0.0
112
0.0
122
1.0
132
0.0
 79
     0
146
0.0
 60
     3
 61
     5
292
     1
282
     1
141
0.0
142
0.0
 63
   250
  0
ENDTAB
  0
TABLE
  2
LTYPE
  5
5
330
0
100
AcDbSymbolTable
 70
     6
  0
LTYPE
  5
14
330
5
100
AcDbSymbolTableRecord
100
AcDbLinetypeTableRecord
  2
ByBlock
 70
     0
  3

 72
    65
 73
     0
 40
0.0
  0
LTYPE
  5
15
330
5
100
AcDbSymbolTableRecord
100
AcDbLinetypeTableRecord
  2
ByLayer
 70
     0
  3

 72
    65
 73
     0
 40
0.0
  0
LTYPE
  5
16
330
5
100
AcDbSymbolTableRecord
100
AcDbLinetypeTableRecord
  2
Continuous
 70
     0
  3
Solid line
 72
    65
 73
     0
 40
0.0
  0
LTYPE
  5
3F
330
5
100
AcDbSymbolTableRecord
100
AcDbLinetypeTableRecord
  2
HIDDEN
 70
     0
  3
Hidden __ __ __ __ __ __ __ __ __ __ __ __ __ __
 72
    65
 73
     2
 40
1.905
 49
1.27
 74
     0
 49
-0.635
 74
     0
  0
LTYPE
  5
40
330
5
100
AcDbSymbolTableRecord
100
AcDbLinetypeTableRecord
  2
PHANTOM
 70
     0
  3
Phantom ______  __  __  ______  __  __  ______
 72
    65
 73
     6
 40
12.7
 49
6.35
 74
     0
 49
-1.27
 74
     0
 49
1.27
 74
     0
 49
-1.27
 74
     0
 49
1.27
 74
     0
 49
-1.27
 74
     0
  0
LTYPE
  5
41
330
5
100
AcDbSymbolTableRecord
100
AcDbLinetypeTableRecord
  2
CENTER
 70
     0
  3
Center ____ _ ____ _ ____ _ ____ _ ____ _ ____
 72
    65
 73
     4
 40
10.16
 49
6.35
 74
     0
 49
-1.27
 74
     0
 49
1.27
 74
     0
 49
-1.27
 74
     0
  0
LTYPE
  5
42
330
5
100
AcDbSymbolTableRecord
100
AcDbLinetypeTableRecord
  2
CENTERX2
 70
     0
  3
Center (2x) ________  __  ________  __  _____
 72
    65
 73
     4
 40
20.32
 49
12.7
 74
     0
 49
-2.54
 74
     0
 49
2.54
 74
     0
 49
-2.54
 74
     0
  0
LTYPE
  5
43
330
5
100
AcDbSymbolTableRecord
100
AcDbLinetypeTableRecord
  2
DOT2
 70
     0
  3
Dot (.5x) ........................................
 72
    65
 73
     2
 40
0.635
 49
0.0
 74
     0
 49
-0.635
 74
     0
  0
ENDTAB
  0
TABLE
  2
LAYER
  5
2
330
0
100
AcDbSymbolTable
 70
     3
  0
LAYER
  5
10
330
2
100
AcDbSymbolTableRecord
100
AcDbLayerTableRecord
  2
0
 70
     0
 62
     7
  6
Continuous
370
    -3
390
F
347
3E
  0
LAYER
  5
44
330
2
100
AcDbSymbolTableRecord
100
AcDbLayerTableRecord
  2
SLD-0
 70
     0
 62
   179
  6
Continuous
370
    -3
390
F
347
3E
  0
LAYER
  5
45
330
2
100
AcDbSymbolTableRecord
100
AcDbLayerTableRecord
  2
FORMAT
 70
     0
 62
   179
  6
Continuous
370
    -3
390
F
347
3E
  0
ENDTAB
  0
TABLE
  2
STYLE
  5
3
330
0
100
AcDbSymbolTable
 70
     5
  0
STYLE
  5
11
330
3
100
AcDbSymbolTableRecord
100
AcDbTextStyleTableRecord
  2
Standard
 70
     0
 40
0.0
 41
1.0
 50
0.0
 71
     0
 42
2.5
  3
txt
  4

  0
STYLE
  5
49
330
3
100
AcDbSymbolTableRecord
100
AcDbTextStyleTableRecord
  2
SLDTEXTSTYLE0
 70
     0
 40
0.0
 41
0.4457894737
 50
0.0
 71
     0
 42
0.2
  3
TXT
  4

  0
STYLE
  5
8E
330
3
100
AcDbSymbolTableRecord
100
AcDbTextStyleTableRecord
  2
SLDTEXTSTYLE1
 70
     0
 40
0.0
 41
0.5526315789
 50
0.0
 71
     0
 42
0.2
  3
TXT
  4

  0
STYLE
  5
90
330
3
100
AcDbSymbolTableRecord
100
AcDbTextStyleTableRecord
  2
SLDTEXTSTYLE2
 70
     0
 40
0.0
 41
0.5065789474
 50
0.0
 71
     0
 42
0.2
  3
TXT
  4

  0
STYLE
  5
9B
330
3
100
AcDbSymbolTableRecord
100
AcDbTextStyleTableRecord
  2
SLDTEXTSTYLE3
 70
     0
 40
0.0
 41
0.75
 50
0.0
 71
     0
 42
0.2
  3
TXT
  4

  0
ENDTAB
  0
TABLE
  2
VIEW
  5
6
330
0
100
AcDbSymbolTable
 70
     0
  0
ENDTAB
  0
TABLE
  2
UCS
  5
7
330
0
100
AcDbSymbolTable
 70
     0
  0
ENDTAB
  0
TABLE
  2
APPID
  5
9
330
0
100
AcDbSymbolTable
 70
     1
  0
APPID
  5
12
330
9
100
AcDbSymbolTableRecord
100
AcDbRegAppTableRecord
  2
ACAD
 70
     0
  0
ENDTAB
  0
TABLE
  2
DIMSTYLE
  5
A
330
0
100
AcDbSymbolTable
 70
     3
100
AcDbDimStyleTable
  0
DIMSTYLE
105
27
330
A
100
AcDbSymbolTableRecord
100
AcDbDimStyleTableRecord
  2
ISO-25
 70
     0
 41
2.5
 42
0.625
 43
3.75
 44
1.25
 73
     0
 74
     0
 77
     1
 78
     8
140
2.5
141
2.5
143
0.0393700787
147
0.625
171
     3
172
     1
271
     2
272
     2
274
     3
278
    44
283
     0
284
     8
340
11
  0
DIMSTYLE
105
1D9
102
{ACAD_REACTORS
330
1D8
330
255
102
}
330
A
100
AcDbSymbolTableRecord
100
AcDbDimStyleTableRecord
  2
SLDDIMSTYLE0
 70
     0
 41
3.302
 44
0.0
 45
0.000000001
 73
     0
 77
     1
 78
    12
140
3.5
147
0.875
173
     1
271
     0
272
     2
284
    12
340
9B
  0
DIMSTYLE
105
260
102
{ACAD_REACTORS
330
25F
330
26A
102
}
330
A
100
AcDbSymbolTableRecord
100
AcDbDimStyleTableRecord
  2
SLDDIMSTYLE1
 70
     0
 41
3.302
 44
0.0
 45
0.000000001
 73
     0
 77
     1
 78
    12
140
3.5
147
0.875
173
     1
271
     1
272
     2
284
    12
340
9B
  0
ENDTAB
  0
TABLE
  2
BLOCK_RECORD
  5
1
330
0
100
AcDbSymbolTable
 70
     8
  0
BLOCK_RECORD
  5
1F
330
1
100
AcDbSymbolTableRecord
100
AcDbBlockTableRecord
  2
*Model_Space
340
22
 70
     0
280
     1
281
     0
  0
BLOCK_RECORD
  5
1B
330
1
100
AcDbSymbolTableRecord
100
AcDbBlockTableRecord
  2
*Paper_Space
340
1E
 70
     0
280
     1
281
     0
  0
BLOCK_RECORD
  5
23
330
1
100
AcDbSymbolTableRecord
100
AcDbBlockTableRecord
  2
*Paper_Space0
340
26
 70
     0
280
     1
281
     0
  0
BLOCK_RECORD
  5
46
330
1
100
AcDbSymbolTableRecord
100
AcDbBlockTableRecord
  2
SW_NOTE_0
340
0
102
{BLKREFS
331
8B
102
}
 70
     0
280
     1
281
     0
  0
BLOCK_RECORD
  5
6E
330
1
100
AcDbSymbolTableRecord
100
AcDbBlockTableRecord
  2
SW_NOTE_1
340
0
102
{BLKREFS
331
8C
102
}
 70
     0
280
     1
281
     0
  0
BLOCK_RECORD
  5
98
330
1
100
AcDbSymbolTableRecord
100
AcDbBlockTableRecord
  2
SW_NOTE_0_1
340
0
102
{BLKREFS
331
9F
102
}
 70
     0
280
     1
281
     0
  0
BLOCK_RECORD
  5
1DA
330
1
100
AcDbSymbolTableRecord
100
AcDbBlockTableRecord
  2
*D4
340
0
 70
     0
280
     1
281
     0
  0
BLOCK_RECORD
  5
256
330
1
100
AcDbSymbolTableRecord
100
AcDbBlockTableRecord
  2
*D5
340
0
 70
     0
280
     1
281
     0
  0
BLOCK_RECORD
  5
261
330
1
100
AcDbSymbolTableRecord
100
AcDbBlockTableRecord
  2
*D6
340
0
 70
     0
280
     1
281
     0
  0
BLOCK_RECORD
  5
26B
330
1
100
AcDbSymbolTableRecord
100
AcDbBlockTableRecord
  2
*D7
340
0
 70
     0
280
     1
281
     0
  0
ENDTAB
  0
ENDSEC
  0
SECTION
  2
BLOCKS
  0
BLOCK
  5
20
330
1F
100
AcDbEntity
  8
0
100
AcDbBlockBegin
  2
*Model_Space
 70
     0
 10
0.0
 20
0.0
 30
0.0
  3
*Model_Space
  1

  0
ENDBLK
  5
21
330
1F
100
AcDbEntity
  8
0
100
AcDbBlockEnd
  0
BLOCK
  5
1C
330
1B
100
AcDbEntity
 67
     1
  8
0
100
AcDbBlockBegin
  2
*Paper_Space
 70
     0
 10
0.0
 20
0.0
 30
0.0
  3
*Paper_Space
  1

  0
ENDBLK
  5
1D
330
1B
100
AcDbEntity
 67
     1
  8
0
100
AcDbBlockEnd
  0
BLOCK
  5
24
330
23
100
AcDbEntity
  8
0
100
AcDbBlockBegin
  2
*Paper_Space0
 70
     0
 10
0.0
 20
0.0
 30
0.0
  3
*Paper_Space0
  1

  0
ENDBLK
  5
25
330
23
100
AcDbEntity
  8
0
100
AcDbBlockEnd
  0
BLOCK
  5
47
330
46
100
AcDbEntity
  8
0
100
AcDbBlockBegin
  2
SW_NOTE_0
 70
     0
 10
0.0
 20
0.0
 30
0.0
  3
SW_NOTE_0
  1

  0
MTEXT
  5
6C
330
46
100
AcDbEntity
  8
SLD-0
 48
10.0
100
AcDbMText
 10
0.0
 20
16.0053660025
 30
0.0
 40
15.0
 41
0.0
 46
0.0
 71
     1
 72
     1
  1
Disclaimer: This information is intended solely as a guide for use fo Marley NZ products. Before using you should ensure that the product is suitable for use in the specific application. 
  7
SLDTEXTSTYLE0
 73
     1
 44
1.0
  0
MTEXT
  5
6D
330
46
100
AcDbEntity
  8
SLD-0
 48
10.0
100
AcDbMText
 10
0.0
 20
-8.9946334395
 30
0.0
 40
15.0
 41
0.0
 46
0.0
 71
     1
 72
     1
  1
Marley NZ makes no warranty regarding the use of this information with non-Marley NZ products. This drawing is the property of Marley NZ Ltd.
  7
SLDTEXTSTYLE0
 73
     1
 44
1.0
  0
ENDBLK
  5
48
330
46
100
AcDbEntity
  8
0
100
AcDbBlockEnd
  0
BLOCK
  5
6F
330
6E
100
AcDbEntity
  8
0
100
AcDbBlockBegin
  2
SW_NOTE_1
 70
     0
 10
0.0
 20
0.0
 30
0.0
  3
SW_NOTE_1
  1

  0
MTEXT
  5
71
330
6E
100
AcDbEntity
  8
SLD-0
 48
10.0
100
AcDbMText
 10
0.0
 20
25.4085168109
 30
0.0
 40
23.8125
 41
0.0
 46
0.0
 71
     1
 72
     1
  1
0800 MARLEY
  7
SLDTEXTSTYLE0
 73
     1
 44
1.0
  0
MTEXT
  5
72
330
6E
100
AcDbEntity
  8
SLD-0
 48
10.0
100
AcDbMText
 10
-20.973738283
 20
-6.3414828051
 30
0.0
 40
23.8125
 41
0.0
 46
0.0
 71
     1
 72
     1
  1
www.marley.co.nz
  7
SLDTEXTSTYLE0
 73
     1
 44
1.0
  0
ENDBLK
  5
70
330
6E
100
AcDbEntity
  8
0
100
AcDbBlockEnd
  0
BLOCK
  5
99
330
98
100
AcDbEntity
  8
0
100
AcDbBlockBegin
  2
SW_NOTE_0_1
 70
     0
 10
0.0
 20
0.0
 30
0.0
  3
SW_NOTE_0_1
  1

  0
MTEXT
  5
9C
330
98
100
AcDbEntity
  8
SLD-0
 62
     0
 48
10.0
100
AcDbMText
 10
0.0
 20
4.0927900738
 30
0.0
 40
3.175
 41
0.0
 46
0.0
 71
     1
 72
     1
  1
NOTE: Fixing recommendations
  7
SLDTEXTSTYLE3
 73
     1
 44
1.0
  0
MTEXT
  5
9D
330
98
100
AcDbEntity
  8
SLD-0
 62
     0
 48
10.0
100
AcDbMText
 10
0.0
 20
-0.1171193985
 30
0.0
 40
2.6458333333
 41
0.0
 46
0.0
 71
     1
 72
     1
  1
Stainless Steel, grade 304 8g screw with neutral coloured 
  7
SLDTEXTSTYLE3
 73
     1
 44
1.0
  0
MTEXT
  5
9E
330
98
100
AcDbEntity
  8
SLD-0
 62
     0
 48
10.0
100
AcDbMText
 10
0.0
 20
-3.6448971337
 30
0.0
 40
2.6458333333
 41
0.0
 46
0.0
 71
     1
 72
     1
  1
washer to go between clip and wall. 
  7
SLDTEXTSTYLE3
 73
     1
 44
1.0
  0
ENDBLK
  5
9A
330
98
100
AcDbEntity
  8
0
100
AcDbBlockEnd
  0
BLOCK
  5
1DB
330
1DA
100
AcDbEntity
  8
0
100
AcDbBlockBegin
  2
*D4
 70
     1
 10
0.0
 20
0.0
 30
0.0
  3
*D4
  1

  0
SOLID
  5
1DD
330
1DA
100
AcDbEntity
  8
SLD-0
 48
10.0
100
AcDbTrace
 10
171.5725252856
 20
78.5511733311
 30
0.0
 11
168.2705252856
 21
79.0591733311
 31
0.0
 12
168.2705252856
 22
78.0431733311
 32
0.0
 13
168.2705252856
 23
78.0431733311
 33
0.0
  0
SOLID
  5
1DE
330
1DA
100
AcDbEntity
  8
SLD-0
 48
10.0
100
AcDbTrace
 10
146.5725252856
 20
78.5511733311
 30
0.0
 11
149.8745252856
 21
78.0431733311
 31
0.0
 12
149.8745252856
 22
79.0591733311
 32
0.0
 13
149.8745252856
 23
79.0591733311
 33
0.0
  0
LINE
  5
1DF
330
1DA
100
AcDbEntity
  8
SLD-0
 48
10.0
100
AcDbLine
 10
171.5725252856
 20
91.1673575319
 30
0.0
 11
171.5725252856
 21
77.5511733311
 31
0.0
  0
LINE
  5
1E0
330
1DA
100
AcDbEntity
  8
SLD-0
 48
10.0
100
AcDbLine
 10
146.5725252856
 20
91.1673575319
 30
0.0
 11
146.5725252856
 21
77.5511733311
 31
0.0
  0
LINE
  5
1E1
330
1DA
100
AcDbEntity
  8
SLD-0
 48
10.0
100
AcDbLine
 10
171.5725252856
 20
78.5511733311
 30
0.0
 11
146.5725252856
 21
78.5511733311
 31
0.0
  0
MTEXT
  5
1E2
330
1DA
100
AcDbEntity
  8
SLD-0
 48
10.0
100
AcDbMText
 10
156.6342551825
 20
83.0629102456
 30
0.0
 40
3.5
 41
0.0
 46
0.0
 71
     1
 72
     1
  1
25
  7
SLDTEXTSTYLE3
 73
     1
 44
1.0
  0
ENDBLK
  5
1DC
330
1DA
100
AcDbEntity
  8
0
100
AcDbBlockEnd
  0
BLOCK
  5
257
330
256
100
AcDbEntity
  8
0
100
AcDbBlockBegin
  2
*D5
 70
     1
 10
0.0
 20
0.0
 30
0.0
  3
*D5
  1

  0
SOLID
  5
259
330
256
100
AcDbEntity
  8
SLD-0
 48
10.0
100
AcDbTrace
 10
24.7344417362
 20
88.5511733311
 30
0.0
 11
25.2424417362
 21
91.8531733311
 31
0.0
 12
24.2264417362
 22
91.8531733311
 32
0.0
 13
24.2264417362
 23
91.8531733311
 33
0.0
  0
SOLID
  5
25A
330
256
100
AcDbEntity
  8
SLD-0
 48
10.0
100
AcDbTrace
 10
24.7344417362
 20
205.9458728055
 30
0.0
 11
24.2264417362
 21
202.6438728055
 31
0.0
 12
25.2424417362
 22
202.6438728055
 32
0.0
 13
25.2424417362
 23
202.6438728055
 33
0.0
  0
LINE
  5
25B
330
256
100
AcDbEntity
  8
SLD-0
 48
10.0
100
AcDbLine
 10
45.4844417362
 20
88.5511733311
 30
0.0
 11
23.7344417362
 21
88.5511733311
 31
0.0
  0
LINE
  5
25C
330
256
100
AcDbEntity
  8
SLD-0
 48
10.0
100
AcDbLine
 10
76.7344417362
 20
205.9458728055
 30
0.0
 11
23.7344417362
 21
205.9458728055
 31
0.0
  0
LINE
  5
25D
330
256
100
AcDbEntity
  8
SLD-0
 48
10.0
100
AcDbLine
 10
24.7344417362
 20
88.5511733311
 30
0.0
 11
24.7344417362
 21
205.9458728055
 31
0.0
  0
MTEXT
  5
25E
330
256
100
AcDbEntity
  8
SLD-0
 48
10.0
100
AcDbMText
 10
20.2227048216
 20
138.3011517856
 30
0.0
 40
3.5
 41
0.0
 46
0.0
 71
     1
 72
     1
  1
117
  7
SLDTEXTSTYLE3
 11
5.053215498074303E-16
 21
1.0
 31
0.0
 73
     1
 44
1.0
  0
ENDBLK
  5
258
330
256
100
AcDbEntity
  8
0
100
AcDbBlockEnd
  0
BLOCK
  5
262
330
261
100
AcDbEntity
  8
0
100
AcDbBlockBegin
  2
*D6
 70
     1
 10
0.0
 20
0.0
 30
0.0
  3
*D6
  1

  0
SOLID
  5
264
330
261
100
AcDbEntity
  8
SLD-0
 48
10.0
100
AcDbTrace
 10
46.4844417362
 20
72.5511733311
 30
0.0
 11
49.7864417362
 21
72.0431733311
 31
0.0
 12
49.7864417362
 22
73.0591733311
 32
0.0
 13
49.7864417362
 23
73.0591733311
 33
0.0
  0
SOLID
  5
265
330
261
100
AcDbEntity
  8
SLD-0
 48
10.0
100
AcDbTrace
 10
108.9844417362
 20
72.5511733311
 30
0.0
 11
105.6824417362
 21
73.0591733311
 31
0.0
 12
105.6824417362
 22
72.0431733311
 32
0.0
 13
105.6824417362
 23
72.0431733311
 33
0.0
  0
LINE
  5
266
330
261
100
AcDbEntity
  8
SLD-0
 48
10.0
100
AcDbLine
 10
46.4844417362
 20
87.5511733311
 30
0.0
 11
46.4844417362
 21
71.5511733311
 31
0.0
  0
LINE
  5
267
330
261
100
AcDbEntity
  8
SLD-0
 48
10.0
100
AcDbLine
 10
108.9844417362
 20
87.5511733311
 30
0.0
 11
108.9844417362
 21
71.5511733311
 31
0.0
  0
LINE
  5
268
330
261
100
AcDbEntity
  8
SLD-0
 48
10.0
100
AcDbLine
 10
46.4844417362
 20
72.5511733311
 30
0.0
 11
108.9844417362
 21
72.5511733311
 31
0.0
  0
MTEXT
  5
269
330
261
100
AcDbEntity
  8
SLD-0
 48
10.0
100
AcDbMText
 10
73.2556283009
 20
77.0629102456
 30
0.0
 40
3.5
 41
0.0
 46
0.0
 71
     1
 72
     1
  1
62.5
  7
SLDTEXTSTYLE3
 73
     1
 44
1.0
  0
ENDBLK
  5
263
330
261
100
AcDbEntity
  8
0
100
AcDbBlockEnd
  0
BLOCK
  5
26C
330
26B
100
AcDbEntity
  8
0
100
AcDbBlockBegin
  2
*D7
 70
     1
 10
0.0
 20
0.0
 30
0.0
  3
*D7
  1

  0
SOLID
  5
26E
330
26B
100
AcDbEntity
  8
SLD-0
 48
10.0
100
AcDbTrace
 10
58.9844417362
 20
82.9642770977
 30
0.0
 11
62.2864417362
 21
82.4562770977
 31
0.0
 12
62.2864417362
 22
83.4722770977
 32
0.0
 13
62.2864417362
 23
83.4722770977
 33
0.0
  0
SOLID
  5
26F
330
26B
100
AcDbEntity
  8
SLD-0
 48
10.0
100
AcDbTrace
 10
96.4844417362
 20
82.9642770977
 30
0.0
 11
93.1824417362
 21
83.4722770977
 31
0.0
 12
93.1824417362
 22
82.4562770977
 32
0.0
 13
93.1824417362
 23
82.4562770977
 33
0.0
  0
LINE
  5
270
330
26B
100
AcDbEntity
  8
SLD-0
 48
10.0
100
AcDbLine
 10
58.9844417362
 20
87.5511733311
 30
0.0
 11
58.9844417362
 21
81.9642770977
 31
0.0
  0
LINE
  5
271
330
26B
100
AcDbEntity
  8
SLD-0
 48
10.0
100
AcDbLine
 10
96.4844417362
 20
87.5511733311
 30
0.0
 11
96.4844417362
 21
81.9642770977
 31
0.0
  0
LINE
  5
272
330
26B
100
AcDbEntity
  8
SLD-0
 48
10.0
100
AcDbLine
 10
58.9844417362
 20
82.9642770977
 30
0.0
 11
96.4844417362
 21
82.9642770977
 31
0.0
  0
MTEXT
  5
273
330
26B
100
AcDbEntity
  8
SLD-0
 48
10.0
100
AcDbMText
 10
73.2556283009
 20
87.4760140122
 30
0.0
 40
3.5
 41
0.0
 46
0.0
 71
     1
 72
     1
  1
37.5
  7
SLDTEXTSTYLE3
 73
     1
 44
1.0
  0
ENDBLK
  5
26D
330
26B
100
AcDbEntity
  8
0
100
AcDbBlockEnd
  0
ENDSEC
  0
SECTION
  2
ENTITIES
  0
IMAGE
  5
75
330
1F
100
AcDbEntity
  8
0
 92
      140
310
8C000000010000008400000006000000050000007B2AF04D7B252440CA7ECED2C0853A400000000000000000D287FE2793E75340CA7ECED2C0853A400000000000000000D287FE2793E75340FC7BB1D4D9E8424000000000000000007B2AF04D7B252440FC7BB1D4D9E8424000000000000000007B2AF04D7B252440CA7ECE
310
D2C0853A400000000000000000
100
AcDbRasterImage
 90
        0
 10
10.0732063633
 20
26.5224735026
 30
0.0
 11
0.1765105338580665
 21
0.0
 31
0.0
 12
0.0
 22
0.1765105338580665
 32
0.0
 13
394.0
 23
64.0
340
74
 70
     7
280
     0
281
    50
282
    50
283
     0
360
76
 71
     1
 91
        2
 14
-0.5
 24
-0.5
 14
393.5
 24
63.5
  0
LINE
  5
77
330
1F
100
AcDbEntity
  8
SLD-0
  6
Continuous
 62
   250
420
  1644836
 48
10.0
370
    40
100
AcDbLine
 10
10.0788435654
 20
5.2147801566
 30
0.0
 11
205.0788435654
 21
5.2147801566
 31
0.0
  0
LINE
  5
78
330
1F
100
AcDbEntity
  8
SLD-0
  6
Continuous
 62
   250
420
  1644836
 48
10.0
370
    40
100
AcDbLine
 10
0.0788435654
 20
0.2147801566
 30
0.0
 11
210.0788435654
 21
0.2147801566
 31
0.0
  0
LINE
  5
79
330
1F
100
AcDbEntity
  8
SLD-0
  6
Continuous
 62
   250
420
  1644836
 48
10.0
370
    40
100
AcDbLine
 10
0.0788435654
 20
0.2147801566
 30
0.0
 11
0.0788435654
 21
297.2147801566
 31
0.0
  0
LINE
  5
7A
330
1F
100
AcDbEntity
  8
SLD-0
  6
Continuous
 62
   250
420
  1644836
 48
10.0
370
    40
100
AcDbLine
 10
0.0788435654
 20
297.2147801566
 30
0.0
 11
210.0788435654
 21
297.2147801566
 31
0.0
  0
LINE
  5
7B
330
1F
100
AcDbEntity
  8
SLD-0
  6
Continuous
 62
   250
420
  1644836
 48
10.0
370
    40
100
AcDbLine
 10
210.0788435654
 20
0.2147801566
 30
0.0
 11
210.0788435654
 21
297.2147801566
 31
0.0
  0
LINE
  5
7C
330
1F
100
AcDbEntity
  8
SLD-0
  6
Continuous
 62
   250
420
  1644836
 48
10.0
370
    40
100
AcDbLine
 10
205.0788435654
 20
35.066192565
 30
0.0
 11
116.9116953245
 21
35.066192565
 31
0.0
  0
LINE
  5
7D
330
1F
100
AcDbEntity
  8
SLD-0
  6
Continuous
 62
   250
420
  1644836
 48
10.0
370
    40
100
AcDbLine
 10
10.0788435654
 20
292.2147801566
 30
0.0
 11
205.0788435654
 21
292.2147801566
 31
0.0
  0
LINE
  5
7E
330
1F
100
AcDbEntity
  8
SLD-0
  6
Continuous
 62
   250
420
  1644836
 48
10.0
370
    40
100
AcDbLine
 10
205.0788435654
 20
5.2147801566
 30
0.0
 11
180.9883118484
 21
5.2147801566
 31
0.0
  0
LINE
  5
7F
330
1F
100
AcDbEntity
  8
SLD-0
  6
Continuous
 62
   250
420
  1644836
 48
10.0
370
    40
100
AcDbLine
 10
10.0788435654
 20
5.2147801566
 30
0.0
 11
10.0788435654
 21
292.2147801566
 31
0.0
  0
LINE
  5
80
330
1F
100
AcDbEntity
  8
SLD-0
  6
Continuous
 62
   250
420
  1644836
 48
10.0
370
    40
100
AcDbLine
 10
10.0788435654
 20
11.2357498601
 30
0.0
 11
205.0788435654
 21
11.2357498601
 31
0.0
  0
LINE
  5
81
330
1F
100
AcDbEntity
  8
SLD-0
  6
Continuous
 62
   250
420
  1644836
 48
10.0
370
    40
100
AcDbLine
 10
205.0788435654
 20
43.3709272577
 30
0.0
 11
10.1108209117
 21
43.3709272577
 31
0.0
  0
LINE
  5
82
330
1F
100
AcDbEntity
  8
SLD-0
  6
Continuous
 62
   250
420
  1644836
 48
10.0
370
    40
100
AcDbLine
 10
210.0788435654
 20
292.2147801566
 30
0.0
 11
210.0788435654
 21
297.2147801566
 31
0.0
  0
LINE
  5
83
330
1F
100
AcDbEntity
  8
SLD-0
  6
Continuous
 62
   250
420
  1644836
 48
10.0
370
    40
100
AcDbLine
 10
79.7554204619
 20
22.1812450349
 30
0.0
 11
79.7554204619
 21
43.3709272577
 31
0.0
  0
LINE
  5
84
330
1F
100
AcDbEntity
  8
SLD-0
  6
Continuous
 62
   250
420
  1644836
 48
10.0
370
    40
100
AcDbLine
 10
10.1108209117
 20
60.3709272577
 30
0.0
 11
10.1108209117
 21
5.1209272577
 31
0.0
  0
LINE
  5
85
330
1F
100
AcDbEntity
  8
SLD-0
  6
Continuous
 62
   250
420
  1644836
 48
10.0
370
    40
100
AcDbLine
 10
10.0788435654
 20
22.2147801566
 30
0.0
 11
205.0788435654
 21
22.1209272577
 31
0.0
  0
LINE
  5
86
330
1F
100
AcDbEntity
  8
SLD-0
  6
Continuous
 62
   250
420
  1644836
 48
10.0
370
    40
100
AcDbLine
 10
116.9080516189
 20
43.3709272577
 30
0.0
 11
116.9173564476
 21
22.1633591097
 31
0.0
  0
LINE
  5
87
330
1F
100
AcDbEntity
  8
SLD-0
  6
Continuous
 62
   250
420
  1644836
 48
10.0
370
    40
100
AcDbLine
 10
160.8788435654
 20
5.2147801566
 30
0.0
 11
160.8788435654
 21
11.2357498601
 31
0.0
  0
LINE
  5
88
330
1F
100
AcDbEntity
  8
SLD-0
  6
Continuous
 62
   250
420
  1644836
 48
10.0
370
    40
100
AcDbLine
 10
192.0788435654
 20
11.2357498601
 30
0.0
 11
192.0788435654
 21
22.2147801566
 31
0.0
  0
LINE
  5
89
330
1F
100
AcDbEntity
  8
SLD-0
  6
Continuous
 62
   250
420
  1644836
 48
10.0
370
    40
100
AcDbLine
 10
205.0788435654
 20
13.7147801566
 30
0.0
 11
192.0788435654
 21
13.7147801566
 31
0.0
  0
LINE
  5
8A
330
1F
100
AcDbEntity
  8
SLD-0
  6
Continuous
 62
   250
420
  1644836
 48
10.0
370
    40
100
AcDbLine
 10
205.0788435654
 20
5.2147801566
 30
0.0
 11
205.0788435654
 21
292.2147801566
 31
0.0
  0
INSERT
  5
8B
330
1F
100
AcDbEntity
  8
0
  6
Continuous
 62
     7
 48
10.0
100
AcDbBlockReference
  2
SW_NOTE_0
 10
12.3050601837
 20
16.8389604502
 30
0.0
 41
0.1
 42
0.1
 43
0.1
  0
INSERT
  5
8C
330
1F
100
AcDbEntity
  8
0
  6
Continuous
 62
     7
 48
10.0
100
AcDbBlockReference
  2
SW_NOTE_1
 10
87.196611182
 20
32.8969357155
 30
0.0
 41
0.1
 42
0.1
 43
0.1
  0
MTEXT
  5
8D
330
1F
100
AcDbEntity
  8
SLD-0
 62
   250
420
  1644836
 48
10.0
100
AcDbMText
 10
131.9867841055
 20
40.1015259906
 30
0.0
 40
3.175
 41
0.0
 46
0.0
 71
     1
 72
     1
  1
RP80 Adjustable Clip
  7
SLDTEXTSTYLE0
 73
     1
 44
1.0
  0
MTEXT
  5
8F
330
1F
100
AcDbEntity
  8
SLD-0
 62
   250
420
  1644836
 48
10.0
100
AcDbMText
 10
195.9998284117
 20
18.8689860195
 30
0.0
 40
2.9104166667
 41
0.0
 46
0.0
 71
     1
 72
     1
  1
A4
  7
SLDTEXTSTYLE1
 73
     1
 44
1.0
  0
MTEXT
  5
91
330
1F
100
AcDbEntity
  8
SLD-0
 62
   250
420
  1644836
 48
10.0
100
AcDbMText
 10
164.0281072696
 20
8.5413340856
 30
0.0
 40
1.5
 41
0.0
 46
0.0
 71
     1
 72
     1
  1
SHEET 1 OF 1
  7
SLDTEXTSTYLE2
 73
     1
 44
1.0
  0
MTEXT
  5
92
330
1F
100
AcDbEntity
  8
SLD-0
 62
   250
420
  1644836
 48
10.0
100
AcDbMText
 10
14.3797311356
 20
8.5413340856
 30
0.0
 40
1.5
 41
0.0
 46
0.0
 71
     1
 72
     1
  1
SCALE:
  7
SLDTEXTSTYLE1
 73
     1
 44
1.0
  0
MTEXT
  5
93
330
1F
100
AcDbEntity
  8
SLD-0
 62
   250
420
  1644836
 48
10.0
100
AcDbMText
 10
92.7036146979
 20
40.1514661596
 30
0.0
 40
1.5
 41
0.0
 46
0.0
 71
     1
 72
     1
  1
CONTACT:
  7
SLDTEXTSTYLE1
 73
     1
 44
1.0
  0
MTEXT
  5
94
330
1F
100
AcDbEntity
  8
SLD-0
 62
   250
420
  1644836
 48
10.0
100
AcDbMText
 10
23.5366971372
 20
9.0162768564
 30
0.0
 40
2.1166666667
 41
0.0
 46
0.0
 71
     1
 72
     1
  1
1:2
  7
SLDTEXTSTYLE0
 73
     1
 44
1.0
  0
MTEXT
  5
95
330
1F
100
AcDbEntity
  8
SLD-0
 62
   250
420
  1644836
 48
10.0
100
AcDbMText
 10
122.1441575388
 20
38.7971767854
 30
0.0
 40
1.5
 41
0.0
 46
0.0
 71
     1
 72
     1
  1
DWG NO.
  7
SLDTEXTSTYLE1
 73
     1
 44
1.0
  0
MTEXT
  5
96
330
1F
100
AcDbEntity
  8
SLD-0
 62
   250
420
  1644836
 48
10.0
100
AcDbMText
 10
125.1193599119
 20
29.963124206
 30
0.0
 40
3.175
 41
0.0
 46
0.0
 71
     1
 72
     1
  1
80mm Round Downpipe with Adjustable Clip
  7
SLDTEXTSTYLE0
 73
     1
 44
1.0
  0
MTEXT
  5
97
330
1F
100
AcDbEntity
  8
SLD-0
 62
   250
420
  1644836
 48
10.0
100
AcDbMText
 10
128.9875122993
 20
8.4914975992
 30
0.0
 40
1.5
 41
0.0
 46
0.0
 71
     1
 72
     1
  1
DATE: 30/04/12
  7
SLDTEXTSTYLE1
 73
     1
 44
1.0
  0
INSERT
  5
9F
330
1F
100
AcDbEntity
  8
SLD-0
 48
10.0
100
AcDbBlockReference
  2
SW_NOTE_0_1
 10
15.7447573062
 20
57.145715134
 30
0.0
  0
SPLINE
  5
A0
330
1F
100
AcDbEntity
  8
0
  6
Continuous
 62
     7
 48
10.0
370
    15
100
AcDbSpline
210
0.0
220
0.0
230
1.0
 70
     8
 71
     3
 72
    13
 73
     9
 74
     0
 42
0.00000001
 43
0.00000001
 40
0.0
 40
0.0
 40
0.0
 40
0.0
 40
0.0616885371499863
 40
0.2637879053547414
 40
0.4664394243332922
 40
0.6698367946782159
 40
0.8740705131245267
 40
1.0
 40
1.0
 40
1.0
 40
1.0
 10
119.0853196787086
 20
260.8245458505542
 30
0.0
 10
119.0750160216539
 20
260.8914635306168
 30
0.0
 10
119.0309562945552
 20
261.1776119055088
 30
0.0
 10
118.8860270827656
 20
261.6775986716882
 30
0.0
 10
118.6508770359968
 20
262.3218206092314
 30
0.0
 10
118.3434317950369
 20
262.9552671119174
 30
0.0
 10
118.0294708977147
 20
263.4991775581383
 30
0.0
 10
117.7926519579922
 20
263.8240435975621
 30
0.0
 10
117.7023254555809
 20
263.9479526612871
 30
0.0
  0
SPLINE
  5
A1
330
1F
100
AcDbEntity
  8
0
  6
Continuous
 62
     7
 48
10.0
370
    15
100
AcDbSpline
210
0.0
220
0.0
230
1.0
 70
     8
 71
     3
 72
    13
 73
     9
 74
     0
 42
0.00000001
 43
0.00000001
 40
0.0
 40
0.0
 40
0.0
 40
0.0
 40
0.0327503678435209
 40
0.2332258057784712
 40
0.4330166926998055
 40
0.6320025374218529
 40
0.8301247788182451
 40
1.0
 40
1.0
 40
1.0
 40
1.0
 10
83.45232545558086
 20
263.9529382897184
 30
0.0
 10
83.42695287467534
 20
263.9201143669666
 30
0.0
 10
83.24626664071769
 20
263.6863647532468
 30
0.0
 10
82.96992762369698
 20
263.2349863774448
 30
0.0
 10
82.6290360214244
 20
262.6012297954329
 30
0.0
 10
82.36142736510743
 20
261.9549488390374
 30
0.0
 10
82.16193388472983
 20
261.3319032742382
 30
0.0
 10
82.08533124401967
 20
260.9217682490027
 30
0.0
 10
82.04996988461633
 20
260.7324414595239
 30
0.0
  0
LINE
  5
A2
330
1F
100
AcDbEntity
  8
0
  6
Continuous
 62
     7
 48
10.0
370
    15
100
AcDbLine
 10
119.2023254556
 20
254.3199777476
 30
0.0
 11
119.2023254556
 21
259.6274930248
 31
0.0
  0
LINE
  5
A3
330
1F
100
AcDbEntity
  8
0
  6
Continuous
 62
     7
 48
10.0
370
    15
100
AcDbLine
 10
81.9523254556
 20
259.6274930248
 30
0.0
 11
81.9523254556
 21
254.3199777476
 31
0.0
  0
SPLINE
  5
A4
330
1F
100
AcDbEntity
  8
0
  6
Continuous
 62
     7
 48
10.0
370
    15
100
AcDbSpline
210
0.0
220
0.0
230
1.0
 70
     8
 71
     3
 72
    57
 73
    53
 74
     0
 42
0.00000001
 43
0.00000001
 40
0.0
 40
0.0
 40
0.0
 40
0.0
 40
0.0129593110055798
 40
0.033012566670787
 40
0.0531282415379897
 40
0.0733221097928361
 40
0.0935996511596056
 40
0.1139572147983203
 40
0.1343845916829713
 40
0.1548680610610249
 40
0.1753930973003914
 40
0.1959462820448209
 40
0.2165163445298635
 40
0.2370944980545253
 40
0.2576734293124689
 40
0.2782485645220384
 40
0.2988175805023952
 40
0.3193792573838741
 40
0.3399331706145072
 40
0.360479452118906
 40
0.3810186128617092
 40
0.4015514153615535
 40
0.4220787847165282
 40
0.4426017482607671
 40
0.4631213959215364
 40
0.4836388551580774
 40
0.5041552758405005
 40
0.5246718215292868
 40
0.5451893687317477
 40
0.5657090007690823
 40
0.5862318970752448
 40
0.6067592320440457
 40
0.6272921631650819
 40
0.6478318108662401
 40
0.6683792258208381
 40
0.6889353381286368
 40
0.7095008809987657
 40
0.7300762794610702
 40
0.7506614925219255
 40
0.7712557958315216
 40
0.7918574929478126
 40
0.812463549625803
 40
0.8330672334011018
 40
0.8536605927252887
 40
0.8742331234195154
 40
0.8947716743762976
 40
0.9152610774311281
 40
0.9356856550608215
 40
0.956031708657087
 40
0.9762907213377715
 40
0.9964625341708908
 40
1.0
 40
1.0
 40
1.0
 40
1.0
 10
82.0699596272935
 20
253.1224123993694
 30
0.0
 10
82.09574812363915
 20
252.9809114484789
 30
0.0
 10
82.16144177468155
 20
252.6204517316589
 30
0.0
 10
82.34190007598733
 20
252.0481608862149
 30
0.0
 10
82.60161142018417
 20
251.4072882436616
 30
0.0
 10
82.92861577297938
 20
250.777008745253
 30
0.0
 10
83.31863107981957
 20
250.1591992650782
 30
0.0
 10
83.77140643788462
 20
249.5562160807309
 30
0.0
 10
84.28517902888083
 20
248.9703584612259
 30
0.0
 10
84.85815272655589
 20
248.4039282173783
 30
0.0
 10
85.48813045615066
 20
247.8591325485673
 30
0.0
 10
86.17267051578392
 20
247.3380508951039
 30
0.0
 10
86.90910767332682
 20
246.8426115278898
 30
0.0
 10
87.69459112911137
 20
246.3745949952819
 30
0.0
 10
88.52611828405621
 20
245.9356323963995
 30
0.0
 10
89.40056377847901
 20
245.5272100090174
 30
0.0
 10
90.31470616866864
 20
245.1506756383154
 30
0.0
 10
91.26522704126096
 20
244.8072533604195
 30
0.0
 10
92.24870636596272
 20
244.4980524933835
 30
0.0
 10
93.26162860994377
 20
244.2240687351344
 30
0.0
 10
94.30038984512728
 20
243.9861836132369
 30
0.0
 10
95.36130609971912
 20
243.7851628736285
 30
0.0
 10
96.44062295772524
 20
243.6216543297098
 30
0.0
 10
97.53452628420993
 20
243.4961855726014
 30
0.0
 10
98.63915389759167
 20
243.4091618344638
 30
0.0
 10
99.7506079938829
 20
243.3608642096204
 30
0.0
 10
100.8649681278733
 20
243.3514483723451
 30
0.0
 10
101.9782992242155
 20
243.3809437409408
 30
0.0
 10
103.0866688894923
 20
243.4492526247707
 30
0.0
 10
104.1861630596849
 20
243.5561507061371
 30
0.0
 10
105.2729048849222
 20
243.7012893657746
 30
0.0
 10
106.3430642263515
 20
243.884197928889
 30
0.0
 10
107.3928686600192
 20
244.1042862138704
 30
0.0
 10
108.4186155105927
 20
244.3608477538476
 30
0.0
 10
109.4166829958963
 20
244.6530634658652
 30
0.0
 10
110.3835402428934
 20
244.9800055741772
 30
0.0
 10
111.3157559279372
 20
245.3406414899942
 30
0.0
 10
112.2100053068724
 20
245.7338372059075
 30
0.0
 10
113.0630754833231
 20
246.1583595715829
 30
0.0
 10
113.8718688837315
 20
246.6128765922244
 30
0.0
 10
114.6334054195405
 20
247.0959546363219
 30
0.0
 10
115.3448015236948
 20
247.6060354370305
 30
0.0
 10
116.0032939949211
 20
248.1414277036716
 30
0.0
 10
116.6062484180397
 20
248.7002880469699
 30
0.0
 10
117.1512129774301
 20
249.2806152437586
 30
0.0
 10
117.6358721150787
 20
249.8802261080685
 30
0.0
 10
118.0583401093785
 20
250.4967277579306
 30
0.0
 10
118.4163082138842
 20
251.1275930729026
 30
0.0
 10
118.7105012231212
 20
251.7699641503645
 30
0.0
 10
118.9321266434779
 20
252.4216092569966
 30
0.0
 10
119.0610481798642
 20
252.8982502936848
 30
0.0
 10
119.0955562773751
 20
253.1579997752154
 30
0.0
 10
119.1007049458568
 20
253.1967548519992
 30
0.0
  0
LINE
  5
A5
330
1F
100
AcDbEntity
  8
0
  6
Continuous
 62
     7
 48
10.0
370
    15
100
AcDbLine
 10
121.2274049774
 20
263.1563444453
 30
0.0
 11
122.1245739813
 21
263.5974009572
 31
0.0
  0
SPLINE
  5
A6
330
1F
100
AcDbEntity
  8
0
  6
Continuous
 62
     7
 48
10.0
370
    15
100
AcDbSpline
210
0.0
220
0.0
230
1.0
 70
     8
 71
     3
 72
    11
 73
     7
 74
     0
 42
0.00000001
 43
0.00000001
 40
0.0
 40
0.0
 40
0.0
 40
0.0
 40
0.1976191123543074
 40
0.477348376412109
 40
0.7483296405563646
 40
0.9999999999999999
 40
0.9999999999999999
 40
0.9999999999999999
 40
0.9999999999999999
 10
122.5717517544936
 20
269.5728061871375
 30
0.0
 10
122.572038228962
 20
269.6205920341346
 30
0.0
 10
122.5727302071856
 20
269.736018605015
 30
0.0
 10
122.501013303749
 20
269.9051405818639
 30
0.0
 10
122.3887134005399
 20
270.0616570257963
 30
0.0
 10
122.2890381571904
 20
270.1377508068198
 30
0.0
 10
122.2410419333402
 20
270.174391942822
 30
0.0
  0
LINE
  5
A7
330
1F
100
AcDbEntity
  8
0
  6
Continuous
 62
     7
 48
10.0
370
    15
100
AcDbLine
 10
122.5798100791
 20
264.265867626
 30
0.0
 11
122.5798100791
 21
269.5733829033
 31
0.0
  0
LINE
  5
A8
330
1F
100
AcDbEntity
  8
0
  6
Continuous
 62
     7
 48
10.0
370
    15
100
AcDbLine
 10
122.2410419333
 20
270.1743919428
 30
0.0
 11
121.9168677224
 21
270.3941491421
 31
0.0
  0
SPLINE
  5
A9
330
1F
100
AcDbEntity
  8
0
  6
Continuous
 62
     7
 48
10.0
370
    15
100
AcDbSpline
210
0.0
220
0.0
230
1.0
 70
     8
 71
     3
 72
    12
 73
     8
 74
     0
 42
0.00000001
 43
0.00000001
 40
0.0
 40
0.0
 40
0.0
 40
0.0
 40
0.186136103448178
 40
0.4381866976220729
 40
0.6770344854527692
 40
0.9116387348077225
 40
1.0
 40
1.0
 40
1.0
 40
1.0
 10
122.124573981268
 20
263.5974009571887
 30
0.0
 10
122.171261168769
 20
263.6231109721989
 30
0.0
 10
122.2811684040305
 20
263.6836354291122
 30
0.0
 10
122.4231392956272
 20
263.8159032826753
 30
0.0
 10
122.5294740642784
 20
263.991729060904
 30
0.0
 10
122.5820276492364
 20
264.1484478995804
 30
0.0
 10
122.5739508123595
 20
264.2403589819049
 30
0.0
 10
122.5717410422972
 20
264.2655052565181
 30
0.0
  0
SPLINE
  5
AA
330
1F
100
AcDbEntity
  8
0
  6
Continuous
 62
     7
 48
10.0
370
    15
100
AcDbSpline
210
0.0
220
0.0
230
1.0
 70
     8
 71
     3
 72
    16
 73
    12
 74
     0
 42
0.00000001
 43
0.00000001
 40
0.0
 40
0.0
 40
0.0
 40
0.0
 40
0.0715175922680999
 40
0.2065601805280891
 40
0.3416672050246845
 40
0.4761627725106831
 40
0.6093065133762275
 40
0.7403479083356495
 40
0.8688865599192557
 40
0.9951630423446681
 40
1.0
 40
1.0
 40
1.0
 40
1.0
 10
130.5174463642308
 20
261.6201493366152
 30
0.0
 10
130.6014122647384
 20
261.5733305751239
 30
0.0
 10
130.84392618358
 20
261.4381066180663
 30
0.0
 10
131.2475813128012
 20
261.2583327215424
 30
0.0
 10
131.7240456104921
 20
261.1033526594764
 30
0.0
 10
132.1933011231868
 20
261.0129798533233
 30
0.0
 10
132.6481309007993
 20
260.9889820944252
 30
0.0
 10
133.083078157711
 20
261.0295069157805
 30
0.0
 10
133.4861027689998
 20
261.1415684441801
 30
0.0
 10
133.7495468121234
 20
261.2430184120435
 30
0.0
 10
133.8662808875091
 20
261.3216897495973
 30
0.0
 10
133.8705873703474
 20
261.3245920449547
 30
0.0
  0
LINE
  5
AB
330
1F
100
AcDbEntity
  8
0
  6
Continuous
 62
     7
 48
10.0
370
    15
100
AcDbLine
 10
133.8921720869
 20
261.3354780463
 30
0.0
 11
134.5992788681
 21
261.7436821022
 31
0.0
  0
LINE
  5
AC
330
1F
100
AcDbEntity
  8
0
  6
Continuous
 62
     7
 48
10.0
370
    15
100
AcDbLine
 10
117.4971349125
 20
272.7820153092
 30
0.0
 11
115.2447178779
 21
271.3288671008
 31
0.0
  0
LINE
  5
AD
330
1F
100
AcDbEntity
  8
0
  6
Continuous
 62
     7
 48
10.0
370
    15
100
AcDbLine
 10
121.33324597
 20
271.0401249287
 30
0.0
 11
127.3131755183
 21
271.6429394999
 31
0.0
  0
SPLINE
  5
AE
330
1F
100
AcDbEntity
  8
0
  6
Continuous
 62
     7
 48
10.0
370
    15
100
AcDbSpline
210
0.0
220
0.0
230
1.0
 70
     8
 71
     3
 72
     9
 73
     5
 74
     0
 42
0.00000001
 43
0.00000001
 40
0.0
 40
0.0
 40
0.0
 40
0.0
 40
0.6881529537041731
 40
1.0
 40
1.0
 40
1.0
 40
1.0
 10
130.763064732879
 20
264.3892975662313
 30
0.0
 10
130.7340364740353
 20
264.3897840854709
 30
0.0
 10
130.6918536152864
 20
264.3904910783523
 30
0.0
 10
130.6367856632308
 20
264.4088709598153
 30
0.0
 10
130.6196128850367
 20
264.4146026715608
 30
0.0
  0
SPLINE
  5
AF
330
1F
100
AcDbEntity
  8
0
  6
Continuous
 62
     7
 48
10.0
370
    15
100
AcDbSpline
210
0.0
220
0.0
230
1.0
 70
     8
 71
     3
 72
     9
 73
     5
 74
     0
 42
0.00000001
 43
0.00000001
 40
0.0
 40
0.0
 40
0.0
 40
0.0
 40
0.2305746024533533
 40
1.0
 40
1.0
 40
1.0
 40
1.0
 10
128.6035448308158
 20
268.0115857650444
 30
0.0
 10
128.6050753956359
 20
268.0166514907636
 30
0.0
 10
128.6117134416469
 20
268.038621498151
 30
0.0
 10
128.6207788820325
 20
268.0538424625288
 30
0.0
 10
128.6277540621052
 20
268.0655538590963
 30
0.0
  0
SPLINE
  5
B0
330
1F
100
AcDbEntity
  8
0
  6
Continuous
 62
     7
 48
10.0
370
    15
100
AcDbSpline
210
0.0
220
0.0
230
1.0
 70
     8
 71
     3
 72
    12
 73
     8
 74
     0
 42
0.00000001
 43
0.00000001
 40
0.0
 40
0.0
 40
0.0
 40
0.0
 40
0.0064052770870444
 40
0.2669653369435881
 40
0.5811604260674141
 40
0.9354241632325843
 40
1.0
 40
1.0
 40
1.0
 40
1.0
 10
120.2159405778237
 20
270.7321850287234
 30
0.0
 10
120.2180527538537
 20
270.7334023112713
 30
0.0
 10
120.3060860704234
 20
270.784137391291
 30
0.0
 10
120.519194538894
 20
270.8683188818679
 30
0.0
 10
120.8662961029803
 20
270.9712360273828
 30
0.0
 10
121.1480659223971
 20
271.0202664639882
 30
0.0
 10
121.3085091572247
 20
271.0374721854513
 30
0.0
 10
121.3332459700463
 20
271.0401249287206
 30
0.0
  0
SPLINE
  5
B1
330
1F
100
AcDbEntity
  8
0
  6
Continuous
 62
     7
 48
10.0
370
    15
100
AcDbSpline
210
0.0
220
0.0
230
1.0
 70
     8
 71
     3
 72
     9
 73
     5
 74
     0
 42
0.00000001
 43
0.00000001
 40
0.0
 40
0.0
 40
0.0
 40
0.0
 40
0.752109527231081
 40
1.0
 40
1.0
 40
1.0
 40
1.0
 10
128.6025433188171
 20
267.9928222377327
 30
0.0
 10
128.588569210665
 20
267.9614122972166
 30
0.0
 10
128.5699893261587
 20
267.9196498419106
 30
0.0
 10
128.5580814927409
 20
267.8745058435209
 30
0.0
 10
128.5551296542853
 20
267.8633150764174
 30
0.0
  0
SPLINE
  5
B2
330
1F
100
AcDbEntity
  8
0
  6
Continuous
 62
     7
 48
10.0
370
    15
100
AcDbSpline
210
0.0
220
0.0
230
1.0
 70
     8
 71
     3
 72
    17
 73
    13
 74
     0
 42
0.00000001
 43
0.00000001
 40
0.0
 40
0.0
 40
0.0
 40
0.0
 40
0.0599124570530974
 40
0.1706375106224698
 40
0.280906572449054
 40
0.391051285975233
 40
0.501475557248931
 40
0.6125376455247614
 40
0.7247312268042306
 40
0.8384268761670561
 40
0.9533998046041081
 40
0.9999999999999999
 40
0.9999999999999999
 40
0.9999999999999999
 40
0.9999999999999999
 10
128.5483441562578
 20
266.8421670200997
 30
0.0
 10
128.5633007914476
 20
266.7757023826826
 30
0.0
 10
128.6058989942522
 20
266.5864035151162
 30
0.0
 10
128.7134274563785
 20
266.2726959631139
 30
0.0
 10
128.8811581073953
 20
265.9114868101683
 30
0.0
 10
129.0879075969329
 20
265.5684960364194
 30
0.0
 10
129.3277975399927
 20
265.2523898570327
 30
0.0
 10
129.596084525924
 20
264.9716142304315
 30
0.0
 10
129.8879329798834
 20
264.7327988459987
 30
0.0
 10
130.199018632506
 20
264.5488469508438
 30
0.0
 10
130.4588752296242
 20
264.4383946588368
 30
0.0
 10
130.6142693732158
 20
264.4144168642936
 30
0.0
 10
130.6590874548557
 20
264.40750129638
 30
0.0
  0
SPLINE
  5
B3
330
1F
100
AcDbEntity
  8
0
  6
Continuous
 62
     7
 48
10.0
370
    15
100
AcDbSpline
210
0.0
220
0.0
230
1.0
 70
     8
 71
     3
 72
    11
 73
     7
 74
     0
 42
0.00000001
 43
0.00000001
 40
0.0
 40
0.0
 40
0.0
 40
0.0
 40
0.2021178477458315
 40
0.5660360789984192
 40
0.9188015829531413
 40
1.0
 40
1.0
 40
1.0
 40
1.0
 10
117.6494304329929
 20
272.9350990646546
 30
0.0
 10
117.6482647129715
 20
272.931628866792
 30
0.0
 10
117.6450000849462
 20
272.9219104910357
 30
0.0
 10
117.6170267294791
 20
272.8771091709513
 30
0.0
 10
117.5544629662933
 20
272.82008716641
 30
0.0
 10
117.506170796642
 20
272.7880160866458
 30
0.0
 10
117.4971349124551
 20
272.7820153091991
 30
0.0
  0
SPLINE
  5
B4
330
1F
100
AcDbEntity
  8
0
  6
Continuous
 62
     7
 48
10.0
370
    15
100
AcDbSpline
210
0.0
220
0.0
230
1.0
 70
     8
 71
     3
 72
    10
 73
     6
 74
     0
 42
0.00000001
 43
0.00000001
 40
0.0
 40
0.0
 40
0.0
 40
0.0
 40
0.2820674140839199
 40
0.834600513971555
 40
0.9999999999999999
 40
0.9999999999999999
 40
0.9999999999999999
 40
0.9999999999999999
 10
127.3131156581532
 20
271.6379368201654
 30
0.0
 10
127.3566489860308
 20
271.6433995648938
 30
0.0
 10
127.4854583982754
 20
271.6595631106649
 30
0.0
 10
127.6402668471076
 20
271.6553341977754
 30
0.0
 10
127.7389977146739
 20
271.6355274299827
 30
0.0
 10
127.7617436313114
 20
271.6309642867614
 30
0.0
  0
SPLINE
  5
B5
330
1F
100
AcDbEntity
  8
0
  6
Continuous
 62
     7
 48
10.0
370
    15
100
AcDbSpline
210
0.0
220
0.0
230
1.0
 70
     8
 71
     3
 72
    10
 73
     6
 74
     0
 42
0.00000001
 43
0.00000001
 40
0.0
 40
0.0
 40
0.0
 40
0.0
 40
0.0540360804013142
 40
0.7922517852269214
 40
1.0
 40
1.0
 40
1.0
 40
1.0
 10
127.7638416117054
 20
271.6329092040568
 30
0.0
 10
127.7686627207938
 20
271.632279308967
 30
0.0
 10
127.8393475716135
 20
271.623044081214
 30
0.0
 10
127.9362095069229
 20
271.5940401215266
 30
0.0
 10
128.0201958215237
 20
271.5465357316083
 30
0.0
 10
128.0386405069522
 20
271.536103037512
 30
0.0
  0
LINE
  5
B6
330
1F
100
AcDbEntity
  8
0
  6
Continuous
 62
     7
 48
10.0
370
    15
100
AcDbLine
 10
119.0475122796
 20
277.5570948947
 30
0.0
 11
117.649430433
 21
272.9350990647
 31
0.0
  0
SPLINE
  5
B7
330
1F
100
AcDbEntity
  8
0
  6
Continuous
 62
     7
 48
10.0
370
    15
100
AcDbSpline
210
0.0
220
0.0
230
1.0
 70
     8
 71
     3
 72
    11
 73
     7
 74
     0
 42
0.00000001
 43
0.00000001
 40
0.0
 40
0.0
 40
0.0
 40
0.0
 40
0.2400841807046361
 40
0.5880262196372656
 40
0.937599220763836
 40
1.0
 40
1.0
 40
1.0
 40
1.0
 10
128.5502235338256
 20
267.8175547175736
 30
0.0
 10
128.5331537701191
 20
267.745630278343
 30
0.0
 10
128.4913456485136
 20
267.5694693335605
 30
0.0
 10
128.4895242441015
 20
267.2611438090839
 30
0.0
 10
128.5140636754954
 20
267.0049116755042
 30
0.0
 10
128.5450071804802
 20
266.8633762086871
 30
0.0
 10
128.5496941263864
 20
266.8419381370429
 30
0.0
  0
LINE
  5
B8
330
1F
100
AcDbEntity
  8
0
  6
Continuous
 62
     7
 48
10.0
370
    15
100
AcDbLine
 10
128.5590633125
 20
267.8610553449
 30
0.0
 11
128.5502235338
 21
267.8175547176
 31
0.0
  0
LINE
  5
B9
330
1F
100
AcDbEntity
  8
0
  6
Continuous
 62
     7
 48
10.0
370
    15
100
AcDbLine
 10
120.1012094793
 20
261.9339789581
 30
0.0
 11
127.8989460155
 21
262.7200399256
 31
0.0
  0
LINE
  5
BA
330
1F
100
AcDbEntity
  8
0
  6
Continuous
 62
     7
 48
10.0
370
    15
100
AcDbLine
 10
128.9175039702
 20
262.5437764207
 30
0.0
 11
130.5174463642
 21
261.6201493366
 31
0.0
  0
SPLINE
  5
BB
330
1F
100
AcDbEntity
  8
0
  6
Continuous
 62
     7
 48
10.0
370
    15
100
AcDbSpline
210
0.0
220
0.0
230
1.0
 70
     8
 71
     3
 72
    12
 73
     8
 74
     0
 42
0.00000001
 43
0.00000001
 40
0.0
 40
0.0
 40
0.0
 40
0.0
 40
0.1162813069530849
 40
0.345037779913318
 40
0.5734594756558141
 40
0.7983713528738017
 40
0.9999999999999999
 40
0.9999999999999999
 40
0.9999999999999999
 40
0.9999999999999999
 10
127.8989460154639
 20
262.7200399255653
 30
0.0
 10
127.9428573216105
 20
262.7236029341112
 30
0.0
 10
128.0731539271691
 20
262.7341753347032
 30
0.0
 10
128.2952635901096
 20
262.727280327473
 30
0.0
 10
128.5454909425154
 20
262.6882634912763
 30
0.0
 10
128.7624879708302
 20
262.6237136395261
 30
0.0
 10
128.8677472045852
 20
262.5694345300609
 30
0.0
 10
128.9175039702107
 20
262.5437764207277
 30
0.0
  0
LINE
  5
BC
330
1F
100
AcDbEntity
  8
0
  6
Continuous
 62
     7
 48
10.0
370
    15
100
AcDbLine
 10
119.0482401388
 20
277.5603716652
 30
0.0
 11
119.0475122796
 21
277.5570948947
 31
0.0
  0
SPLINE
  5
BD
330
1F
100
AcDbEntity
  8
0
  6
Continuous
 62
     7
 48
10.0
370
    15
100
AcDbSpline
210
0.0
220
0.0
230
1.0
 70
     8
 71
     3
 72
    24
 73
    20
 74
     0
 42
0.00000001
 43
0.00000001
 40
0.0
 40
0.0
 40
0.0
 40
0.0
 40
0.0557633561460154
 40
0.1136198689951506
 40
0.1717965856311679
 40
0.2307619989480274
 40
0.2907449906136679
 40
0.3517065656908293
 40
0.4134121729622462
 40
0.4755619512386312
 40
0.5378995343572086
 40
0.6002279449722377
 40
0.6624727091770655
 40
0.7246150444101672
 40
0.786662913741459
 40
0.8486380309946515
 40
0.9105687003081447
 40
0.9724862646207397
 40
1.0
 40
1.0
 40
1.0
 40
1.0
 10
114.4060211830675
 20
279.8258066407229
 30
0.0
 10
114.2964484011664
 20
279.7577310735321
 30
0.0
 10
114.0731898675077
 20
279.6190246261344
 30
0.0
 10
113.7827203702586
 20
279.3405387567738
 30
0.0
 10
113.5273052331431
 20
279.0129590425819
 30
0.0
 10
113.3155888386144
 20
278.6365123812332
 30
0.0
 10
113.1484496747835
 20
278.215023706905
 30
0.0
 10
113.0282385399235
 20
277.7512844511336
 30
0.0
 10
112.9567465097494
 20
277.2500862217816
 30
0.0
 10
112.9350845413068
 20
276.7173101649909
 30
0.0
 10
112.9633732126765
 20
276.1596097077843
 30
0.0
 10
113.0408512747992
 20
275.5837010848546
 30
0.0
 10
113.1661236861639
 20
274.9961134073477
 30
0.0
 10
113.3373209092326
 20
274.4030056291559
 30
0.0
 10
113.5524302101103
 20
273.8105885158971
 30
0.0
 10
113.8083662137972
 20
273.2243286868137
 30
0.0
 10
114.1045455415891
 20
272.6521100010218
 30
0.0
 10
114.3693974862561
 20
272.1961044103587
 30
0.0
 10
114.5454340937542
 20
271.9425716494306
 30
0.0
 10
114.5995921419147
 20
271.8645717397996
 30
0.0
  0
LINE
  5
BE
330
1F
100
AcDbEntity
  8
0
  6
Continuous
 62
     7
 48
10.0
370
    15
100
AcDbLine
 10
115.0915346418
 20
280.2231189303
 30
0.0
 11
114.3844278607
 21
279.8149148744
 31
0.0
  0
SPLINE
  5
BF
330
1F
100
AcDbEntity
  8
0
  6
Continuous
 62
     7
 48
10.0
370
    15
100
AcDbSpline
210
0.0
220
0.0
230
1.0
 70
     8
 71
     3
 72
    18
 73
    14
 74
     0
 42
0.00000001
 43
0.00000001
 40
0.0
 40
0.0
 40
0.0
 40
0.0
 40
0.0306604720253066
 40
0.1236884151869349
 40
0.2209857960024592
 40
0.3210292233290839
 40
0.4217404409301918
 40
0.5221099296388115
 40
0.6221277728729059
 40
0.7220871992326338
 40
0.8223438428072691
 40
0.9232482654112976
 40
1.0
 40
1.0
 40
1.0
 40
1.0
 10
115.5372170288111
 20
275.5879154741988
 30
0.0
 10
115.5235644848324
 20
275.5582536195962
 30
0.0
 10
115.4684883096647
 20
275.4385937596871
 30
0.0
 10
115.4237257859143
 20
275.196490422641
 30
0.0
 10
115.4032024500627
 20
274.8654454760951
 30
0.0
 10
115.438004139989
 20
274.5077762218473
 30
0.0
 10
115.5225215188015
 20
274.1382927149799
 30
0.0
 10
115.6545021693004
 20
273.7686387931851
 30
0.0
 10
115.8289279300189
 20
273.4096903897822
 30
0.0
 10
116.0408204687117
 20
273.0699182142644
 30
0.0
 10
116.285800533676
 20
272.760012216337
 30
0.0
 10
116.53383397079
 20
272.5033933555452
 30
0.0
 10
116.7064947407434
 20
272.3753676300658
 30
0.0
 10
116.781088347848
 20
272.3200574361621
 30
0.0
  0
LINE
  5
C0
330
1F
100
AcDbEntity
  8
0
  6
Continuous
 62
     7
 48
10.0
370
    15
100
AcDbLine
 10
117.7023254556
 20
245.8125275289
 30
0.0
 11
117.7023254556
 21
249.9951339671
 31
0.0
  0
LINE
  5
C1
330
1F
100
AcDbEntity
  8
0
  6
Continuous
 62
     7
 48
10.0
370
    15
100
AcDbLine
 10
117.7023254556
 20
260.0357634308
 30
0.0
 11
117.7023254556
 21
266.226047826
 31
0.0
  0
LINE
  5
C2
330
1F
100
AcDbEntity
  8
0
  6
Continuous
 62
     7
 48
10.0
370
    15
100
AcDbLine
 10
83.4523254556
 20
266.226047826
 30
0.0
 11
83.4523254556
 21
260.0357634308
 31
0.0
  0
LINE
  5
C3
330
1F
100
AcDbEntity
  8
0
  6
Continuous
 62
     7
 48
10.0
370
    15
100
AcDbLine
 10
83.4523254556
 20
249.9976000524
 30
0.0
 11
83.4523254556
 21
245.8125275289
 31
0.0
  0
LINE
  5
C4
330
1F
100
AcDbEntity
  8
0
  6
Continuous
 62
     7
 48
10.0
370
    15
100
AcDbLine
 10
121.3465494799
 20
266.8171078667
 30
0.0
 11
120.6394426988
 21
267.2253119226
 31
0.0
  0
ARC
  5
C5
330
1F
100
AcDbEntity
  8
0
  6
Continuous
 62
     7
 48
100.0
370
    15
100
AcDbCircle
 10
112.951213817
 20
259.6276261401
 30
0.0
 40
6.250932497809085
100
AcDbArc
 50
350.241675423
 51
10.4863930246
  0
ARC
  5
C6
330
1F
100
AcDbEntity
  8
0
  6
Continuous
 62
     7
 48
100.0
370
    15
100
AcDbCircle
 10
88.2000560182
 20
259.6273252887
 30
0.0
 40
6.24760091825734
100
AcDbArc
 50
170.3261868639
 51
190.4838297389
  0
LWPOLYLINE
  5
C7
330
1F
100
AcDbEntity
  8
0
  6
Continuous
 62
     7
 48
10.0
370
    15
100
AcDbPolyline
 90
        3
 70
   128
 43
0.0
 10
81.9523254556
 20
254.3199777476
 10
81.979611431
 20
253.7381879879
 10
82.0570075868
 20
253.1816151163
  0
ARC
  5
C8
330
1F
100
AcDbEntity
  8
0
  6
Continuous
 62
     7
 48
100.0
370
    15
100
AcDbCircle
 10
112.92702379
 20
254.3232228509
 30
0.0
 40
6.275302504595231
100
AcDbArc
 50
350.1791326831
 51
359.9703710326
  0
LWPOLYLINE
  5
C9
330
1F
100
AcDbEntity
  8
0
  6
Continuous
 62
     7
 48
10.0
370
    15
100
AcDbPolyline
 90
       49
 70
   128
 43
0.0
 10
117.7023254556
 20
260.0357634308
 10
117.6901881597
 20
259.6636232144
 10
117.6099818287
 20
259.010489748
 10
117.4550588037
 20
258.3618538219
 10
117.2260986813
 20
257.7205607899
 10
116.9241058346
 20
257.0894237949
 10
116.5504050076
 20
256.4712114285
 10
116.1066355037
 20
255.8686355861
 10
115.5947439944
 20
255.284339571
 10
115.0169759805
 20
254.7208864987
 10
114.3758659413
 20
254.1807480536
 10
113.6742262169
 20
253.6662936464
 10
112.9151346715
 20
253.1797800205
 10
112.1019211913
 20
252.7233413519
 10
111.238153078
 20
252.298979888
 10
110.3276193999
 20
251.9085571636
 10
109.3743143704
 20
251.5537858357
 10
108.3824198271
 20
251.2362221699
 10
107.356286887
 20
250.9572592143
 10
106.3004168597
 20
250.7181206882
 10
105.2194415018
 20
250.519855614
 10
104.1181026987
 20
250.3633337158
 10
103.0012316636
 20
250.2492416041
 10
101.8737277445
 20
250.1780797635
 10
100.7405369326
 20
250.1501603579
 10
99.6066301652
 20
250.1656058604
 10
98.4769815207
 20
250.2243485168
 10
97.3565463983
 20
250.3261306422
 10
96.2502397804
 20
250.4705057518
 10
95.1629146724
 20
250.656840519
 10
94.0993408142
 20
250.8843175543
 10
93.0641837563
 20
251.1519389903
 10
92.0619843944
 20
251.4585308591
 10
91.0971390493
 20
251.8027482427
 10
90.1738801821
 20
252.1830811717
 10
89.2962578274
 20
252.5978612501
 10
88.4681218278
 20
253.0452689733
 10
87.6931049448
 20
253.5233417099
 10
86.9746069243
 20
254.029982311
 10
86.3157795821
 20
254.5629683101
 10
85.7195129782
 20
255.1199616719
 10
85.1884227394
 20
255.6985190486
 10
84.7248385849
 20
256.2961024982
 10
84.3307941067
 20
256.9100906175
 10
84.0080178491
 20
257.5377900413
 10
83.757925726
 20
258.1764472576
 10
83.5816148098
 20
258.823260686
 10
83.4798585188
 20
259.4753929675
 10
83.4523254556
 20
260.0357634308
  0
LINE
  5
CA
330
1F
100
AcDbEntity
  8
0
  6
Continuous
 62
     7
 48
10.0
370
    15
100
AcDbLine
 10
121.6363077492
 20
270.388552297
 30
0.0
 11
117.331486614
 21
268.2722627395
 31
0.0
  0
LINE
  5
CB
330
1F
100
AcDbEntity
  8
0
  6
Continuous
 62
     7
 48
10.0
370
    15
100
AcDbLine
 10
121.9604819601
 20
270.1687950978
 30
0.0
 11
121.6363077492
 21
270.388552297
 31
0.0
  0
LWPOLYLINE
  5
CC
330
1F
100
AcDbEntity
  8
0
  6
Continuous
 62
     7
 48
10.0
370
    15
100
AcDbPolyline
 90
        9
 70
   128
 43
0.0
 10
121.9039842901
 20
269.76189611
 10
121.9720207733
 20
269.8026282348
 10
122.0249848196
 20
269.8502401927
 10
122.0608410502
 20
269.9029022831
 10
122.0782115304
 20
269.9585907312
 10
122.0764287223
 20
270.0151654612
 10
122.0555611383
 20
270.0704523381
 10
122.0164107079
 20
270.122326718
 10
121.9604819601
 20
270.1687950978
  0
ARC
  5
CD
330
1F
100
AcDbEntity
  8
0
  6
Continuous
 62
     7
 48
100.0
370
    15
100
AcDbCircle
 10
121.4006120684
 20
269.1043866545
 30
0.0
 40
0.8280714205918763
100
AcDbArc
 50
2.0403344663
 51
52.5632664112
  0
LINE
  5
CE
330
1F
100
AcDbEntity
  8
0
  6
Continuous
 62
     7
 48
10.0
370
    15
100
AcDbLine
 10
122.228158501
 20
263.8263532276
 30
0.0
 11
122.228158501
 21
269.1338685048
 31
0.0
  0
ARC
  5
CF
330
1F
100
AcDbEntity
  8
0
  6
Continuous
 62
     7
 48
100.0
370
    15
100
AcDbCircle
 10
121.7811779668
 20
270.161250536
 30
0.0
 40
0.2695430772878025
100
AcDbArc
 50
59.77436614
 51
122.5112989707
  0
LINE
  5
D0
330
1F
100
AcDbEntity
  8
0
  6
Continuous
 62
     7
 48
10.0
370
    15
100
AcDbLine
 10
119.5260969273
 20
277.8206008887
 30
0.0
 11
118.1280150807
 21
273.1986050587
 31
0.0
  0
ARC
  5
D1
330
1F
100
AcDbEntity
  8
0
  6
Continuous
 62
     7
 48
100.0
370
    15
100
AcDbCircle
 10
118.8542311557
 20
277.94741802
 30
0.0
 40
0.6837296248350265
100
AcDbArc
 50
349.3109699275
 51
68.1124322541
  0
LINE
  5
D2
330
1F
100
AcDbEntity
  8
0
  6
Continuous
 62
     7
 48
10.0
370
    15
100
AcDbLine
 10
117.5091739001
 20
279.5054895588
 30
0.0
 11
119.1091162942
 21
278.5818624747
 31
0.0
  0
LINE
  5
D3
330
1F
100
AcDbEntity
  8
0
  6
Continuous
 62
     7
 48
10.0
370
    15
100
AcDbLine
 10
118.2162806813
 20
279.9136936147
 30
0.0
 11
117.5091739001
 21
279.5054895588
 31
0.0
  0
LINE
  5
D4
330
1F
100
AcDbEntity
  8
0
  6
Continuous
 62
     7
 48
10.0
370
    15
100
AcDbLine
 10
131.4745328286
 20
272.2598675663
 30
0.0
 11
118.2162806813
 21
279.9136936147
 31
0.0
  0
LINE
  5
D5
330
1F
100
AcDbEntity
  8
0
  6
Continuous
 62
     7
 48
10.0
370
    15
100
AcDbLine
 10
130.7674260474
 20
271.8516635104
 30
0.0
 11
131.4745328286
 21
272.2598675663
 31
0.0
  0
LINE
  5
D6
330
1F
100
AcDbEntity
  8
0
  6
Continuous
 62
     7
 48
10.0
370
    15
100
AcDbLine
 10
129.1674836534
 20
272.7752905945
 30
0.0
 11
130.7674260474
 21
271.8516635104
 31
0.0
  0
ARC
  5
D7
330
1F
100
AcDbEntity
  8
0
  6
Continuous
 62
     7
 48
100.0
370
    15
100
AcDbCircle
 10
128.119603691
 20
270.7671899763
 30
0.0
 40
2.265065232702016
100
AcDbArc
 50
62.4432572311
 51
96.8665940892
  0
LINE
  5
D8
330
1F
100
AcDbEntity
  8
0
  6
Continuous
 62
     7
 48
10.0
370
    15
100
AcDbLine
 10
119.8423979063
 20
272.2089129197
 30
0.0
 11
127.8487970262
 21
273.0160083902
 31
0.0
  0
ARC
  5
D9
330
1F
100
AcDbEntity
  8
0
  6
Continuous
 62
     7
 48
100.0
370
    15
100
AcDbCircle
 10
120.0249350207
 20
270.1268079315
 30
0.0
 40
2.090091141547328
100
AcDbArc
 50
95.0102826042
 51
116.2599394147
  0
ARC
  5
DA
330
1F
100
AcDbEntity
  8
0
  6
Continuous
 62
     7
 48
100.0
370
    15
100
AcDbCircle
 10
117.359907697
 20
273.4783261035
 30
0.0
 40
0.8174550849087148
100
AcDbArc
 50
299.9643905957
 51
339.9899347209
  0
LINE
  5
DB
330
1F
100
AcDbEntity
  8
0
  6
Continuous
 62
     7
 48
10.0
370
    15
100
AcDbLine
 10
119.4335989028
 20
270.1530102634
 30
0.0
 11
119.4335989028
 21
271.3778214812
 31
0.0
  0
ARC
  5
DC
330
1F
100
AcDbEntity
  8
0
  6
Continuous
 62
     7
 48
100.0
370
    15
100
AcDbCircle
 10
118.6258744738
 20
271.3466565125
 30
0.0
 40
0.8083254347006334
100
AcDbArc
 50
2.2095851218
 51
54.0709424418
  0
LWPOLYLINE
  5
DD
330
1F
100
AcDbEntity
  8
0
  6
Continuous
 62
     7
 48
10.0
370
    15
100
AcDbPolyline
 90
       28
 70
   128
 43
0.0
 10
130.4138726568
 20
261.8490717398
 10
130.885890656
 20
261.6083282009
 10
131.3515254216
 20
261.4343336093
 10
131.804480042
 20
261.3294409432
 10
132.2386290831
 20
261.2950686962
 10
132.6481014239
 20
261.3316816938
 10
133.0273596534
 20
261.4387848081
 10
133.3712749547
 20
261.6149296532
 10
133.6751964632
 20
261.8577341722
 10
133.935014162
 20
262.1639148505
 10
134.1472144625
 20
262.5293311198
 10
134.3089277195
 20
262.9490413518
 10
134.4179670386
 20
263.4173696857
 10
134.4728578503
 20
263.9279827841
 10
134.4728578503
 20
264.4739754809
 10
134.4179670386
 20
265.0479641614
 10
134.3089277195
 20
265.6421866134
 10
134.1472144625
 20
266.2486069977
 10
133.935014162
 20
266.8590245189
 10
133.6751964632
 20
267.465184327
 10
133.3712749547
 20
268.0588891507
 10
133.0273596534
 20
268.6321101506
 10
132.6481014239
 20
269.1770954961
 10
132.2386290831
 20
269.6864751952
 10
131.804480042
 20
270.1533607615
 10
131.3515254216
 20
270.5714383685
 10
130.885890656
 20
270.9350542337
 10
130.4138726568
 20
271.2392910765
  0
ARC
  5
DE
330
1F
100
AcDbEntity
  8
0
  6
Continuous
 62
     7
 48
100.0
370
    15
100
AcDbCircle
 10
131.1814807075
 20
271.2043606504
 30
0.0
 40
0.7684024037861736
100
AcDbArc
 50
122.60547834
 51
177.3945215143
  0
LWPOLYLINE
  5
DF
330
1F
100
AcDbEntity
  8
0
  6
Continuous
 62
     7
 48
10.0
370
    15
100
AcDbPolyline
 90
       23
 70
   128
 43
0.0
 10
131.4745328286
 20
272.2598675663
 10
131.9693505805
 20
271.9421263757
 10
132.4579457121
 20
271.5642029994
 10
132.934173856
 20
271.1308500432
 10
133.3920461672
 20
270.6475171719
 10
133.8258046355
 20
270.1202825769
 10
134.2299944967
 20
269.555776539
 10
134.5995328286
 20
268.9610980493
 10
134.9297724723
 20
268.3437255347
 10
135.2165604728
 20
267.711422813
 10
135.4562903044
 20
267.0721414575
 10
135.6459472255
 20
266.4339208024
 10
135.7831461903
 20
265.8047868427
 10
135.8661618421
 20
265.1926513029
 10
135.893950211
 20
264.6052121426
 10
135.8661618421
 20
264.0498567501
 10
135.7831461903
 20
263.5335690418
 10
135.6459472255
 20
263.062841635
 10
135.4562903044
 20
262.6435942
 10
135.2165604728
 20
262.2810990166
 10
134.9297724723
 20
261.9799146721
 10
134.5995328286
 20
261.7438287343
 10
134.5992788681
 20
261.7436821022
  0
LINE
  5
E0
330
1F
100
AcDbEntity
  8
0
  6
Continuous
 62
     7
 48
10.0
370
    15
100
AcDbLine
 10
130.4138726568
 20
271.2392910765
 30
0.0
 11
128.8139302628
 21
272.1629181606
 31
0.0
  0
LINE
  5
E1
330
1F
100
AcDbEntity
  8
0
  6
Continuous
 62
     7
 48
10.0
370
    15
100
AcDbLine
 10
128.8139302628
 20
262.772698824
 30
0.0
 11
130.4138726568
 21
261.8490717398
 31
0.0
  0
LINE
  5
E2
330
1F
100
AcDbEntity
  8
0
  6
Continuous
 62
     7
 48
10.0
370
    15
100
AcDbLine
 10
128.8139302628
 20
263.9975100418
 30
0.0
 11
128.8139302628
 21
262.772698824
 31
0.0
  0
LINE
  5
E3
330
1F
100
AcDbEntity
  8
0
  6
Continuous
 62
     7
 48
10.0
370
    15
100
AcDbLine
 10
128.4465773504
 20
264.2095783641
 30
0.0
 11
128.8139302628
 21
263.9975100418
 31
0.0
  0
LINE
  5
E4
330
1F
100
AcDbEntity
  8
0
  6
Continuous
 62
     7
 48
10.0
370
    15
100
AcDbLine
 10
128.4465773504
 20
267.1013893262
 30
0.0
 11
128.4465773504
 21
264.2095783641
 31
0.0
  0
LINE
  5
E5
330
1F
100
AcDbEntity
  8
0
  6
Continuous
 62
     7
 48
10.0
370
    15
100
AcDbLine
 10
128.4465773504
 20
271.1501752651
 30
0.0
 11
128.4465773504
 21
268.2583643031
 31
0.0
  0
LINE
  5
E6
330
1F
100
AcDbEntity
  8
0
  6
Continuous
 62
     7
 48
10.0
370
    15
100
AcDbLine
 10
128.8139302628
 20
270.9381069428
 30
0.0
 11
128.4465773504
 21
271.1501752651
 31
0.0
  0
LINE
  5
E7
330
1F
100
AcDbEntity
  8
0
  6
Continuous
 62
     7
 48
10.0
370
    15
100
AcDbLine
 10
128.8139302628
 20
272.1629181606
 30
0.0
 11
128.8139302628
 21
270.9381069428
 31
0.0
  0
ARC
  5
E8
330
1F
100
AcDbEntity
  8
0
  6
Continuous
 62
     7
 48
100.0
370
    15
100
AcDbCircle
 10
125.0977904105
 20
272.3227410508
 30
0.0
 40
2.837015509948851
100
AcDbArc
 50
0.0132411754
 51
14.1443112409
  0
LINE
  5
E9
330
1F
100
AcDbEntity
  8
0
  6
Continuous
 62
     7
 48
10.0
370
    15
100
AcDbLine
 10
127.9348058447
 20
272.3233966911
 30
0.0
 11
119.9284067247
 21
271.5163012206
 31
0.0
  0
ARC
  5
EA
330
1F
100
AcDbEntity
  8
0
  6
Continuous
 62
     7
 48
100.0
370
    15
100
AcDbCircle
 10
117.0913912905
 20
271.5156455803
 30
0.0
 40
2.837015509948882
100
AcDbArc
 50
0.0132411754
 51
14.1443112409
  0
LINE
  5
EB
330
1F
100
AcDbEntity
  8
0
  6
Continuous
 62
     7
 48
10.0
370
    15
100
AcDbLine
 10
127.9348058447
 20
271.8419967889
 30
0.0
 11
127.9348058447
 21
272.3233966911
 31
0.0
  0
LINE
  5
EC
330
1F
100
AcDbEntity
  8
0
  6
Continuous
 62
     7
 48
10.0
370
    15
100
AcDbLine
 10
127.3490353475
 20
271.8560769288
 30
0.0
 11
127.9348058447
 21
271.8419967889
 31
0.0
  0
LINE
  5
ED
330
1F
100
AcDbEntity
  8
0
  6
Continuous
 62
     7
 48
10.0
370
    15
100
AcDbLine
 10
121.3691057993
 20
271.2532623576
 30
0.0
 11
127.3490353475
 21
271.8560769288
 31
0.0
  0
ELLIPSE
  5
EE
330
1F
100
AcDbEntity
  8
0
  6
Continuous
 62
     7
 48
100.0
370
    15
100
AcDbEllipse
 10
121.3691057993
 20
270.4367215457
 30
0.0
 11
1.86055805417574
 21
0.2314564286963332
 31
0.0
210
0.0
220
0.0
230
0.9999999999999999
 40
0.4328064209
 41
1.517006446375041
 42
2.400905226065729
  0
LINE
  5
EF
330
1F
100
AcDbEntity
  8
0
  6
Continuous
 62
     7
 48
10.0
370
    15
100
AcDbLine
 10
119.9284067247
 20
271.5163012206
 30
0.0
 11
119.9284067247
 21
270.8092923104
 31
0.0
  0
ARC
  5
F0
330
1F
100
AcDbEntity
  8
0
  6
Continuous
 62
     7
 48
100.0
370
    15
100
AcDbCircle
 10
128.1160088779
 20
271.1591323884
 30
0.0
 40
0.3306898018324631
100
AcDbArc
 50
358.4478864133
 51
25.7924776261
  0
SPLINE
  5
F1
330
1F
100
AcDbEntity
  8
0
  6
Continuous
 62
     7
 48
10.0
370
    15
100
AcDbSpline
210
0.0
220
0.0
230
1.0
 70
     8
 71
     3
 72
    10
 73
     6
 74
     0
 42
0.00000001
 43
0.00000001
 40
0.0
 40
0.0
 40
0.0
 40
0.0
 40
0.3178668404155666
 40
0.6470418981793139
 40
1.0
 40
1.0
 40
1.0
 40
1.0
 10
128.4465773503875
 20
267.1013893261548
 30
0.0
 10
128.4214158462653
 20
267.2366123873854
 30
0.0
 10
128.3701977092398
 20
267.5118691147052
 30
0.0
 10
128.366383084434
 20
267.9091369241081
 30
0.0
 10
128.419231726921
 20
268.139280472147
 30
0.0
 10
128.4465773503875
 20
268.2583643030981
 30
0.0
  0
ARC
  5
F2
330
1F
100
AcDbEntity
  8
0
  6
Continuous
 62
     7
 48
100.0
370
    15
100
AcDbCircle
 10
129.5815383135
 20
272.1279877345
 30
0.0
 40
0.7684024037858631
100
AcDbArc
 50
122.60547834
 51
177.3945215143
  0
ARC
  5
F3
330
1F
100
AcDbEntity
  8
0
  6
Continuous
 62
     7
 48
100.0
370
    15
100
AcDbCircle
 10
120.0500981343
 20
270.1282312285
 30
0.0
 40
1.393394094366027
100
AcDbArc
 50
95.0102826042
 51
116.2599394147
  0
SPLINE
  5
F4
330
1F
100
AcDbEntity
  8
0
  6
Continuous
 62
     7
 48
10.0
370
    15
100
AcDbSpline
210
0.0
220
0.0
230
1.0
 70
     8
 71
     3
 72
    10
 73
     6
 74
     0
 42
0.00000001
 43
0.00000001
 40
0.0
 40
0.0
 40
0.0
 40
0.0
 40
0.0053346308203202
 40
0.325377327131532
 40
1.0
 40
1.0
 40
1.0
 40
1.0
 10
119.4335989027739
 20
270.153010263372
 30
0.0
 10
119.4343057340469
 20
270.154322235019
 30
0.0
 10
119.477417783984
 20
270.2343438601632
 30
0.0
 10
119.6180620089677
 20
270.4764839800653
 30
0.0
 10
119.8029846427461
 20
270.6747918289502
 30
0.0
 10
119.9284067247236
 20
270.8092923104295
 30
0.0
  0
LINE
  5
F5
330
1F
100
AcDbEntity
  8
0
  6
Continuous
 62
     7
 48
10.0
370
    15
100
AcDbLine
 10
128.6008021771
 20
268.0066728514
 30
0.0
 11
128.6283954763
 21
268.0759436392
 31
0.0
  0
LINE
  5
F6
330
1F
100
AcDbEntity
  8
0
  6
Continuous
 62
     7
 48
10.0
370
    15
100
AcDbLine
 10
130.7778278946
 20
264.3831007434
 30
0.0
 11
130.6724202804
 21
264.398170893
 31
0.0
  0
ARC
  5
F7
330
1F
100
AcDbEntity
  8
0
  6
Continuous
 62
     7
 48
100.0
370
    15
100
AcDbCircle
 10
120.2272727644
 20
270.9985521365
 30
0.0
 40
0.3537515957202404
100
AcDbArc
 50
212.3444333256
 51
248.9477373677
  0
SPLINE
  5
F8
330
1F
100
AcDbEntity
  8
0
  6
Continuous
 62
     7
 48
10.0
370
    15
100
AcDbSpline
210
0.0
220
0.0
230
1.0
 70
     8
 71
     3
 72
    10
 73
     6
 74
     0
 42
0.00000001
 43
0.00000001
 40
0.0
 40
0.0
 40
0.0
 40
0.0
 40
0.6745481013520636
 40
0.9935965807413218
 40
1.0
 40
1.0
 40
1.0
 40
1.0
 10
120.1001983389418
 20
270.6684123451537
 30
0.0
 10
119.9401720029858
 20
270.5617764175604
 30
0.0
 10
119.7044562402169
 20
270.4047037153638
 30
0.0
 10
119.4995245184189
 20
270.2164940061033
 30
0.0
 10
119.4348709913441
 20
270.154235234011
 30
0.0
 10
119.4335989027739
 20
270.153010263372
 30
0.0
  0
LWPOLYLINE
  5
F9
330
1F
100
AcDbEntity
  8
0
  6
Continuous
 62
     7
 48
10.0
370
    15
100
AcDbPolyline
 90
       30
 70
   128
 43
0.0
 10
128.6847261989
 20
266.7378811793
 10
128.7777937997
 20
266.3985521242
 10
128.9178492031
 20
266.0589300295
 10
129.0993814039
 20
265.7323786002
 10
129.3152473371
 20
265.4317472266
 10
129.5569529482
 20
265.1688653774
 10
129.8149874235
 20
264.9540771247
 10
130.0791974291
 20
264.7958341176
 10
130.3391866316
 20
264.7003630206
 10
130.5847247811
 20
264.671420502
 10
130.8061502582
 20
264.7101454137
 10
130.9947502475
 20
264.8150139789
 10
131.143103575
 20
264.9818997506
 10
131.2453727229
 20
265.2042359824
 10
131.2975335281
 20
265.4732740216
 10
131.2975335281
 20
265.7784275577
 10
131.2453727229
 20
266.1076891806
 10
131.143103575
 20
266.4481028573
 10
130.9947502475
 20
266.7862737351
 10
130.8061502582
 20
267.1088952128
 10
130.5847247811
 20
267.4032725387
 10
130.3391866316
 20
267.6578223332
 10
130.0791974291
 20
267.86252838
 10
129.8149874235
 20
268.0093357521
 10
129.5569529482
 20
268.0924677632
 10
129.3152473371
 20
268.1086532724
 10
129.0993814039
 20
268.0572554002
 10
128.9178492031
 20
267.9402965887
 10
128.7777937997
 20
267.7623790207
 10
128.6847261989
 20
267.5305035303
  0
ARC
  5
FA
330
1F
100
AcDbEntity
  8
0
  6
Continuous
 62
     7
 48
100.0
370
    15
100
AcDbCircle
 10
128.1153436212
 20
270.8241844152
 30
0.0
 40
1.510043488470281
100
AcDbArc
 50
62.4432572312
 51
96.8665940891
  0
LWPOLYLINE
  5
FB
330
1F
100
AcDbEntity
  8
0
  6
Continuous
 62
     7
 48
10.0
370
    15
100
AcDbPolyline
 90
       26
 70
   128
 43
0.0
 10
130.855814395
 20
265.8808498173
 10
130.8280455703
 20
266.1507122216
 10
130.7464839134
 20
266.4356793812
 10
130.6162542432
 20
266.7178457614
 10
130.4455393689
 20
266.9794818107
 10
130.2450659338
 20
267.2041479741
 10
130.0274304212
 20
267.3777276502
 10
129.8063076708
 20
267.4893141895
 10
129.5955916381
 20
267.5318961994
 10
129.4085223865
 20
267.5027980957
 10
129.256854165
 20
267.4038482191
 10
129.1501168459
 20
267.2412639544
 10
129.0950171273
 20
267.0252610688
 10
129.0950171273
 20
266.7694118181
 10
129.1501168459
 20
266.4897921516
 10
129.256854165
 20
266.2039716013
 10
129.4085223865
 20
265.9299093236
 10
129.5955916381
 20
265.6848256594
 10
129.8063076708
 20
265.4841201165
 10
130.0274304212
 20
265.3404037624
 10
130.2450659338
 20
265.2627068242
 10
130.4455393689
 20
265.2559112863
 10
130.6162542432
 20
265.3204441372
 10
130.7464839134
 20
265.4522505407
 10
130.8280455703
 20
265.6430486157
 10
130.855814395
 20
265.8808498173
  0
SPLINE
  5
FC
330
1F
100
AcDbEntity
  8
0
  6
Continuous
 62
     7
 48
10.0
370
    15
100
AcDbSpline
210
0.0
220
0.0
230
1.0
 70
     8
 71
     3
 72
     9
 73
     5
 74
     0
 42
0.00000001
 43
0.00000001
 40
0.0
 40
0.0
 40
0.0
 40
0.0
 40
0.3536783255396995
 40
1.0
 40
1.0
 40
1.0
 40
1.0
 10
128.6847261989331
 20
267.5305035302605
 30
0.0
 10
128.6671590377549
 20
267.4479843726178
 30
0.0
 10
128.61748915439
 20
267.2146673959083
 30
0.0
 10
128.6583299242025
 20
266.9250604351541
 30
0.0
 10
128.6847261989339
 20
266.7378811793441
 30
0.0
  0
SPLINE
  5
FD
330
1F
100
AcDbEntity
  8
0
  6
Continuous
 62
     7
 48
10.0
370
    15
100
AcDbSpline
210
0.0
220
0.0
230
1.0
 70
     8
 71
     3
 72
     9
 73
     5
 74
     0
 42
0.00000001
 43
0.00000001
 40
0.0
 40
0.0
 40
0.0
 40
0.0
 40
0.9918053993266785
 40
1.0
 40
1.0
 40
1.0
 40
1.0
 10
128.5252638641438
 20
271.3978072050211
 30
0.0
 10
128.6279249594609
 20
271.2506424380671
 30
0.0
 10
128.7314342722623
 20
271.1022617506319
 30
0.0
 10
128.8132597357781
 20
270.9394411922771
 30
0.0
 10
128.8139302627765
 20
270.9381069428199
 30
0.0
  0
SPLINE
  5
FE
330
1F
100
AcDbEntity
  8
0
  6
Continuous
 62
     7
 48
10.0
370
    15
100
AcDbSpline
210
0.0
220
0.0
230
1.0
 70
     8
 71
     3
 72
     9
 73
     5
 74
     0
 42
0.00000001
 43
0.00000001
 40
0.0
 40
0.0
 40
0.0
 40
0.0
 40
0.4772804620488993
 40
1.0
 40
1.0
 40
1.0
 40
1.0
 10
127.9348058446866
 20
271.841996788914
 30
0.0
 10
128.0420447587357
 20
271.7938524413402
 30
0.0
 10
128.2667321754147
 20
271.6929802049884
 30
0.0
 10
128.4365150423745
 20
271.499134265135
 30
0.0
 10
128.5252638641438
 20
271.397807205021
 30
0.0
  0
ARC
  5
FF
330
1F
100
AcDbEntity
  8
0
  6
Continuous
 62
     7
 48
100.0
370
    15
100
AcDbCircle
 10
127.8152632825
 20
272.1200814388
 30
0.0
 40
1.012808419544205
100
AcDbArc
 50
306.2224598182
 51
314.5090249135
  0
SPLINE
  5
100
330
1F
100
AcDbEntity
  8
0
  6
Continuous
 62
     7
 48
10.0
370
    15
100
AcDbSpline
210
0.0
220
0.0
230
1.0
 70
     8
 71
     3
 72
     9
 73
     5
 74
     0
 42
0.00000001
 43
0.00000001
 40
0.0
 40
0.0
 40
0.0
 40
0.0
 40
0.0098291279346122
 40
1.0
 40
1.0
 40
1.0
 40
1.0
 10
128.8139302627765
 20
270.9381069428199
 30
0.0
 10
128.8127233801299
 20
270.9393718305795
 30
0.0
 10
128.689937039917
 20
271.0680595196605
 30
0.0
 10
128.5511635123842
 20
271.1861198672851
 30
0.0
 10
128.4137540076075
 20
271.303019784649
 30
0.0
  0
LINE
  5
101
330
1F
100
AcDbEntity
  8
0
  6
Continuous
 62
     7
 48
10.0
370
    15
100
AcDbLine
 10
127.3490353475
 20
263.282398404
 30
0.0
 11
121.3691057993
 21
262.6795838328
 31
0.0
  0
LINE
  5
102
330
1F
100
AcDbEntity
  8
0
  6
Continuous
 62
     7
 48
10.0
370
    15
100
AcDbLine
 10
127.9348058447
 20
263.4145772566
 30
0.0
 11
127.3490353475
 21
263.282398404
 31
0.0
  0
LINE
  5
103
330
1F
100
AcDbEntity
  8
0
  6
Continuous
 62
     7
 48
10.0
370
    15
100
AcDbLine
 10
127.9348058447
 20
262.9331773544
 30
0.0
 11
127.9348058447
 21
263.4145772566
 31
0.0
  0
ARC
  5
104
330
1F
100
AcDbEntity
  8
0
  6
Continuous
 62
     7
 48
100.0
370
    15
100
AcDbCircle
 10
127.8239061262
 20
264.2185344452
 30
0.0
 40
0.6227356299151463
100
AcDbArc
 50
341.2960667144
 51
359.1759531474
  0
SPLINE
  5
105
330
1F
100
AcDbEntity
  8
0
  6
Continuous
 62
     7
 48
10.0
370
    15
100
AcDbSpline
210
0.0
220
0.0
230
1.0
 70
     8
 71
     3
 72
     9
 73
     5
 74
     0
 42
0.00000001
 43
0.00000001
 40
0.0
 40
0.0
 40
0.0
 40
0.0
 40
0.3904182649862919
 40
1.0
 40
1.0
 40
1.0
 40
1.0
 10
127.7251436616529
 20
263.9749185865751
 30
0.0
 10
127.8228480844751
 20
263.98407647468
 30
0.0
 10
128.0731038526716
 20
264.0075330824423
 30
0.0
 10
128.2847427819199
 20
264.0145558617164
 30
0.0
 10
128.4137540076075
 20
264.0188368196909
 30
0.0
  0
LINE
  5
106
330
1F
100
AcDbEntity
  8
0
  6
Continuous
 62
     7
 48
10.0
370
    15
100
AcDbLine
 10
127.2630265291
 20
263.9750101031
 30
0.0
 11
127.7251436617
 21
263.9749185866
 31
0.0
  0
ARC
  5
107
330
1F
100
AcDbEntity
  8
0
  6
Continuous
 62
     7
 48
100.0
370
    15
100
AcDbCircle
 10
124.5120199133
 20
263.2817427637
 30
0.0
 40
2.837015509947105
100
AcDbArc
 50
0.0132411754
 51
14.1443112409
  0
ARC
  5
108
330
1F
100
AcDbEntity
  8
0
  6
Continuous
 62
     7
 48
100.0
370
    15
100
AcDbCircle
 10
128.1153436212
 20
261.4339650785
 30
0.0
 40
1.510043488467748
100
AcDbArc
 50
62.4432572311
 51
96.8665940892
  0
SPLINE
  5
109
330
1F
100
AcDbEntity
  8
0
  6
Continuous
 62
     7
 48
10.0
370
    15
100
AcDbSpline
210
0.0
220
0.0
230
1.0
 70
     8
 71
     3
 72
     9
 73
     5
 74
     0
 42
0.00000001
 43
0.00000001
 40
0.0
 40
0.0
 40
0.0
 40
0.0
 40
0.6185185311718515
 40
1.0
 40
1.0
 40
1.0
 40
1.0
 10
128.5252638641438
 20
263.7700381761339
 30
0.0
 10
128.4187309281723
 20
263.697753045895
 30
0.0
 10
128.246492053179
 20
263.580884873648
 30
0.0
 10
128.0208746883968
 20
263.4605013427852
 30
0.0
 10
127.9348058446866
 20
263.4145772566089
 30
0.0
  0
SPLINE
  5
10A
330
1F
100
AcDbEntity
  8
0
  6
Continuous
 62
     7
 48
10.0
370
    15
100
AcDbSpline
210
0.0
220
0.0
230
1.0
 70
     8
 71
     3
 72
     9
 73
     5
 74
     0
 42
0.00000001
 43
0.00000001
 40
0.0
 40
0.0
 40
0.0
 40
0.0
 40
0.0081946006733183
 40
1.0
 40
1.0
 40
1.0
 40
1.0
 10
128.8139302627765
 20
263.997510041791
 30
0.0
 10
128.8132597357781
 20
263.9969488983159
 30
0.0
 10
128.7314342722627
 20
263.9284716780768
 30
0.0
 10
128.6279249594611
 20
263.8489290169331
 30
0.0
 10
128.5252638641438
 20
263.7700381761339
 30
0.0
  0
ARC
  5
10B
330
1F
100
AcDbEntity
  8
0
  6
Continuous
 62
     7
 48
100.0
370
    15
100
AcDbCircle
 10
129.183324932
 20
264.2143649629
 30
0.0
 40
0.7940218274751785
100
AcDbArc
 50
194.2557368417
 51
214.0274580325
  0
SPLINE
  5
10C
330
1F
100
AcDbEntity
  8
0
  6
Continuous
 62
     7
 48
10.0
370
    15
100
AcDbSpline
210
0.0
220
0.0
230
1.0
 70
     8
 71
     3
 72
     9
 73
     5
 74
     0
 42
0.00000001
 43
0.00000001
 40
0.0
 40
0.0
 40
0.0
 40
0.0
 40
0.9901708720653869
 40
0.9999999999999999
 40
0.9999999999999999
 40
0.9999999999999999
 40
0.9999999999999999
 10
128.4137540076075
 20
264.0188368196909
 30
0.0
 10
128.5511635123841
 20
264.0147378919226
 30
0.0
 10
128.6899370399167
 20
264.0105982753331
 30
0.0
 10
128.8127233801299
 20
263.9976374355434
 30
0.0
 10
128.8139302627765
 20
263.997510041791
 30
0.0
  0
ARC
  5
10D
330
1F
100
AcDbEntity
  8
0
  6
Continuous
 62
     7
 48
100.0
370
    15
100
AcDbCircle
 10
136.5120323124
 20
266.9433020506
 30
0.0
 40
9.274735174146695
100
AcDbArc
 50
198.665977856
 51
202.3625734729
  0
ARC
  5
10E
330
1F
100
AcDbEntity
  8
0
  6
Continuous
 62
     7
 48
100.0
370
    15
100
AcDbCircle
 10
119.5231709543
 20
277.9345596146
 30
0.0
 40
0.7684024037860737
100
AcDbArc
 50
122.60547834
 51
177.3945215143
  0
LINE
  5
10F
330
1F
100
AcDbEntity
  8
0
  6
Continuous
 62
     7
 48
10.0
370
    15
100
AcDbLine
 10
118.7555629036
 20
276.7446788229
 30
0.0
 11
118.7555629036
 21
277.9694900408
 31
0.0
  0
LINE
  5
110
330
1F
100
AcDbEntity
  8
0
  6
Continuous
 62
     7
 48
10.0
370
    15
100
AcDbLine
 10
118.7555629036
 20
277.9694900408
 30
0.0
 11
117.1556205095
 21
278.8931171249
 31
0.0
  0
ARC
  5
111
330
1F
100
AcDbEntity
  8
0
  6
Continuous
 62
     7
 48
100.0
370
    15
100
AcDbCircle
 10
117.9232285602
 20
278.8581866987
 30
0.0
 40
0.7684024037861849
100
AcDbArc
 50
122.60547834
 51
177.3945215143
  0
ARC
  5
112
330
1F
100
AcDbEntity
  8
0
  6
Continuous
 62
     7
 48
100.0
370
    15
100
AcDbCircle
 10
116.3755319929
 20
277.2572165466
 30
0.0
 40
3.231907509034055
100
AcDbArc
 50
55.2808080962
 51
113.4087334747
  0
LWPOLYLINE
  5
113
330
1F
100
AcDbEntity
  8
0
  6
Continuous
 62
     7
 48
10.0
370
    15
100
AcDbPolyline
 90
       26
 70
   128
 43
0.0
 10
117.769944979
 20
273.3335147445
 10
117.7743389431
 20
273.4326248517
 10
117.7465701183
 20
273.702487256
 10
117.6650084614
 20
273.9874544155
 10
117.5347787913
 20
274.2696207957
 10
117.3640639169
 20
274.5312568451
 10
117.1635904819
 20
274.7559230085
 10
116.9459549693
 20
274.9295026845
 10
116.7248322188
 20
275.0410892239
 10
116.5141161862
 20
275.0836712338
 10
116.3270469346
 20
275.0545731301
 10
116.1753787131
 20
274.9556232535
 10
116.0686413939
 20
274.7930389888
 10
116.0135416753
 20
274.5770361032
 10
116.0135416753
 20
274.3211868525
 10
116.0686413939
 20
274.041567186
 10
116.1753787131
 20
273.7557466357
 10
116.3270469346
 20
273.481684358
 10
116.5141161862
 20
273.2366006937
 10
116.7248322188
 20
273.0358951508
 10
116.9459549693
 20
272.8921787968
 10
117.1635904819
 20
272.8144818586
 10
117.3640639169
 20
272.8076863206
 10
117.5347787913
 20
272.8722191716
 10
117.6650084614
 20
273.0040255751
 10
117.6751349546
 20
273.0200770592
  0
LWPOLYLINE
  5
114
330
1F
100
AcDbEntity
  8
0
  6
Continuous
 62
     7
 48
10.0
370
    15
100
AcDbPolyline
 90
       37
 70
   128
 43
0.0
 10
88.4681218278
 20
238.8220330714
 10
89.2949014045
 20
238.3753110348
 10
90.1710161509
 20
237.9611100536
 10
91.0926350401
 20
237.5812413233
 10
92.0557280672
 20
237.2373659133
 10
93.0560838716
 20
236.9309875032
 10
94.0893281517
 20
236.6634458078
 10
95.1509427932
 20
236.4359107189
 10
96.2362856254
 20
236.2493771895
 10
97.3406107202
 20
236.1046608834
 10
98.4590891451
 20
236.002394608
 10
99.5868300784
 20
235.9430255479
 10
100.7189021959
 20
235.9268133087
 10
101.8503552344
 20
235.9538287825
 10
102.9762416376
 20
236.0239538375
 10
104.0916381907
 20
236.1368818347
 10
105.1916675483
 20
236.2921189687
 10
106.2715195621
 20
236.4889864269
 10
107.3264723138
 20
236.7266233582
 10
108.3519127636
 20
237.0039906365
 10
109.3433569212
 20
237.3198754055
 10
110.2964694537
 20
237.6728963814
 10
111.2070826423
 20
238.0615098932
 10
112.0712146074
 20
238.484016633
 10
112.8850867197
 20
238.9385690864
 10
113.6451401235
 20
239.4231796109
 10
114.3480512987
 20
239.9357291283
 10
114.9907465937
 20
240.4739763898
 10
115.5704156652
 20
241.035567777
 10
116.0845237682
 20
241.6180475939
 10
116.5308228385
 20
242.2188688042
 10
116.9073613239
 20
242.8354041698
 10
117.2124927174
 20
243.4649577384
 10
117.4448827571
 20
244.1047766323
 10
117.6035152605
 20
244.7520630864
 10
117.687696568
 20
245.4039866817
 10
117.7023254556
 20
245.8125275289
  0
LWPOLYLINE
  5
115
330
1F
100
AcDbEntity
  8
0
  6
Continuous
 62
     7
 48
10.0
370
    15
100
AcDbPolyline
 90
       13
 70
   128
 43
0.0
 10
83.4523254556
 20
245.8125275289
 10
83.4809941559
 20
245.2407267188
 10
83.5838355276
 20
244.5896957356
 10
83.7609851069
 20
243.9440118847
 10
84.0116682639
 20
243.3064985772
 10
84.3347888248
 20
242.6799434968
 10
84.7289338658
 20
242.0670864093
 10
85.1923798907
 20
241.4706071828
 10
85.723100368
 20
240.8931140693
 10
86.3187745922
 20
240.3371322991
 10
86.9767978315
 20
239.8050930391
 10
87.6942927175
 20
239.2993227616
 10
88.4681218278
 20
238.8220330714
  0
LWPOLYLINE
  5
116
330
1F
100
AcDbEntity
  8
0
  6
Continuous
 62
     7
 48
10.0
370
    15
100
AcDbPolyline
 90
       96
 70
   128
 43
0.0
 10
88.4681218278
 20
259.2355533686
 10
89.2949014045
 20
258.7888313319
 10
90.1710161509
 20
258.3746303508
 10
91.0926350401
 20
257.9947616205
 10
92.0557280672
 20
257.6508862105
 10
93.0560838716
 20
257.3445078003
 10
94.0893281517
 20
257.0769661049
 10
95.1509427932
 20
256.849431016
 10
96.2362856254
 20
256.6628974867
 10
97.3406107202
 20
256.5181811805
 10
98.4590891451
 20
256.4159149052
 10
99.5868300784
 20
256.356545845
 10
100.7189021959
 20
256.3403336058
 10
101.8503552344
 20
256.3673490797
 10
102.9762416376
 20
256.4374741347
 10
104.0916381907
 20
256.5504021319
 10
105.1916675483
 20
256.7056392658
 10
106.2715195621
 20
256.9025067241
 10
107.3264723138
 20
257.1401436553
 10
108.3519127636
 20
257.4175109337
 10
109.3433569212
 20
257.7333957027
 10
110.2964694537
 20
258.0864166785
 10
111.2070826423
 20
258.4750301904
 10
112.0712146074
 20
258.8975369302
 10
112.8850867197
 20
259.3520893835
 10
113.6451401235
 20
259.8366999081
 10
114.3480512987
 20
260.3492494254
 10
114.9907465937
 20
260.8874966869
 10
115.5704156652
 20
261.4490880742
 10
116.0845237682
 20
262.031567891
 10
116.5308228385
 20
262.6323891014
 10
116.9073613239
 20
263.248924467
 10
117.2124927174
 20
263.8784780355
 10
117.4448827571
 20
264.5182969295
 10
117.6035152605
 20
265.1655833836
 10
117.687696568
 20
265.8175069788
 10
117.6970585761
 20
266.4712170193
 10
117.6315603471
 20
267.1238549973
 10
117.4914882883
 20
267.7725670929
 10
117.2774548989
 20
268.4145166533
 10
116.9903960927
 20
269.0468965963
 10
116.6315671046
 20
269.6669416853
 10
116.2025370026
 20
270.2719406211
 10
115.7051818262
 20
270.859247897
 10
115.141676383
 20
271.4262953679
 10
114.5144847388
 20
271.9706034795
 10
113.8263494433
 20
272.4897921108
 10
113.0802795369
 20
272.981590982
 10
112.2795373935
 20
273.4438495819
 10
111.4276244548
 20
273.8745465713
 10
110.5282659193
 20
274.2717986216
 10
109.5853944531
 20
274.6338686509
 10
108.6031329931
 20
274.959173419
 10
107.5857767188
 20
275.2462904509
 10
106.5377742704
 20
275.4939642569
 10
105.4637082958
 20
275.7011118224
 10
104.3682754124
 20
275.8668273439
 10
103.2562656694
 20
275.9903861896
 10
102.1325416024
 20
276.071248068
 10
101.002016971
 20
276.1090593907
 10
99.8696352716
 20
276.1036548184
 10
98.7403481213
 20
276.0550579841
 10
97.6190936055
 20
275.9634813891
 10
96.5107746849
 20
275.8293254748
 10
95.4202377561
 20
275.6531768707
 10
94.3522514597
 20
275.43580583
 10
93.3114858279
 20
275.1781628608
 10
92.3024918642
 20
274.8813745703
 10
91.3296816423
 20
274.5467387382
 10
90.3973090139
 20
274.1757186418
 10
89.5094510072
 20
273.7699366576
 10
88.6699899994
 20
273.3311671671
 10
87.8825967398
 20
272.8613287974
 10
87.150714299
 20
272.3624760324
 10
86.4775430124
 20
271.8367902281
 10
85.866026487
 20
271.2865700749
 10
85.3188387289
 20
270.7142215455
 10
84.8383724508
 20
270.1222473744
 10
84.4267286097
 20
269.513236114
 10
84.0857072193
 20
268.8898508156
 10
83.8167994793
 20
268.2548173844
 10
83.621181255
 20
267.6109126602
 10
83.4997079349
 20
266.9609522745
 10
83.4529106911
 20
266.3077783386
 10
83.4809941559
 20
265.6542470159
 10
83.5838355276
 20
265.0032160327
 10
83.7609851069
 20
264.3575321818
 10
84.0116682639
 20
263.7200188744
 10
84.3347888248
 20
263.0934637939
 10
84.7289338658
 20
262.4806067064
 10
85.1923798907
 20
261.88412748
 10
85.723100368
 20
261.3066343664
 10
86.3187745922
 20
260.7506525962
 10
86.9767978315
 20
260.2186133363
 10
87.6942927175
 20
259.7128430588
 10
88.4681218278
 20
259.2355533686
  0
LWPOLYLINE
  5
117
330
1F
100
AcDbEntity
  8
0
  6
Continuous
 62
     7
 48
10.0
370
    15
100
AcDbPolyline
 90
       94
 70
   128
 43
0.0
 10
112.0748817177
 20
259.5886498769
 10
112.8248484743
 20
260.0518813945
 10
113.5189325926
 20
260.5432842174
 10
114.1539671257
 20
261.0606161873
 10
114.7270545569
 20
261.6015168369
 10
115.2355800195
 20
262.1635181608
 10
115.6772232286
 20
262.7440558758
 10
116.0499690675
 20
263.3404811214
 10
116.3521167824
 20
263.9500725461
 10
116.5822877425
 20
264.5700487239
 10
116.7394317307
 20
265.1975808458
 10
116.8228317348
 20
265.8298056267
 10
116.8321072199
 20
266.4638383698
 10
116.767215864
 20
267.0967861293
 10
116.6284537514
 20
267.7257609095
 10
116.416454022
 20
268.347892843
 10
116.1321839817
 20
268.9603432843
 10
115.7769406897
 20
269.5603177625
 10
115.3523450395
 20
270.1450787318
 10
114.8603343638
 20
270.7119580619
 10
114.3031535944
 20
271.2583692125
 10
113.6833450193
 20
271.7818190349
 10
113.003736683
 20
272.2799191474
 10
112.2674294824
 20
272.7503968337
 10
111.4777830183
 20
273.1911054119
 10
110.6384002665
 20
273.6000340298
 10
109.753111138
 20
273.9753168399
 10
108.8259550039
 20
274.3152415129
 10
107.8611622651
 20
274.6182570505
 10
106.8631350496
 20
274.8829808622
 10
105.8364271266
 20
275.108205074
 10
104.7857231289
 20
275.2929020396
 10
103.7158171779
 20
275.4362290289
 10
102.631591009
 20
275.5375320738
 10
101.5379916976
 20
275.5963489518
 10
100.4400090864
 20
275.6124112949
 10
99.3426530183
 20
275.5856458144
 10
98.2509304773
 20
275.516174635
 10
97.1698227431
 20
275.4043147377
 10
96.1042626622
 20
275.2505765137
 10
95.0591121409
 20
275.0556614351
 10
94.0391399612
 20
274.8204588547
 10
93.0490000224
 20
274.5460419481
 10
92.0932101059
 20
274.2336628166
 10
91.1761312617
 20
273.8847467745
 10
90.3019479104
 20
273.5008858456
 10
89.4746487501
 20
273.0838314995
 10
88.6980085571
 20
272.6354866594
 10
87.9755709625
 20
272.1578970199
 10
87.3106322832
 20
271.6532417131
 10
86.7062264821
 20
271.1238233653
 10
86.1651113241
 20
270.5720575912
 10
85.6897557936
 20
270.0004619713
 10
85.2823288288
 20
269.4116445653
 10
84.9446894256
 20
268.808292012
 10
84.6783781551
 20
268.1931572709
 10
84.4846101345
 20
267.5690470604
 10
84.3642694829
 20
266.9388090525
 10
84.3179052871
 20
266.3053188787
 10
84.3457290963
 20
265.6714670091
 10
84.4476139567
 20
265.0401455647
 10
84.6230949913
 20
264.4142351202
 10
84.8713715201
 20
263.7965915616
 10
85.1913107145
 20
263.1900330547
 10
85.5814527652
 20
262.5973271869
 10
86.0400175435
 20
262.021178339
 10
86.5649127235
 20
261.4642153462
 10
87.1537433289
 20
260.9289795029
 10
87.8038226608
 20
260.4179129673
 10
88.5121845561
 20
259.933347619
 10
89.2755969222
 20
259.4774944184
 10
90.0905764833
 20
259.0524333191
 10
90.9534046748
 20
258.6601037775
 10
91.8601446095
 20
258.3022959033
 10
92.806659041
 20
257.9806422917
 10
93.788629241
 20
257.6966105744
 10
94.8015747049
 20
257.4514967229
 10
95.8408735946
 20
257.2464191357
 10
96.9017838279
 20
257.0823135345
 10
97.9794647146
 20
256.9599286957
 10
99.068999044
 20
256.8798230333
 10
100.1654155208
 20
256.8423620509
 10
101.2637114483
 20
256.8477166744
 10
102.3588755538
 20
256.895862472
 10
103.4459108549
 20
256.9865797654
 10
104.5198574588
 20
257.1194546324
 10
105.5758151934
 20
257.2938807954
 10
106.6089659657
 20
257.5090623879
 10
107.6145957459
 20
257.7640175856
 10
108.5881160757
 20
258.0575830865
 10
109.5250850053
 20
258.3884194185
 10
110.4212273604
 20
258.7550170512
 10
111.2724542489
 20
259.1557032838
 10
112.0748817177
 20
259.5886498769
  0
LWPOLYLINE
  5
118
330
1F
100
AcDbEntity
  8
0
  6
Continuous
 62
     7
 48
10.0
370
    15
100
AcDbPolyline
 90
       18
 70
   128
 43
0.0
 10
121.8906404238
 20
266.0543841718
 10
121.7766807057
 20
266.3497590381
 10
121.6151977526
 20
266.5926665919
 10
121.4101678108
 20
266.777125643
 10
121.166639398
 20
266.8985941974
 10
120.8906089919
 20
266.9540812962
 10
120.5888733771
 20
266.9422206629
 10
120.268862286
 20
266.8633043455
 10
119.9384554537
 20
266.7192755258
 10
119.6057885928
 20
266.5136806713
 10
119.2790530657
 20
266.2515822096
 10
118.9662941853
 20
265.9394338747
 10
118.6752131132
 20
265.5849217947
 10
118.4129772316
 20
265.1967752333
 10
118.1860436581
 20
264.7845516473
 10
118.0000002504
 20
264.3584013493
 10
117.8594280147
 20
263.928817574
 10
117.8168027461
 20
263.7586433117
  0
LWPOLYLINE
  5
119
330
1F
100
AcDbEntity
  8
0
  6
Continuous
 62
     7
 48
10.0
370
    15
100
AcDbPolyline
 90
       16
 70
   128
 43
0.0
 10
118.9122752682
 20
261.4803651696
 10
119.1044693848
 20
261.4957018962
 10
119.4244804759
 20
261.5746182136
 10
119.7548873083
 20
261.7186470333
 10
120.0875541691
 20
261.9242418878
 10
120.4142896963
 20
262.1863403495
 10
120.7270485767
 20
262.4984886844
 10
121.0181296487
 20
262.8530007645
 10
121.2803655304
 20
263.2411473258
 10
121.5072991039
 20
263.6533709118
 10
121.6933425116
 20
264.0795212098
 10
121.8339147473
 20
264.5091049851
 10
121.925554456
 20
264.9315444594
 10
121.966005164
 20
265.3364377709
 10
121.9542708407
 20
265.7138151025
 10
121.8906404238
 20
266.0543841718
  0
LWPOLYLINE
  5
11A
330
1F
100
AcDbEntity
  8
0
  6
Continuous
 62
     7
 48
10.0
370
    15
100
AcDbPolyline
 90
       12
 70
   128
 43
0.0
 10
120.6394426988
 20
267.2253119226
 10
120.4595326168
 20
267.3067982533
 10
120.1835022107
 20
267.3622853521
 10
119.8817665959
 20
267.3504247188
 10
119.5617555048
 20
267.2715084014
 10
119.2313486725
 20
267.1274795817
 10
118.8986818117
 20
266.9218847272
 10
118.5719462845
 20
266.6597862655
 10
118.2591874041
 20
266.3476379306
 10
117.9681063321
 20
265.9931258506
 10
117.7058704504
 20
265.6049792892
 10
117.7023254556
 20
265.5991704724
  0
LWPOLYLINE
  5
11B
330
1F
100
AcDbEntity
  8
0
  6
Continuous
 62
     8
 48
10.0
370
    15
100
AcDbPolyline
 90
       61
 70
   128
 43
0.0
 10
83.4523254556
 20
263.4632193188
 10
83.3016734719
 20
263.2012522368
 10
82.9851265961
 20
262.5540988992
 10
82.7412423044
 20
261.8965438623
 10
82.5710279334
 20
261.2313030826
 10
82.4751865342
 20
260.5611242618
 10
82.4541139688
 20
259.8887754977
 10
82.5078972751
 20
259.2170338506
 10
82.6363143072
 20
258.5486738732
 10
82.8388346531
 20
257.8864561507
 10
83.1146218254
 20
257.2331158985
 10
83.4625367166
 20
256.5913516643
 10
83.8811423036
 20
255.9638141827
 10
84.3687095833
 20
255.3530954262
 10
84.9232247145
 20
254.7617178992
 10
85.5423973351
 20
254.1921242198
 10
86.2236700229
 20
253.64666703
 10
86.9642288582
 20
253.127599279
 10
87.7610150466
 20
252.6370649174
 10
88.610737553
 20
252.1770900417
 10
89.5098866949
 20
251.749574526
 10
90.4547486387
 20
251.3562841748
 10
91.4414207392
 20
250.9988434292
 10
92.4658276589
 20
250.6787286578
 10
93.5237382013
 20
250.3972620584
 10
94.6107827866
 20
250.1556061968
 10
95.7224715004
 20
249.9547592053
 10
96.8542126384
 20
249.7955506595
 10
98.0013316721
 20
249.6786381524
 10
99.1590905563
 20
249.6045045778
 10
100.322707299
 20
249.5734561359
 10
101.4873757131
 20
249.585621069
 10
102.6482852678
 20
249.6409491311
 10
103.8006409576
 20
249.7392117959
 10
104.9396831079
 20
249.8800032006
 10
106.0607070342
 20
250.0627418223
 10
107.1590824742
 20
250.2866728798
 10
108.2302727125
 20
250.5508714512
 10
109.2698533193
 20
250.8542462944
 10
110.2735304246
 20
251.1955443537
 10
111.2371584539
 20
251.5733559364
 10
112.1567572507
 20
251.9861205344
 10
113.0285285165
 20
252.4321332704
 10
113.8488714987
 20
252.9095519392
 10
114.6143978637
 20
253.4164046172
 10
115.3219456915
 20
253.9505978068
 10
115.9685925361
 20
254.5099250836
 10
116.5516674958
 20
255.0920762096
 10
117.0687622456
 20
255.6946466755
 10
117.5177409842
 20
256.3151476323
 10
117.8967492559
 20
256.9510161711
 10
118.2042216098
 20
257.599625909
 10
118.4388880664
 20
258.2582978369
 10
118.5997793623
 20
258.9243113851
 10
118.6862309543
 20
259.5949156599
 10
118.6978857639
 20
260.2673408066
 10
118.6346956522
 20
260.9388094491
 10
118.4969216189
 20
261.6065481624
 10
118.2851327239
 20
262.2677989273
 10
118.0002037373
 20
262.9198305225
 10
117.7023254556
 20
263.4632193188
  0
LWPOLYLINE
  5
11C
330
1F
100
AcDbEntity
  8
0
  6
Continuous
 62
     8
 48
10.0
370
    15
100
AcDbPolyline
 90
       49
 70
   128
 43
0.0
 10
119.1117043457
 20
258.5681387463
 10
119.1114567927
 20
258.5666963281
 10
118.9572311364
 20
257.8889374145
 10
118.7287126422
 20
257.2182058617
 10
118.4268249975
 20
256.5572128127
 10
118.0527884529
 20
255.9086300467
 10
117.6081148896
 20
255.2750791796
 10
117.0946017087
 20
254.6591210674
 10
116.5143245657
 20
254.063245455
 10
115.8696289805
 20
253.4898609125
 10
115.1631208568
 20
252.9412850994
 10
114.3976559489
 20
252.4197353969
 10
113.5763283183
 20
251.9273199444
 10
112.7024578277
 20
251.4660291191
 10
111.7795767214
 20
251.0377274899
 10
110.811415348
 20
250.6441462816
 10
109.8018870822
 20
250.2868763761
 10
108.7550725063
 20
249.9673618831
 10
107.6752029166
 20
249.6868943019
 10
106.56664322
 20
249.4466073017
 10
105.4338742907
 20
249.2474721391
 10
104.2814748583
 20
249.090293732
 10
103.1141030002
 20
248.9757074064
 10
101.9364773135
 20
248.9041763279
 10
100.7533578419
 20
248.8759896301
 10
99.5695268353
 20
248.8912612456
 10
98.3897694198
 20
248.9499294454
 10
97.2188542557
 20
249.0517570887
 10
96.0615142622
 20
249.1963325811
 10
94.9224274869
 20
249.3830715387
 10
93.8061981966
 20
249.6112191498
 10
92.7173382666
 20
249.879853226
 10
91.6602489432
 20
250.18788793
 10
90.639203054
 20
250.5340781645
 10
89.6583277363
 20
250.9170246049
 10
88.7215877555
 20
251.3351793553
 10
87.8327694786
 20
251.7868522057
 10
86.9954655701
 20
252.2702174633
 10
86.2130604696
 20
252.7833213329
 10
85.4887167123
 20
253.3240898132
 10
84.8253621452
 20
253.8903370812
 10
84.2256780929
 20
254.4797743265
 10
83.6920885195
 20
255.0900190035
 10
83.2267502304
 20
255.7186044613
 10
82.8315441551
 20
256.3629899144
 10
82.5080677435
 20
257.0205707128
 10
82.2576285094
 20
257.6886888697
 10
82.0812387454
 20
258.3646438059
 10
82.0567506773
 20
258.490524197
  0
LWPOLYLINE
  5
11D
330
1F
100
AcDbEntity
  8
0
  6
Continuous
 62
     8
 48
10.0
370
    15
100
AcDbPolyline
 90
       48
 70
   128
 43
0.0
 10
82.0570075868
 20
253.1816151163
 10
82.0812387454
 20
253.0571285286
 10
82.2576285094
 20
252.3811735925
 10
82.5080677435
 20
251.7130554355
 10
82.8315441551
 20
251.0554746372
 10
83.2267502304
 20
250.411089184
 10
83.6920885195
 20
249.7825037262
 10
84.2256780929
 20
249.1722590493
 10
84.8253621452
 20
248.5828218039
 10
85.4887167123
 20
248.016574536
 10
86.2130604696
 20
247.4758060556
 10
86.9954655701
 20
246.9627021861
 10
87.8327694786
 20
246.4793369284
 10
88.7215877555
 20
246.0276640781
 10
89.6583277363
 20
245.6095093276
 10
90.639203054
 20
245.2265628873
 10
91.6602489432
 20
244.8803726528
 10
92.7173382666
 20
244.5723379487
 10
93.8061981966
 20
244.3037038725
 10
94.9224274869
 20
244.0755562615
 10
96.0615142622
 20
243.8888173039
 10
97.2188542557
 20
243.7442418114
 10
98.3897694198
 20
243.6424141681
 10
99.5695268353
 20
243.5837459683
 10
100.7533578419
 20
243.5684743528
 10
101.9364773135
 20
243.5966610506
 10
103.1141030002
 20
243.6681921291
 10
104.2814748583
 20
243.7827784548
 10
105.4338742907
 20
243.9399568619
 10
106.56664322
 20
244.1390920245
 10
107.6752029166
 20
244.3793790246
 10
108.7550725063
 20
244.6598466058
 10
109.8018870822
 20
244.9793610989
 10
110.811415348
 20
245.3366310043
 10
111.7795767214
 20
245.7302122127
 10
112.7024578277
 20
246.1585138418
 10
113.5763283183
 20
246.6198046672
 10
114.3976559489
 20
247.1122201196
 10
115.1631208568
 20
247.6337698222
 10
115.8696289805
 20
248.1823456352
 10
116.5143245657
 20
248.7557301777
 10
117.0946017087
 20
249.3516057901
 10
117.6081148896
 20
249.9675639023
 10
118.0527884529
 20
250.6011147694
 10
118.4268249975
 20
251.2496975355
 10
118.7287126422
 20
251.9106905845
 10
118.9572311364
 20
252.5814221372
 10
119.1103670218
 20
253.252854689
  0
LINE
  5
11E
330
1F
100
AcDbEntity
  8
0
  6
Continuous
 62
     8
 48
10.0
370
    15
100
AcDbLine
 10
117.532944713
 20
267.6130529591
 30
0.0
 11
121.9039842901
 21
269.76189611
 31
0.0
  0
LINE
  5
11F
330
1F
100
AcDbEntity
  8
0
  6
Continuous
 62
     8
 48
10.0
370
    15
100
AcDbLine
 10
122.228158501
 20
269.1338685048
 30
0.0
 11
117.6636692655
 21
266.8899237274
 31
0.0
  0
LINE
  5
120
330
1F
100
AcDbEntity
  8
0
  6
Continuous
 62
     8
 48
10.0
370
    15
100
AcDbLine
 10
121.3784839867
 20
263.4086454424
 30
0.0
 11
122.228158501
 21
263.8263532276
 31
0.0
  0
ARC
  5
121
330
1F
100
AcDbEntity
  8
0
  6
Continuous
 62
     8
 48
100.0
370
    15
100
AcDbCircle
 10
122.0022940432
 20
263.7906323062
 30
0.0
 40
0.2286716805814256
100
AcDbArc
 50
302.3262934933
 51
8.9870089892
  0
ARC
  5
122
330
1F
100
AcDbEntity
  8
0
  6
Continuous
 62
     8
 48
100.0
370
    15
100
AcDbCircle
 10
122.1053570328
 20
269.9414723025
 30
0.0
 40
0.2695634246541485
100
AcDbArc
 50
59.7918725488
 51
122.5097662879
  0
ARC
  5
123
330
1F
100
AcDbEntity
  8
0
  6
Continuous
 62
     8
 48
100.0
370
    15
100
AcDbCircle
 10
122.0503570608
 20
269.6365639113
 30
0.0
 40
0.5332129253610998
100
AcDbArc
 50
289.4784920315
 51
353.1918133954
  0
ARC
  5
124
330
1F
100
AcDbEntity
  8
0
  6
Continuous
 62
     8
 48
100.0
370
    15
100
AcDbCircle
 10
122.0646504054
 20
264.317608463
 30
0.0
 40
0.5177514882925645
100
AcDbArc
 50
288.4093695479
 51
354.2646456844
  0
LINE
  5
125
330
1F
100
AcDbEntity
  8
0
  6
Continuous
 62
     8
 48
10.0
370
    15
100
AcDbLine
 10
116.0714148213
 20
270.4366412895
 30
0.0
 11
119.1001861733
 21
272.0011933106
 31
0.0
  0
LINE
  5
126
330
1F
100
AcDbEntity
  8
0
  6
Continuous
 62
     8
 48
10.0
370
    15
100
AcDbLine
 10
117.7681951768
 20
272.7701353455
 30
0.0
 11
115.3601743243
 21
271.2165992401
 31
0.0
  0
LINE
  5
127
330
1F
100
AcDbEntity
  8
0
  6
Continuous
 62
     8
 48
10.0
370
    15
100
AcDbLine
 10
119.4335989028
 20
271.3778214812
 30
0.0
 11
116.5012892113
 21
269.8630980105
 31
0.0
  0
LINE
  5
128
330
1F
100
AcDbEntity
  8
0
  6
Continuous
 62
     8
 48
10.0
370
    15
100
AcDbLine
 10
121.0707964596
 20
270.9987263802
 30
0.0
 11
119.4335989028
 21
270.1530102634
 31
0.0
  0
LINE
  5
129
330
1F
100
AcDbEntity
  8
0
  6
Continuous
 62
     8
 48
10.0
370
    15
100
AcDbLine
 10
121.5769161502
 20
271.064688418
 30
0.0
 11
121.5769161502
 21
270.3593548421
 31
0.0
  0
LWPOLYLINE
  5
12A
330
1F
100
AcDbEntity
  8
0
  6
Continuous
 62
     8
 48
10.0
370
    15
100
AcDbPolyline
 90
       23
 70
   128
 43
0.0
 10
130.7674260474
 20
271.8516635104
 10
131.2622437993
 20
271.5339223198
 10
131.7508389309
 20
271.1559989435
 10
132.2270670748
 20
270.7226459873
 10
132.684939386
 20
270.239313116
 10
133.1186978543
 20
269.712078521
 10
133.5228877155
 20
269.1475724831
 10
133.8924260474
 20
268.5528939934
 10
134.2226656911
 20
267.9355214788
 10
134.5094536916
 20
267.303218757
 10
134.7491835232
 20
266.6639374016
 10
134.9388404443
 20
266.0257167465
 10
135.0760394091
 20
265.3965827868
 10
135.1590550609
 20
264.784447247
 10
135.1868434298
 20
264.1970080867
 10
135.1590550609
 20
263.6416526942
 10
135.0760394091
 20
263.1253649858
 10
134.9388404443
 20
262.654637579
 10
134.7491835232
 20
262.2353901441
 10
134.5094536916
 20
261.8728949607
 10
134.2226656911
 20
261.5717106162
 10
133.8924260474
 20
261.3356246784
 10
133.8739198094
 20
261.3250635937
  0
ARC
  5
12B
330
1F
100
AcDbEntity
  8
0
  6
Continuous
 62
     8
 48
100.0
370
    15
100
AcDbCircle
 10
130.6642148705
 20
261.8244390382
 30
0.0
 40
0.251551175610822
100
AcDbArc
 50
174.3804071174
 51
234.2929401715
  0
LWPOLYLINE
  5
12C
330
1F
100
AcDbEntity
  8
0
  6
Continuous
 62
     8
 48
10.0
370
    15
100
AcDbPolyline
 90
       32
 70
   128
 43
0.0
 10
128.4465773504
 20
268.2583643031
 10
128.5540828915
 20
268.5440669352
 10
128.7094906874
 20
268.7770684752
 10
128.9085981991
 20
268.951068093
 10
129.146021159
 20
269.0613604894
 10
129.4153391732
 20
269.1049631362
 10
129.7092693413
 20
269.0806969301
 10
130.0198632008
 20
268.9892180783
 10
130.3387216692
 20
268.8330003527
 10
130.6572221729
 20
268.6162681945
 10
130.9667518179
 20
268.3448824771
 10
131.2589403006
 20
268.0261820156
 10
131.525886257
 20
267.6687851112
 10
131.7603709319
 20
267.2823564945
 10
131.9560533885
 20
266.877345972
 10
132.1076419797
 20
266.4647058423
 10
132.2110374454
 20
266.0555947239
 10
132.2634437643
 20
265.6610758038
 10
132.2634437643
 20
265.2918176665
 10
132.2110374454
 20
264.9578057944
 10
132.1076419797
 20
264.6680725396
 10
131.9560533885
 20
264.430452872
 10
131.7603709319
 20
264.2513725047
 10
131.525886257
 20
264.135674131
 10
131.2589403006
 20
264.0864864675
 10
130.9667518179
 20
264.1051396473
 10
130.6572221729
 20
264.1911292511
 10
130.3387216692
 20
264.3421299471
 10
130.0198632008
 20
264.5540583729
 10
129.7092693413
 20
264.8211835581
 10
129.4153391732
 20
265.1362819006
 10
129.3316610803
 20
265.2388621663
  0
LWPOLYLINE
  5
12D
330
1F
100
AcDbEntity
  8
0
  6
Continuous
 62
     8
 48
10.0
370
    15
100
AcDbPolyline
 90
        3
 70
   128
 43
0.0
 10
128.6570589114
 20
266.4049879851
 10
128.5540828915
 20
266.6915634383
 10
128.4465773504
 20
267.1013893262
  0
ARC
  5
12E
330
1F
100
AcDbEntity
  8
0
  6
Continuous
 62
     8
 48
100.0
370
    15
100
AcDbCircle
 10
117.6229336404
 20
272.5540378632
 30
0.0
 40
0.2603824798726783
100
AcDbArc
 50
56.0908580317
 51
118.8900628778
  0
ARC
  5
12F
330
1F
100
AcDbEntity
  8
0
  6
Continuous
 62
     8
 48
100.0
370
    15
100
AcDbCircle
 10
121.0471947091
 20
271.1978377012
 30
0.0
 40
0.3266475815342729
100
AcDbArc
 50
331.1300991171
 51
9.7690529764
  0
ARC
  5
130
330
1F
100
AcDbEntity
  8
0
  6
Continuous
 62
     8
 48
100.0
370
    15
100
AcDbCircle
 10
127.0271242573
 20
271.8006522724
 30
0.0
 40
0.3266475815347071
100
AcDbArc
 50
331.1300991172
 51
9.7690529763
  0
ARC
  5
131
330
1F
100
AcDbEntity
  8
0
  6
Continuous
 62
     8
 48
100.0
370
    15
100
AcDbCircle
 10
125.5747419257
 20
266.069058343
 30
0.0
 40
5.836539032901841
100
AcDbArc
 50
60.5249675454
 51
72.7274709099
  0
SPLINE
  5
132
330
1F
100
AcDbEntity
  8
0
  6
Continuous
 62
     8
 48
10.0
370
    15
100
AcDbSpline
210
0.0
220
0.0
230
1.0
 70
     8
 71
     3
 72
     9
 73
     5
 74
     0
 42
0.00000001
 43
0.00000001
 40
0.0
 40
0.0
 40
0.0
 40
0.0
 40
0.8895930637293329
 40
1.0
 40
1.0
 40
1.0
 40
1.0
 10
128.4137540076075
 20
271.303019784649
 30
0.0
 10
128.308795586435
 20
271.3856279983113
 30
0.0
 10
128.1908108297503
 20
271.4784886747603
 30
0.0
 10
128.0498710648506
 20
271.5319172494397
 30
0.0
 10
128.0343103372093
 20
271.5378161346794
 30
0.0
  0
ARC
  5
133
330
1F
100
AcDbEntity
  8
0
  6
Continuous
 62
     8
 48
100.0
370
    15
100
AcDbCircle
 10
124.8850947258
 20
257.275487571
 30
0.0
 40
7.795240446088836
100
AcDbArc
 50
62.8140943132
 51
107.2013025913
  0
LWPOLYLINE
  5
134
330
1F
100
AcDbEntity
  8
0
  6
Continuous
 62
     8
 48
10.0
370
    15
100
AcDbPolyline
 90
        3
 70
   128
 43
0.0
 10
128.5172060763
 20
267.0739079278
 10
128.4881429377
 20
267.0876304663
 10
128.4465773504
 20
267.1013893262
  0
LWPOLYLINE
  5
135
330
1F
100
AcDbEntity
  8
0
  6
Continuous
 62
     8
 48
10.0
370
    15
100
AcDbPolyline
 90
       24
 70
   128
 43
0.0
 10
128.6283954763
 20
268.0759436392
 10
128.6668375074
 20
268.155532254
 10
128.8159405693
 20
268.3628764636
 10
129.0081396062
 20
268.5097619222
 10
129.237219725
 20
268.5914389837
 10
129.4957734563
 20
268.6052665618
 10
129.7754402803
 20
268.5507975318
 10
130.0671769703
 20
268.4297931889
 10
130.361550012
 20
268.2461662949
 10
130.6490406426
 20
268.0058545567
 10
130.920352647
 20
267.7166286262
 10
131.1667129577
 20
267.3878408305
 10
131.3801553379
 20
267.0301227581
 10
131.5537779757
 20
266.6550414786
 10
131.6819666589
 20
266.2747255131
 10
131.7605763149
 20
265.9014726504
 10
131.7870650443
 20
265.5473522886
 10
131.7605763149
 20
265.2238151627
 10
131.6819666589
 20
264.9413230769
 10
131.5537779757
 20
264.7090106148
 10
131.3801553379
 20
264.5343897659
 10
131.1667129577
 20
264.4231070202
 10
130.920352647
 20
264.3787607847
 10
130.7778278946
 20
264.3831007434
  0
ARC
  5
136
330
1F
100
AcDbEntity
  8
0
  6
Continuous
 62
     8
 48
100.0
370
    15
100
AcDbCircle
 10
128.220541852
 20
267.9732724738
 30
0.0
 40
0.3638260541345629
100
AcDbArc
 50
0.7427508862
 51
51.5908055653
  0
ELLIPSE
  5
137
330
1F
100
AcDbEntity
  8
0
  6
Continuous
 62
     8
 48
100.0
370
    15
100
AcDbEllipse
 10
121.2830969808
 20
270.7210628389
 30
0.0
 11
1.526098031412062
 21
0.4304822415914486
 31
0.0
210
0.0
220
0.0
230
1.0
 40
0.2484154327
 41
2.280208379501456
 42
2.38473635361578
  0
ARC
  5
138
330
1F
100
AcDbEntity
  8
0
  6
Continuous
 62
     8
 48
100.0
370
    15
100
AcDbCircle
 10
128.8844604012
 20
267.8000070088
 30
0.0
 40
0.3354487688264478
100
AcDbArc
 50
169.3344077589
 51
233.4571456561
  0
ARC
  5
139
330
1F
100
AcDbEntity
  8
0
  6
Continuous
 62
     8
 48
100.0
370
    15
100
AcDbCircle
 10
128.7008756244
 20
266.9003432874
 30
0.0
 40
0.1632627958336817
100
AcDbArc
 50
200.9059225456
 51
264.3232043559
  0
ARC
  5
13A
330
1F
100
AcDbEntity
  8
0
  6
Continuous
 62
     8
 48
100.0
370
    15
100
AcDbCircle
 10
118.044810405
 20
272.7833408769
 30
0.0
 40
0.4235178375764188
100
AcDbArc
 50
78.6699247749
 51
158.9765617691
  0
LWPOLYLINE
  5
13B
330
1F
100
AcDbEntity
  8
0
  6
Continuous
 62
     8
 48
10.0
370
    15
100
AcDbPolyline
 90
        8
 70
   128
 43
0.0
 10
127.7626128473
 20
271.6338311331
 10
127.7712729388
 20
271.632929647
 10
127.7976335001
 20
271.6388318466
 10
127.8253066513
 20
271.6572409204
 10
127.8535824434
 20
271.6876845873
 10
127.8817354666
 20
271.7293818211
 10
127.9090434607
 20
271.7812628877
 10
127.9348058447
 20
271.8419967889
  0
ARC
  5
13C
330
1F
100
AcDbEntity
  8
0
  6
Continuous
 62
     8
 48
100.0
370
    15
100
AcDbCircle
 10
119.4512981241
 20
277.3900915999
 30
0.0
 40
0.4369589325308054
100
AcDbArc
 50
80.1435431302
 51
157.5303194039
  0
LINE
  5
13D
330
1F
100
AcDbEntity
  8
0
  6
Continuous
 62
     8
 48
10.0
370
    15
100
AcDbLine
 10
120.4000644456
 20
262.1736279536
 30
0.0
 11
127.9348058447
 21
262.9331773544
 31
0.0
  0
ELLIPSE
  5
13E
330
1F
100
AcDbEntity
  8
0
  6
Continuous
 62
     8
 48
100.0
370
    15
100
AcDbEllipse
 10
121.3691057993
 20
263.4961246447
 30
0.0
 11
1.86055805417574
 21
0.2314564286963332
 31
0.0
210
0.0
220
0.0
230
1.0
 40
0.4328064209
 41
4.385224302203653
 42
4.658599099964841
  0
ARC
  5
13F
330
1F
100
AcDbEntity
  8
0
  6
Continuous
 62
     8
 48
100.0
370
    15
100
AcDbCircle
 10
127.655608204
 20
262.8705662691
 30
0.0
 40
0.2861319111020752
100
AcDbArc
 50
328.2594781629
 51
12.6396739306
  0
ARC
  5
140
330
1F
100
AcDbEntity
  8
0
  6
Continuous
 62
     8
 48
100.0
370
    15
100
AcDbCircle
 10
124.9135836651
 20
257.035814421
 30
0.0
 40
7.326139398419004
100
AcDbArc
 50
71.2951499895
 51
109.5855021289
  0
LINE
  5
141
330
1F
100
AcDbEntity
  8
0
  6
Continuous
 62
     8
 48
10.0
370
    15
100
AcDbLine
 10
121.7653666874
 20
263.4208113566
 30
0.0
 11
127.2630265291
 21
263.9750101031
 31
0.0
  0
ARC
  5
142
330
1F
100
AcDbEntity
  8
0
  6
Continuous
 62
     8
 48
100.0
370
    15
100
AcDbCircle
 10
118.174795323
 20
262.6521678042
 30
0.0
 40
3.194428126851357
100
AcDbArc
 50
0.4917443603
 51
9.9217355902
  0
ARC
  5
143
330
1F
100
AcDbEntity
  8
0
  6
Continuous
 62
     8
 48
100.0
370
    15
100
AcDbCircle
 10
129.0589312143
 20
262.7456554555
 30
0.0
 40
0.2464889653744588
100
AcDbArc
 50
173.701152533
 51
234.9866670736
  0
ARC
  5
144
330
1F
100
AcDbEntity
  8
0
  6
Continuous
 62
     8
 48
100.0
370
    15
100
AcDbCircle
 10
118.539834994
 20
277.5057466861
 30
0.0
 40
0.5114649841458276
100
AcDbArc
 50
6.0491346904
 51
65.0527096956
  0
SPLINE
  5
145
330
1F
100
AcDbEntity
  8
0
  6
Continuous
 62
     8
 48
10.0
370
    15
100
AcDbSpline
210
0.0
220
0.0
230
1.0
 70
     8
 71
     3
 72
     9
 73
     5
 74
     0
 42
0.00000001
 43
0.00000001
 40
0.0
 40
0.0
 40
0.0
 40
0.0
 40
0.0262935816030249
 40
1.0
 40
1.0
 40
1.0
 40
1.0
 10
118.7555629035689
 20
276.7446788229328
 30
0.0
 10
118.7562335976585
 20
276.7452401346702
 30
0.0
 10
118.7817414991587
 20
276.766587996132
 30
0.0
 10
118.8003646791785
 20
276.7835087472424
 30
0.0
 10
118.8184981890947
 20
276.7999845912027
 30
0.0
  0
LWPOLYLINE
  5
146
330
1F
100
AcDbEntity
  8
0
  6
Continuous
 62
     8
 48
10.0
370
    15
100
AcDbPolyline
 90
       23
 70
   128
 43
0.0
 10
117.1556205095
 20
278.8931171249
 10
116.6836025103
 20
279.1338606638
 10
116.2179677448
 20
279.3078552554
 10
115.7650131243
 20
279.4127479215
 10
115.3308640832
 20
279.4471201685
 10
114.9213917424
 20
279.4105071709
 10
114.5421335129
 20
279.3034040566
 10
114.1982182117
 20
279.1272592116
 10
113.8942967031
 20
278.8844546926
 10
113.6344790043
 20
278.5782740142
 10
113.4222787039
 20
278.2128577449
 10
113.2605654469
 20
277.7931475129
 10
113.1515261277
 20
277.3248191791
 10
113.0966353161
 20
276.8142060806
 10
113.0966353161
 20
276.2682133839
 10
113.1515261277
 20
275.6942247033
 10
113.2605654469
 20
275.1000022513
 10
113.4222787039
 20
274.493581867
 10
113.6344790043
 20
273.8831643459
 10
113.8942967031
 20
273.2770045377
 10
114.1982182117
 20
272.683299714
 10
114.5421335129
 20
272.1100787141
 10
114.7973864719
 20
271.7347003732
  0
LINE
  5
147
330
1F
100
AcDbEntity
  8
0
  6
Continuous
 62
     8
 48
10.0
370
    15
100
AcDbLine
 10
118.7948999905
 20
276.721970006
 30
0.0
 11
118.7555629036
 21
276.7446788229
 31
0.0
  0
LWPOLYLINE
  5
148
330
1F
100
AcDbEntity
  8
0
  6
Continuous
 62
     8
 48
10.0
370
    15
100
AcDbPolyline
 90
        3
 70
   128
 43
0.0
 10
116.7241573443
 20
272.2833283649
 10
116.6027413484
 20
272.3973063876
 10
116.3285793892
 20
272.6943515414
  0
LWPOLYLINE
  5
149
330
1F
100
AcDbEntity
  8
0
  6
Continuous
 62
     8
 48
10.0
370
    15
100
AcDbPolyline
 90
       19
 70
   128
 43
0.0
 10
115.6528481063
 20
273.7747553245
 10
115.6134397779
 20
273.8648428927
 10
115.4618511867
 20
274.2774830224
 10
115.358455721
 20
274.6865941408
 10
115.306049402
 20
275.0811130609
 10
115.306049402
 20
275.4503711982
 10
115.358455721
 20
275.7843830704
 10
115.4618511867
 20
276.0741163251
 10
115.6134397779
 20
276.3117359928
 10
115.8091222344
 20
276.49081636
 10
116.0436069094
 20
276.6065147337
 10
116.3105528658
 20
276.6557023972
 10
116.6027413484
 20
276.6370492174
 10
116.9122709935
 20
276.5510596136
 10
117.2307714971
 20
276.4000589176
 10
117.5496299656
 20
276.1881304918
 10
117.860223825
 20
275.9210053066
 10
118.1541539931
 20
275.6059069642
 10
118.3722141365
 20
275.3245895453
  0
SPLINE
  5
14A
330
1F
100
AcDbEntity
  8
0
  6
Continuous
 62
     8
 48
10.0
370
    15
100
AcDbSpline
210
0.0
220
0.0
230
1.0
 70
     8
 71
     3
 72
     9
 73
     5
 74
     0
 42
0.00000001
 43
0.00000001
 40
0.0
 40
0.0
 40
0.0
 40
0.0
 40
0.9246427917683941
 40
1.0
 40
1.0
 40
1.0
 40
1.0
 10
118.7994848177837
 20
276.7371272390883
 30
0.0
 10
118.7866756744986
 20
276.7398927733253
 30
0.0
 10
118.7728226023726
 20
276.7428836950753
 30
0.0
 10
118.7567724018703
 20
276.7445530267576
 30
0.0
 10
118.7555629035689
 20
276.7446788229328
 30
0.0
  0
ARC
  5
14B
330
1F
100
AcDbEntity
  8
0
  6
Continuous
 62
     8
 48
100.0
370
    15
100
AcDbCircle
 10
115.6650846144
 20
276.8405571076
 30
0.0
 40
3.240760753764287
100
AcDbArc
 50
55.3174049599
 51
112.9258517133
  0
LWPOLYLINE
  5
14C
330
1F
100
AcDbEntity
  8
0
  6
Continuous
 62
     8
 48
10.0
370
    15
100
AcDbPolyline
 90
       13
 70
   128
 43
0.0
 10
115.5312046025
 20
275.5898092863
 10
115.5339731168
 20
275.5967637599
 10
115.6621618
 20
275.829076222
 10
115.8357844378
 20
276.0036970709
 10
116.049226818
 20
276.1149798166
 10
116.2955871287
 20
276.1593260521
 10
116.5668991332
 20
276.13530181
 10
116.8543897638
 20
276.0436839314
 10
117.1487628054
 20
275.8874349459
 10
117.4404994955
 20
275.6716072762
 10
117.7201663194
 20
275.4031798642
 10
117.9787200507
 20
275.0908325022
 10
118.2005187693
 20
274.7569723683
  0
LWPOLYLINE
  5
14D
330
1F
100
AcDbEntity
  8
0
  6
Continuous
 62
     8
 48
10.0
370
    15
100
AcDbPolyline
 90
       23
 70
   128
 43
0.0
 10
118.0105650118
 20
274.1289937721
 10
117.9445371821
 20
274.2750547793
 10
117.7630049813
 20
274.6016062086
 10
117.547139048
 20
274.9022375822
 10
117.305433437
 20
275.1651194314
 10
117.0473989617
 20
275.3799076841
 10
116.7831889561
 20
275.5381506912
 10
116.5231997535
 20
275.6336217882
 10
116.2776616041
 20
275.6625643068
 10
116.0562361269
 20
275.6238393951
 10
115.8676361377
 20
275.51897083
 10
115.7192828101
 20
275.3520850582
 10
115.6170136622
 20
275.1297488264
 10
115.564852857
 20
274.8607107873
 10
115.564852857
 20
274.5555572511
 10
115.6170136622
 20
274.2262956282
 10
115.7192828101
 20
273.8858819515
 10
115.8676361377
 20
273.5477110737
 10
116.0562361269
 20
273.225089596
 10
116.2776616041
 20
272.9307122701
 10
116.5231997535
 20
272.6761624757
 10
116.7831889561
 20
272.4714564289
 10
116.9018906053
 20
272.3979930854
  0
ARC
  5
14E
330
1F
100
AcDbEntity
  8
0
  6
Continuous
 62
     7
 48
100.0
370
    15
100
AcDbCircle
 10
165.5725252856
 20
204.9458728055
 30
0.0
 40
1.000000000000057
100
AcDbArc
 50
0.0
 51
90.0
  0
LINE
  5
14F
330
1F
100
AcDbEntity
  8
0
  6
Continuous
 62
     7
 48
10.0
370
    15
100
AcDbLine
 10
165.5725252856
 20
205.9458728055
 30
0.0
 11
152.5725252856
 21
205.9458728055
 31
0.0
  0
ARC
  5
150
330
1F
100
AcDbEntity
  8
0
  6
Continuous
 62
     7
 48
100.0
370
    15
100
AcDbCircle
 10
152.5725252856
 20
204.9458728055
 30
0.0
 40
1.000000000000057
100
AcDbArc
 50
90.0
 51
180.0
  0
ARC
  5
151
330
1F
100
AcDbEntity
  8
0
  6
Continuous
 62
     7
 48
100.0
370
    15
100
AcDbCircle
 10
164.5725252856
 20
92.5511733311
 30
0.0
 40
1.000000000000028
100
AcDbArc
 50
210.0
 51
270.0
  0
ARC
  5
152
330
1F
100
AcDbEntity
  8
0
  6
Continuous
 62
     7
 48
100.0
370
    15
100
AcDbCircle
 10
153.5725252856
 20
92.5511733311
 30
0.0
 40
1.000000000000028
100
AcDbArc
 50
270.0
 51
330.0
  0
ARC
  5
153
330
1F
100
AcDbEntity
  8
0
  6
Continuous
 62
     7
 48
100.0
370
    15
100
AcDbCircle
 10
162.8404744781
 20
91.5511733311
 30
0.0
 40
1.000000000000043
100
AcDbArc
 50
30.0
 51
90.0
  0
ARC
  5
154
330
1F
100
AcDbEntity
  8
0
  6
Continuous
 62
     7
 48
100.0
370
    15
100
AcDbCircle
 10
155.3045760932
 20
91.5511733311
 30
0.0
 40
1.000000000000043
100
AcDbArc
 50
90.0
 51
150.0
  0
CIRCLE
  5
155
330
1F
100
AcDbEntity
  8
0
  6
Continuous
 62
     7
 48
100.0
370
    15
100
AcDbCircle
 10
159.0725252856
 20
110.9458728055
 30
0.0
 40
3.249999999999985
  0
LINE
  5
156
330
1F
100
AcDbEntity
  8
0
  6
Continuous
 62
     7
 48
10.0
370
    15
100
AcDbLine
 10
164.58591703
 20
106.5043064745
 30
0.0
 11
164.0419034299
 21
115.9887173262
 31
0.0
  0
LINE
  5
157
330
1F
100
AcDbEntity
  8
0
  6
Continuous
 62
     7
 48
10.0
370
    15
100
AcDbLine
 10
154.1031471414
 20
105.9030282849
 30
0.0
 11
164.58591703
 21
106.5043064745
 31
0.0
  0
LINE
  5
158
330
1F
100
AcDbEntity
  8
0
  6
Continuous
 62
     7
 48
10.0
370
    15
100
AcDbLine
 10
153.5591335413
 20
115.3874391366
 30
0.0
 11
154.1031471414
 21
105.9030282849
 31
0.0
  0
LINE
  5
159
330
1F
100
AcDbEntity
  8
0
  6
Continuous
 62
     7
 48
10.0
370
    15
100
AcDbLine
 10
164.0419034299
 20
115.9887173262
 30
0.0
 11
153.5591335413
 21
115.3874391366
 31
0.0
  0
CIRCLE
  5
15A
330
1F
100
AcDbEntity
  8
0
  6
Continuous
 62
     7
 48
100.0
370
    15
100
AcDbCircle
 10
159.0725252856
 20
110.9458728055
 30
0.0
 40
3.200000000000003
  0
LINE
  5
15B
330
1F
100
AcDbEntity
  8
0
  6
Continuous
 62
     7
 48
10.0
370
    15
100
AcDbLine
 10
166.5725252856
 20
204.9458728055
 30
0.0
 11
166.5725252856
 21
121.5067611085
 31
0.0
  0
ARC
  5
15C
330
1F
100
AcDbEntity
  8
0
  6
Continuous
 62
     7
 48
100.0
370
    15
100
AcDbCircle
 10
165.5791579418
 20
121.5134835392
 30
0.0
 40
0.9933900900012737
100
AcDbArc
 50
269.6174453203
 51
359.6122672726
  0
LINE
  5
15D
330
1F
100
AcDbEntity
  8
0
  6
Continuous
 62
     7
 48
10.0
370
    15
100
AcDbLine
 10
152.5725252856
 20
120.5201155919
 30
0.0
 11
165.5725252856
 21
120.5201155919
 31
0.0
  0
LINE
  5
15E
330
1F
100
AcDbEntity
  8
0
  6
Continuous
 62
     7
 48
10.0
370
    15
100
AcDbLine
 10
151.5725252856
 20
121.5067611085
 30
0.0
 11
151.5725252856
 21
204.9458728055
 31
0.0
  0
ARC
  5
15F
330
1F
100
AcDbEntity
  8
0
  6
Continuous
 62
     7
 48
100.0
370
    15
100
AcDbCircle
 10
152.5658926295
 20
121.5134835392
 30
0.0
 40
0.9933900900015347
100
AcDbArc
 50
180.3877327274
 51
270.3825546797
  0
LINE
  5
160
330
1F
100
AcDbEntity
  8
0
  6
Continuous
 62
     7
 48
10.0
370
    15
100
AcDbLine
 10
165.5725252856
 20
101.123686062
 30
0.0
 11
165.5725252856
 21
103.2634464977
 31
0.0
  0
ARC
  5
161
330
1F
100
AcDbEntity
  8
0
  6
Continuous
 62
     7
 48
100.0
370
    15
100
AcDbCircle
 10
165.8212107616
 20
99.7613914964
 30
0.0
 40
3.51087363737044
100
AcDbArc
 50
77.643341611
 51
94.0618295059
  0
ARC
  5
162
330
1F
100
AcDbEntity
  8
0
  6
Continuous
 62
     7
 48
100.0
370
    15
100
AcDbCircle
 10
165.5738398097
 20
102.1223715426
 30
0.0
 40
0.9986863456588535
100
AcDbArc
 50
269.9245842286
 51
359.9243851714
  0
LINE
  5
163
330
1F
100
AcDbEntity
  8
0
  6
Continuous
 62
     7
 48
10.0
370
    15
100
AcDbLine
 10
166.5725252856
 20
103.1909337667
 30
0.0
 11
166.5725252856
 21
102.1210535489
 31
0.0
  0
LINE
  5
164
330
1F
100
AcDbEntity
  8
0
  6
Continuous
 62
     7
 48
10.0
370
    15
100
AcDbLine
 10
165.5725252856
 20
101.123686062
 30
0.0
 11
152.5725252856
 21
101.123686062
 31
0.0
  0
LINE
  5
165
330
1F
100
AcDbEntity
  8
0
  6
Continuous
 62
     7
 48
10.0
370
    15
100
AcDbLine
 10
152.5725252856
 20
103.2634464977
 30
0.0
 11
152.5725252856
 21
101.123686062
 31
0.0
  0
LINE
  5
166
330
1F
100
AcDbEntity
  8
0
  6
Continuous
 62
     7
 48
10.0
370
    15
100
AcDbLine
 10
152.5725252856
 20
103.2634464977
 30
0.0
 11
165.5725252856
 21
103.2634464977
 31
0.0
  0
ARC
  5
167
330
1F
100
AcDbEntity
  8
0
  6
Continuous
 62
     7
 48
100.0
370
    15
100
AcDbCircle
 10
152.3238398097
 20
99.7613914964
 30
0.0
 40
3.510873637377945
100
AcDbArc
 50
85.9381704942
 51
102.356658389
  0
ARC
  5
168
330
1F
100
AcDbEntity
  8
0
  6
Continuous
 62
     7
 48
100.0
370
    15
100
AcDbCircle
 10
152.5712107616
 20
102.1223715426
 30
0.0
 40
0.9986863456584552
100
AcDbArc
 50
180.0756148286
 51
270.0754157715
  0
LINE
  5
169
330
1F
100
AcDbEntity
  8
0
  6
Continuous
 62
     7
 48
10.0
370
    15
100
AcDbLine
 10
151.5725252856
 20
102.1210535489
 30
0.0
 11
151.5725252856
 21
103.1909337667
 31
0.0
  0
LINE
  5
16A
330
1F
100
AcDbEntity
  8
0
  6
Continuous
 62
     7
 48
10.0
370
    15
100
AcDbLine
 10
165.5725252856
 20
103.2634464977
 30
0.0
 11
165.5725252856
 21
119.4609573443
 31
0.0
  0
ARC
  5
16B
330
1F
100
AcDbEntity
  8
0
  6
Continuous
 62
     7
 48
100.0
370
    15
100
AcDbCircle
 10
165.8212107616
 20
115.9589023431
 30
0.0
 40
3.510873637369512
100
AcDbArc
 50
77.643341611
 51
94.0618295059
  0
LINE
  5
16C
330
1F
100
AcDbEntity
  8
0
  6
Continuous
 62
     7
 48
10.0
370
    15
100
AcDbLine
 10
166.5725252856
 20
119.3884446133
 30
0.0
 11
166.5725252856
 21
103.1909337667
 31
0.0
  0
LINE
  5
16D
330
1F
100
AcDbEntity
  8
0
  6
Continuous
 62
     7
 48
10.0
370
    15
100
AcDbLine
 10
152.5725252856
 20
119.4609573443
 30
0.0
 11
152.5725252856
 21
103.2634464977
 31
0.0
  0
LINE
  5
16E
330
1F
100
AcDbEntity
  8
0
  6
Continuous
 62
     7
 48
10.0
370
    15
100
AcDbLine
 10
165.5725252856
 20
119.4609573443
 30
0.0
 11
152.5725252856
 21
119.4609573443
 31
0.0
  0
ARC
  5
16F
330
1F
100
AcDbEntity
  8
0
  6
Continuous
 62
     7
 48
100.0
370
    15
100
AcDbCircle
 10
152.3238398097
 20
115.9589023431
 30
0.0
 40
3.510873637381527
100
AcDbArc
 50
85.9381704942
 51
102.356658389
  0
LINE
  5
170
330
1F
100
AcDbEntity
  8
0
  6
Continuous
 62
     7
 48
10.0
370
    15
100
AcDbLine
 10
151.5725252856
 20
103.1909337667
 30
0.0
 11
151.5725252856
 21
119.3884446133
 31
0.0
  0
LINE
  5
171
330
1F
100
AcDbEntity
  8
0
  6
Continuous
 62
     7
 48
10.0
370
    15
100
AcDbLine
 10
165.5725252856
 20
119.4609573443
 30
0.0
 11
165.5725252856
 21
120.5201155919
 31
0.0
  0
LINE
  5
172
330
1F
100
AcDbEntity
  8
0
  6
Continuous
 62
     7
 48
10.0
370
    15
100
AcDbLine
 10
166.5725252856
 20
121.5067611085
 30
0.0
 11
166.5725252856
 21
119.3884446133
 31
0.0
  0
LINE
  5
173
330
1F
100
AcDbEntity
  8
0
  6
Continuous
 62
     7
 48
10.0
370
    15
100
AcDbLine
 10
152.5725252856
 20
120.5201155919
 30
0.0
 11
152.5725252856
 21
119.4609573443
 31
0.0
  0
LINE
  5
174
330
1F
100
AcDbEntity
  8
0
  6
Continuous
 62
     7
 48
10.0
370
    15
100
AcDbLine
 10
151.5725252856
 20
119.3884446133
 30
0.0
 11
151.5725252856
 21
121.5067611085
 31
0.0
  0
LINE
  5
175
330
1F
100
AcDbEntity
  8
0
  6
Continuous
 62
     7
 48
10.0
370
    15
100
AcDbLine
 10
165.5725252856
 20
101.0511733311
 30
0.0
 11
165.5725252856
 21
101.123686062
 31
0.0
  0
ARC
  5
176
330
1F
100
AcDbEntity
  8
0
  6
Continuous
 62
     7
 48
100.0
370
    15
100
AcDbCircle
 10
165.5738398097
 20
102.0498588116
 30
0.0
 40
0.9986863456585404
100
AcDbArc
 50
269.9245842286
 51
359.9243851714
  0
LINE
  5
177
330
1F
100
AcDbEntity
  8
0
  6
Continuous
 62
     7
 48
10.0
370
    15
100
AcDbLine
 10
166.5725252856
 20
102.1210535489
 30
0.0
 11
166.5725252856
 21
102.0485408179
 31
0.0
  0
LINE
  5
178
330
1F
100
AcDbEntity
  8
0
  6
Continuous
 62
     7
 48
10.0
370
    15
100
AcDbLine
 10
152.5725252856
 20
101.0511733311
 30
0.0
 11
165.5725252856
 21
101.0511733311
 31
0.0
  0
LINE
  5
179
330
1F
100
AcDbEntity
  8
0
  6
Continuous
 62
     7
 48
10.0
370
    15
100
AcDbLine
 10
152.5725252856
 20
101.123686062
 30
0.0
 11
152.5725252856
 21
101.0511733311
 31
0.0
  0
ARC
  5
17A
330
1F
100
AcDbEntity
  8
0
  6
Continuous
 62
     7
 48
100.0
370
    15
100
AcDbCircle
 10
152.5712107616
 20
102.0498588116
 30
0.0
 40
0.9986863456587148
100
AcDbArc
 50
180.0756148286
 51
270.0754157714
  0
LINE
  5
17B
330
1F
100
AcDbEntity
  8
0
  6
Continuous
 62
     7
 48
10.0
370
    15
100
AcDbLine
 10
151.5725252856
 20
102.0485408179
 30
0.0
 11
151.5725252856
 21
102.1210535489
 31
0.0
  0
LINE
  5
17C
330
1F
100
AcDbEntity
  8
0
  6
Continuous
 62
     7
 48
10.0
370
    15
100
AcDbLine
 10
171.5725252856
 20
88.5511733311
 30
0.0
 11
146.5725252856
 21
88.5511733311
 31
0.0
  0
LINE
  5
17D
330
1F
100
AcDbEntity
  8
0
  6
Continuous
 62
     7
 48
10.0
370
    15
100
AcDbLine
 10
146.5725252856
 20
88.5511733311
 30
0.0
 11
146.5725252856
 21
90.5511733311
 31
0.0
  0
LINE
  5
17E
330
1F
100
AcDbEntity
  8
0
  6
Continuous
 62
     7
 48
10.0
370
    15
100
AcDbLine
 10
171.5725252856
 20
90.5511733311
 30
0.0
 11
146.5725252856
 21
90.5511733311
 31
0.0
  0
LINE
  5
17F
330
1F
100
AcDbEntity
  8
0
  6
Continuous
 62
     7
 48
10.0
370
    15
100
AcDbLine
 10
171.5725252856
 20
90.5511733311
 30
0.0
 11
171.5725252856
 21
88.5511733311
 31
0.0
  0
LINE
  5
180
330
1F
100
AcDbEntity
  8
0
  6
Continuous
 62
     7
 48
10.0
370
    15
100
AcDbLine
 10
147.5725252856
 20
91.5511733311
 30
0.0
 11
170.5725252856
 21
91.5511733311
 31
0.0
  0
ARC
  5
181
330
1F
100
AcDbEntity
  8
0
  6
Continuous
 62
     7
 48
100.0
370
    15
100
AcDbCircle
 10
170.5725252856
 20
90.5511733311
 30
0.0
 40
1.0
100
AcDbArc
 50
0.0
 51
90.0
  0
ARC
  5
182
330
1F
100
AcDbEntity
  8
0
  6
Continuous
 62
     7
 48
100.0
370
    15
100
AcDbCircle
 10
147.5725252856
 20
90.5511733311
 30
0.0
 40
1.0
100
AcDbArc
 50
90.0
 51
180.0
  0
LINE
  5
183
330
1F
100
AcDbEntity
  8
0
  6
Continuous
 62
     7
 48
10.0
370
    15
100
AcDbLine
 10
155.3045760932
 20
92.5511733311
 30
0.0
 11
162.8404744781
 21
92.5511733311
 31
0.0
  0
LINE
  5
184
330
1F
100
AcDbEntity
  8
0
  6
Continuous
 62
     7
 48
10.0
370
    15
100
AcDbLine
 10
170.5725252856
 20
91.5511733311
 30
0.0
 11
170.5725252856
 21
92.6286294649
 31
0.0
  0
LWPOLYLINE
  5
185
330
1F
100
AcDbEntity
  8
0
  6
Continuous
 62
     7
 48
10.0
370
    15
100
AcDbPolyline
 90
        9
 70
   128
 43
0.0
 10
170.5725252856
 20
92.6286294649
 10
170.7676156077
 20
92.6197662541
 10
170.955208718
 20
92.5935172297
 10
171.1280955187
 20
92.5508911272
 10
171.2796320668
 20
92.4935260437
 10
171.403994898
 20
92.4236264872
 10
171.4964048182
 20
92.3438786585
 10
171.5533105661
 20
92.2573472218
 10
171.5725252856
 20
92.1673575319
  0
LINE
  5
186
330
1F
100
AcDbEntity
  8
0
  6
Continuous
 62
     7
 48
10.0
370
    15
100
AcDbLine
 10
171.5725252856
 20
92.1673575319
 30
0.0
 11
171.5725252856
 21
90.5511733311
 31
0.0
  0
LINE
  5
187
330
1F
100
AcDbEntity
  8
0
  6
Continuous
 62
     7
 48
10.0
370
    15
100
AcDbLine
 10
169.510355223
 20
92.6286294649
 30
0.0
 11
170.5725252856
 21
92.6286294649
 31
0.0
  0
SPLINE
  5
188
330
1F
100
AcDbEntity
  8
0
  6
Continuous
 62
     7
 48
10.0
370
    15
100
AcDbSpline
210
0.0
220
0.0
230
1.0
 70
     8
 71
     3
 72
     9
 73
     5
 74
     0
 42
0.00000001
 43
0.00000001
 40
0.0
 40
0.0
 40
0.0
 40
0.0
 40
0.9929930957494887
 40
1.0
 40
1.0
 40
1.0
 40
1.0
 10
168.552905305181
 20
91.72235253094206
 30
0.0
 10
168.23065416144
 20
91.63715641491333
 30
0.0
 10
167.9061291016783
 20
91.5513591254927
 30
0.0
 10
167.5748465507636
 20
91.55117462385181
 30
0.0
 10
167.5725252856495
 20
91.55117333106647
 30
0.0
  0
SPLINE
  5
189
330
1F
100
AcDbEntity
  8
0
  6
Continuous
 62
     7
 48
10.0
370
    15
100
AcDbSpline
210
0.0
220
0.0
230
1.0
 70
     8
 71
     3
 72
    10
 73
     6
 74
     0
 42
0.00000001
 43
0.00000001
 40
0.0
 40
0.0
 40
0.0
 40
0.0
 40
0.3526554489764558
 40
0.436762806726839
 40
1.0
 40
1.0
 40
1.0
 40
1.0
 10
169.5103552230409
 20
92.62862946493276
 30
0.0
 10
169.4344478978146
 20
92.47397742703141
 30
0.0
 10
169.3404368836274
 20
92.28244130208039
 30
0.0
 10
169.0277775716122
 20
91.95439953238703
 30
0.0
 10
168.7738451332992
 20
91.8303150889577
 30
0.0
 10
168.552905305181
 20
91.72235253094208
 30
0.0
  0
ARC
  5
18A
330
1F
100
AcDbEntity
  8
0
  6
Continuous
 62
     7
 48
100.0
370
    15
100
AcDbCircle
 10
168.358268706
 20
91.1229828914
 30
0.0
 40
0.630180426948954
100
AcDbArc
 50
72.0095464306
 51
117.9692794059
  0
SPLINE
  5
18B
330
1F
100
AcDbEntity
  8
0
  6
Continuous
 62
     7
 48
10.0
370
    15
100
AcDbSpline
210
0.0
220
0.0
230
1.0
 70
     8
 71
     3
 72
     9
 73
     5
 74
     0
 42
0.00000001
 43
0.00000001
 40
0.0
 40
0.0
 40
0.0
 40
0.0
 40
0.0084022817426548
 40
1.0
 40
1.0
 40
1.0
 40
1.0
 10
167.5725252856495
 20
91.55117333106647
 30
0.0
 10
167.5739183640337
 20
91.55117473063504
 30
0.0
 10
167.7397159922185
 20
91.5513413006943
 30
0.0
 10
167.9018969890311
 20
91.61571997973348
 30
0.0
 10
168.0627152954152
 20
91.67955773097314
 30
0.0
  0
LINE
  5
18C
330
1F
100
AcDbEntity
  8
0
  6
Continuous
 62
     7
 48
10.0
370
    15
100
AcDbLine
 10
147.5725252856
 20
92.6286294649
 30
0.0
 11
147.5725252856
 21
91.5511733311
 31
0.0
  0
LINE
  5
18D
330
1F
100
AcDbEntity
  8
0
  6
Continuous
 62
     7
 48
10.0
370
    15
100
AcDbLine
 10
147.5725252856
 20
92.6286294649
 30
0.0
 11
148.6346953483
 21
92.6286294649
 31
0.0
  0
SPLINE
  5
18E
330
1F
100
AcDbEntity
  8
0
  6
Continuous
 62
     7
 48
10.0
370
    15
100
AcDbSpline
210
0.0
220
0.0
230
1.0
 70
     8
 71
     3
 72
    10
 73
     6
 74
     0
 42
0.00000001
 43
0.00000001
 40
0.0
 40
0.0
 40
0.0
 40
0.0
 40
0.4683849711632827
 40
0.8700868773411657
 40
1.0
 40
1.0
 40
1.0
 40
1.0
 10
149.5921452661179
 20
91.72235253094208
 30
0.0
 10
149.4088983125928
 20
91.80989720639955
 30
0.0
 10
149.0684929208932
 20
91.97252299071425
 30
0.0
 10
148.7581502208821
 20
92.32671731475918
 30
0.0
 10
148.6589398312385
 20
92.56933894175695
 30
0.0
 10
148.634695348258
 20
92.62862946493276
 30
0.0
  0
SPLINE
  5
18F
330
1F
100
AcDbEntity
  8
0
  6
Continuous
 62
     7
 48
10.0
370
    15
100
AcDbSpline
210
0.0
220
0.0
230
1.0
 70
     8
 71
     3
 72
     9
 73
     5
 74
     0
 42
0.00000001
 43
0.00000001
 40
0.0
 40
0.0
 40
0.0
 40
0.0
 40
0.0070069042505115
 40
1.0
 40
1.0
 40
1.0
 40
1.0
 10
150.5725252856494
 20
91.55117333106645
 30
0.0
 10
150.5702040205353
 20
91.55117462385181
 30
0.0
 10
150.2389214696209
 20
91.55135912549292
 30
0.0
 10
149.9143964098591
 20
91.63715641491346
 30
0.0
 10
149.5921452661179
 20
91.72235253094206
 30
0.0
  0
ARC
  5
190
330
1F
100
AcDbEntity
  8
0
  6
Continuous
 62
     7
 48
100.0
370
    15
100
AcDbCircle
 10
149.7867818653
 20
91.1229828914
 30
0.0
 40
0.6301804269490255
100
AcDbArc
 50
62.0307205941
 51
107.9904535694
  0
SPLINE
  5
191
330
1F
100
AcDbEntity
  8
0
  6
Continuous
 62
     7
 48
10.0
370
    15
100
AcDbSpline
210
0.0
220
0.0
230
1.0
 70
     8
 71
     3
 72
     9
 73
     5
 74
     0
 42
0.00000001
 43
0.00000001
 40
0.0
 40
0.0
 40
0.0
 40
0.0
 40
0.9915977182573462
 40
1.0
 40
1.0
 40
1.0
 40
1.0
 10
150.0823352758837
 20
91.67955773097313
 30
0.0
 10
150.2431535822678
 20
91.61571997973277
 30
0.0
 10
150.4053345790805
 20
91.55134130069294
 30
0.0
 10
150.5711322072652
 20
91.55117473063503
 30
0.0
 10
150.5725252856494
 20
91.55117333106647
 30
0.0
  0
LWPOLYLINE
  5
192
330
1F
100
AcDbEntity
  8
0
  6
Continuous
 62
     7
 48
10.0
370
    15
100
AcDbPolyline
 90
        9
 70
   128
 43
0.0
 10
147.5725252856
 20
92.6286294649
 10
147.3774349636
 20
92.6197662541
 10
147.1898418533
 20
92.5935172297
 10
147.0169550526
 20
92.5508911272
 10
146.8654185045
 20
92.4935260437
 10
146.7410556733
 20
92.4236264872
 10
146.6486457531
 20
92.3438786585
 10
146.5917400052
 20
92.2573472218
 10
146.5725252856
 20
92.1673575319
  0
LINE
  5
193
330
1F
100
AcDbEntity
  8
0
  6
Continuous
 62
     7
 48
10.0
370
    15
100
AcDbLine
 10
146.5725252856
 20
90.5511733311
 30
0.0
 11
146.5725252856
 21
92.1673575319
 31
0.0
  0
SPLINE
  5
194
330
1F
100
AcDbEntity
  8
0
  6
Continuous
 62
     7
 48
10.0
370
    15
100
AcDbSpline
210
0.0
220
0.0
230
1.0
 70
     8
 71
     3
 72
    10
 73
     6
 74
     0
 42
0.00000001
 43
0.00000001
 40
0.0
 40
0.0
 40
0.0
 40
0.0
 40
0.1321859930019839
 40
0.5409020604718419
 40
1.0
 40
1.0
 40
1.0
 40
1.0
 10
149.6036103169538
 20
92.41186005110403
 30
0.0
 10
149.6157640489428
 20
92.36307207729864
 30
0.0
 10
149.6654968423048
 20
92.16343280419375
 30
0.0
 10
149.8153123058169
 20
91.87942256692948
 30
0.0
 10
149.989948063842
 20
91.74870891663541
 30
0.0
 10
150.0823352758837
 20
91.67955773097316
 30
0.0
  0
LWPOLYLINE
  5
195
330
1F
100
AcDbEntity
  8
0
  6
Continuous
 62
     7
 48
10.0
370
    15
100
AcDbPolyline
 90
        9
 70
   128
 43
0.0
 10
149.603610317
 20
92.4118600511
 10
149.5629383352
 20
92.4841592779
 10
149.4929323957
 20
92.5464470646
 10
149.3958047976
 20
92.5967550179
 10
149.2746249279
 20
92.6334933262
 10
149.1332222636
 20
92.6555010006
 10
148.9760653542
 20
92.6620825633
 10
148.8081206085
 20
92.6530300266
 10
148.6346953483
 20
92.6286294649
  0
SPLINE
  5
196
330
1F
100
AcDbEntity
  8
0
  6
Continuous
 62
     7
 48
10.0
370
    15
100
AcDbSpline
210
0.0
220
0.0
230
1.0
 70
     8
 71
     3
 72
     9
 73
     5
 74
     0
 42
0.00000001
 43
0.00000001
 40
0.0
 40
0.0
 40
0.0
 40
0.0
 40
0.5552032332801187
 40
1.0
 40
1.0
 40
1.0
 40
1.0
 10
168.0627152954152
 20
91.67955773097314
 30
0.0
 10
168.1762764101421
 20
91.76251238402494
 30
0.0
 10
168.3808161316707
 20
91.91192551435147
 30
0.0
 10
168.491990330267
 20
92.25794963917527
 30
0.0
 10
168.5414402543453
 20
92.41186005110396
 30
0.0
  0
LWPOLYLINE
  5
197
330
1F
100
AcDbEntity
  8
0
  6
Continuous
 62
     7
 48
10.0
370
    15
100
AcDbPolyline
 90
        9
 70
   128
 43
0.0
 10
168.5414402543
 20
92.4118600511
 10
168.5821122361
 20
92.4841592779
 10
168.6521181756
 20
92.5464470646
 10
168.7492457737
 20
92.5967550179
 10
168.8704256434
 20
92.6334933262
 10
169.0118283077
 20
92.6555010006
 10
169.1689852171
 20
92.6620825633
 10
169.3369299628
 20
92.6530300266
 10
169.510355223
 20
92.6286294649
  0
LINE
  5
198
330
1F
100
AcDbEntity
  8
0
  6
Continuous
 62
     7
 48
10.0
370
    15
100
AcDbLine
 10
150.5725252856
 20
100.9968831076
 30
0.0
 11
150.5725252856
 21
91.5511733311
 31
0.0
  0
LINE
  5
199
330
1F
100
AcDbEntity
  8
0
  6
Continuous
 62
     7
 48
10.0
370
    15
100
AcDbLine
 10
150.5725252856
 20
100.9968831076
 30
0.0
 11
167.5725252856
 21
100.9968831076
 31
0.0
  0
LINE
  5
19A
330
1F
100
AcDbEntity
  8
0
  6
Continuous
 62
     7
 48
10.0
370
    15
100
AcDbLine
 10
167.5725252856
 20
91.5511733311
 30
0.0
 11
167.5725252856
 21
100.9968831076
 31
0.0
  0
ARC
  5
19B
330
1F
100
AcDbEntity
  8
0
  6
Continuous
 62
     7
 48
100.0
370
    15
100
AcDbCircle
 10
167.8217571915
 20
105.5487274615
 30
0.0
 40
4.558662475409131
100
AcDbArc
 50
266.865953581
 51
279.4792515336
  0
LINE
  5
19C
330
1F
100
AcDbEntity
  8
0
  6
Continuous
 62
     7
 48
10.0
370
    15
100
AcDbLine
 10
168.5414402543
 20
92.4118600511
 30
0.0
 11
168.5725252856
 21
92.7199294438
 31
0.0
  0
ARC
  5
19D
330
1F
100
AcDbEntity
  8
0
  6
Continuous
 62
     7
 48
100.0
370
    15
100
AcDbCircle
 10
150.3232933798
 20
105.5487274615
 30
0.0
 40
4.558662475401427
100
AcDbArc
 50
260.5207484664
 51
273.134046419
  0
LINE
  5
19E
330
1F
100
AcDbEntity
  8
0
  6
Continuous
 62
     7
 48
10.0
370
    15
100
AcDbLine
 10
149.5725252856
 20
92.7199294438
 30
0.0
 11
149.603610317
 21
92.4118600511
 31
0.0
  0
LINE
  5
19F
330
1F
100
AcDbEntity
  8
0
  6
Continuous
 62
     7
 48
10.0
370
    15
100
AcDbLine
 10
170.5725252856
 20
92.6286294649
 30
0.0
 11
170.5725252856
 21
111.5414989943
 31
0.0
  0
LWPOLYLINE
  5
1A0
330
1F
100
AcDbEntity
  8
0
  6
Continuous
 62
     7
 48
10.0
370
    15
100
AcDbPolyline
 90
        9
 70
   128
 43
0.0
 10
170.5725252856
 20
111.5414989943
 10
170.7676156077
 20
111.5326357835
 10
170.955208718
 20
111.5063867592
 10
171.1280955187
 20
111.4637606566
 10
171.2796320668
 20
111.4063955731
 10
171.403994898
 20
111.3364960166
 10
171.4964048182
 20
111.2567481879
 10
171.5533105661
 20
111.1702167512
 10
171.5725252856
 20
111.0802270613
  0
LINE
  5
1A1
330
1F
100
AcDbEntity
  8
0
  6
Continuous
 62
     7
 48
10.0
370
    15
100
AcDbLine
 10
171.5725252856
 20
111.0802270613
 30
0.0
 11
171.5725252856
 21
92.1673575319
 31
0.0
  0
LINE
  5
1A2
330
1F
100
AcDbEntity
  8
0
  6
Continuous
 62
     7
 48
10.0
370
    15
100
AcDbLine
 10
169.5725252856
 20
93.1812013769
 30
0.0
 11
169.510355223
 21
92.6286294649
 31
0.0
  0
LINE
  5
1A3
330
1F
100
AcDbEntity
  8
0
  6
Continuous
 62
     7
 48
10.0
370
    15
100
AcDbLine
 10
169.5725252856
 20
107.8008210876
 30
0.0
 11
169.5725252856
 21
93.1812013769
 31
0.0
  0
ELLIPSE
  5
1A4
330
1F
100
AcDbEntity
  8
0
  6
Continuous
 62
     7
 48
100.0
370
    15
100
AcDbEllipse
 10
167.5725252856
 20
107.8008210876
 30
0.0
 11
0.0
 21
4.313542527153487
 31
0.0
210
0.0
220
0.0
230
1.0
 40
0.4636560292
 41
4.712388980384696
 42
5.761928340319401
  0
LINE
  5
1A5
330
1F
100
AcDbEntity
  8
0
  6
Continuous
 62
     7
 48
10.0
370
    15
100
AcDbLine
 10
170.5725252856
 20
111.5414989943
 30
0.0
 11
168.5684664156
 21
111.5414989943
 31
0.0
  0
LWPOLYLINE
  5
1A6
330
1F
100
AcDbEntity
  8
0
  6
Continuous
 62
     7
 48
10.0
370
    15
100
AcDbPolyline
 90
        9
 70
   128
 43
0.0
 10
168.5725252856
 20
92.7199294438
 10
168.5917400052
 20
92.8099191338
 10
168.6486457531
 20
92.8964505704
 10
168.7410556733
 20
92.9761983991
 10
168.8654185045
 20
93.0460979556
 10
169.0169550526
 20
93.1034630392
 10
169.1898418533
 20
93.1460891417
 10
169.3774349636
 20
93.172338166
 10
169.5725252856
 20
93.1812013769
  0
LWPOLYLINE
  5
1A7
330
1F
100
AcDbEntity
  8
0
  6
Continuous
 62
     7
 48
10.0
370
    15
100
AcDbPolyline
 90
        9
 70
   128
 43
0.0
 10
146.5725252856
 20
111.0802270613
 10
146.5917400052
 20
111.1702167512
 10
146.6486457531
 20
111.2567481879
 10
146.7410556733
 20
111.3364960166
 10
146.8654185045
 20
111.4063955731
 10
147.0169550526
 20
111.4637606566
 10
147.1898418533
 20
111.5063867592
 10
147.3774349636
 20
111.5326357835
 10
147.5725252856
 20
111.5414989943
  0
LINE
  5
1A8
330
1F
100
AcDbEntity
  8
0
  6
Continuous
 62
     7
 48
10.0
370
    15
100
AcDbLine
 10
147.5725252856
 20
111.5414989943
 30
0.0
 11
147.5725252856
 21
92.6286294649
 31
0.0
  0
LINE
  5
1A9
330
1F
100
AcDbEntity
  8
0
  6
Continuous
 62
     7
 48
10.0
370
    15
100
AcDbLine
 10
146.5725252856
 20
92.1673575319
 30
0.0
 11
146.5725252856
 21
111.0802270613
 31
0.0
  0
LINE
  5
1AA
330
1F
100
AcDbEntity
  8
0
  6
Continuous
 62
     7
 48
10.0
370
    15
100
AcDbLine
 10
149.5765841557
 20
111.5414989943
 30
0.0
 11
147.5725252856
 21
111.5414989943
 31
0.0
  0
ELLIPSE
  5
1AB
330
1F
100
AcDbEntity
  8
0
  6
Continuous
 62
     7
 48
100.0
370
    15
100
AcDbEllipse
 10
150.5725252856
 20
107.8008210876
 30
0.0
 11
0.0
 21
4.313542527153473
 31
0.0
210
0.0
220
0.0
230
1.0
 40
0.4636560292
 41
0.5212569668602022
 42
1.570796326794897
  0
LINE
  5
1AC
330
1F
100
AcDbEntity
  8
0
  6
Continuous
 62
     7
 48
10.0
370
    15
100
AcDbLine
 10
148.5725252856
 20
93.1812013769
 30
0.0
 11
148.5725252856
 21
107.8008210876
 31
0.0
  0
LINE
  5
1AD
330
1F
100
AcDbEntity
  8
0
  6
Continuous
 62
     7
 48
10.0
370
    15
100
AcDbLine
 10
148.6346953483
 20
92.6286294649
 30
0.0
 11
148.5725252856
 21
93.1812013769
 31
0.0
  0
LWPOLYLINE
  5
1AE
330
1F
100
AcDbEntity
  8
0
  6
Continuous
 62
     7
 48
10.0
370
    15
100
AcDbPolyline
 90
        9
 70
   128
 43
0.0
 10
149.5725252856
 20
92.7199294438
 10
149.5533105661
 20
92.8099191338
 10
149.4964048182
 20
92.8964505704
 10
149.403994898
 20
92.9761983991
 10
149.2796320668
 20
93.0460979556
 10
149.1280955187
 20
93.1034630392
 10
148.955208718
 20
93.1460891417
 10
148.7676156077
 20
93.172338166
 10
148.5725252856
 20
93.1812013769
  0
LINE
  5
1AF
330
1F
100
AcDbEntity
  8
0
  6
Continuous
 62
     7
 48
10.0
370
    15
100
AcDbLine
 10
168.5725252856
 20
92.7199294438
 30
0.0
 11
168.5725252856
 21
107.3395491545
 31
0.0
  0
LWPOLYLINE
  5
1B0
330
1F
100
AcDbEntity
  8
0
  6
Continuous
 62
     7
 48
10.0
370
    15
100
AcDbPolyline
 90
        9
 70
   128
 43
0.0
 10
168.5725252856
 20
107.3395491545
 10
168.5917400052
 20
107.4295388445
 10
168.6486457531
 20
107.5160702811
 10
168.7410556733
 20
107.5958181099
 10
168.8654185045
 20
107.6657176664
 10
169.0169550526
 20
107.7230827499
 10
169.1898418533
 20
107.7657088524
 10
169.3774349636
 20
107.7919578767
 10
169.5725252856
 20
107.8008210876
  0
LINE
  5
1B1
330
1F
100
AcDbEntity
  8
0
  6
Continuous
 62
     7
 48
10.0
370
    15
100
AcDbLine
 10
149.5725252856
 20
107.3395491545
 30
0.0
 11
149.5725252856
 21
92.7199294438
 31
0.0
  0
LWPOLYLINE
  5
1B2
330
1F
100
AcDbEntity
  8
0
  6
Continuous
 62
     7
 48
10.0
370
    15
100
AcDbPolyline
 90
        9
 70
   128
 43
0.0
 10
149.5725252856
 20
107.3395491545
 10
149.5533105661
 20
107.4295388445
 10
149.4964048182
 20
107.5160702811
 10
149.403994898
 20
107.5958181099
 10
149.2796320668
 20
107.6657176664
 10
149.1280955187
 20
107.7230827499
 10
148.955208718
 20
107.7657088524
 10
148.7676156077
 20
107.7919578767
 10
148.5725252856
 20
107.8008210876
  0
ELLIPSE
  5
1B3
330
1F
100
AcDbEntity
  8
0
  6
Continuous
 62
     7
 48
100.0
370
    15
100
AcDbEllipse
 10
167.5725252856
 20
107.3395491545
 30
0.0
 11
0.0
 21
4.368971549495697
 31
0.0
210
0.0
220
0.0
230
1.0
 40
0.2288868189
 41
4.712388980384693
 42
5.76192834031941
  0
ARC
  5
1B4
330
1F
100
AcDbEntity
  8
0
  6
Continuous
 62
     7
 48
100.0
370
    15
100
AcDbCircle
 10
169.9607886289
 20
109.3568850943
 30
0.0
 40
2.590578900115075
100
AcDbArc
 50
122.5106261393
 51
136.8595470706
  0
ELLIPSE
  5
1B5
330
1F
100
AcDbEntity
  8
0
  6
Continuous
 62
     7
 48
100.0
370
    15
100
AcDbEllipse
 10
150.5725252856
 20
107.3395491545
 30
0.0
 11
0.0
 21
4.368971549495683
 31
0.0
210
0.0
220
0.0
230
1.0
 40
0.2288868189
 41
0.5212569668601964
 42
1.570796326794897
  0
ARC
  5
1B6
330
1F
100
AcDbEntity
  8
0
  6
Continuous
 62
     7
 48
100.0
370
    15
100
AcDbCircle
 10
148.1842619424
 20
109.3568850943
 30
0.0
 40
2.590578900114374
100
AcDbArc
 50
43.1404529294
 51
57.4893738607
  0
LINE
  5
1B7
330
1F
100
AcDbEntity
  8
0
  6
Continuous
 62
     7
 48
10.0
370
    15
100
AcDbLine
 10
167.5725252856
 20
100.9968831076
 30
0.0
 11
167.5725252856
 21
112.3531848158
 31
0.0
  0
SPLINE
  5
1B8
330
1F
100
AcDbEntity
  8
0
  6
Continuous
 62
     7
 48
10.0
370
    15
100
AcDbSpline
210
0.0
220
0.0
230
1.0
 70
     8
 71
     3
 72
     9
 73
     5
 74
     0
 42
0.00000001
 43
0.00000001
 40
0.0
 40
0.0
 40
0.0
 40
0.0
 40
0.9917333597921525
 40
1.0
 40
1.0
 40
1.0
 40
1.0
 10
168.0704958506288
 20
111.1282947731304
 30
0.0
 10
167.9071470515845
 20
111.5312966556472
 30
0.0
 10
167.7424366509194
 20
111.9376577793682
 30
0.0
 10
167.573918365682
 20
112.3497779664826
 30
0.0
 10
167.5725252856495
 20
112.3531848157918
 30
0.0
  0
SPLINE
  5
1B9
330
1F
100
AcDbEntity
  8
0
  6
Continuous
 62
     7
 48
10.0
370
    15
100
AcDbSpline
210
0.0
220
0.0
230
1.0
 70
     8
 71
     3
 72
     9
 73
     5
 74
     0
 42
0.00000001
 43
0.00000001
 40
0.0
 40
0.0
 40
0.0
 40
0.0
 40
0.0082666402078516
 40
1.0
 40
1.0
 40
1.0
 40
1.0
 10
150.5725252856494
 20
112.3531848157918
 30
0.0
 10
150.571132205617
 20
112.3497779664826
 30
0.0
 10
150.4026139203784
 20
111.937657779369
 30
0.0
 10
150.2379035197139
 20
111.5312966556476
 30
0.0
 10
150.0745547206702
 20
111.1282947731305
 30
0.0
  0
LINE
  5
1BA
330
1F
100
AcDbEntity
  8
0
  6
Continuous
 62
     7
 48
10.0
370
    15
100
AcDbLine
 10
150.5725252856
 20
112.3531848158
 30
0.0
 11
150.5725252856
 21
100.9968831076
 31
0.0
  0
LINE
  5
1BB
330
1F
100
AcDbEntity
  8
0
  6
Continuous
 62
     7
 48
10.0
370
    15
100
AcDbLine
 10
147.5725252856
 20
112.3531848158
 30
0.0
 11
150.5725252856
 21
112.3531848158
 31
0.0
  0
LINE
  5
1BC
330
1F
100
AcDbEntity
  8
0
  6
Continuous
 62
     7
 48
10.0
370
    15
100
AcDbLine
 10
147.5725252856
 20
121.1066023534
 30
0.0
 11
147.5725252856
 21
112.3531848158
 31
0.0
  0
ARC
  5
1BD
330
1F
100
AcDbEntity
  8
0
  6
Continuous
 62
     7
 48
100.0
370
    15
100
AcDbCircle
 10
148.5725252856
 20
121.1066023534
 30
0.0
 40
1.000000000000071
100
AcDbArc
 50
90.0
 51
180.0
  0
ARC
  5
1BE
330
1F
100
AcDbEntity
  8
0
  6
Continuous
 62
     7
 48
100.0
370
    15
100
AcDbCircle
 10
169.5725252856
 20
121.1066023534
 30
0.0
 40
1.000000000000071
100
AcDbArc
 50
0.0
 51
90.0
  0
LINE
  5
1BF
330
1F
100
AcDbEntity
  8
0
  6
Continuous
 62
     7
 48
10.0
370
    15
100
AcDbLine
 10
170.5725252856
 20
112.3531848158
 30
0.0
 11
170.5725252856
 21
121.1066023534
 31
0.0
  0
LINE
  5
1C0
330
1F
100
AcDbEntity
  8
0
  6
Continuous
 62
     7
 48
10.0
370
    15
100
AcDbLine
 10
167.5725252856
 20
112.3531848158
 30
0.0
 11
170.5725252856
 21
112.3531848158
 31
0.0
  0
LINE
  5
1C1
330
1F
100
AcDbEntity
  8
0
  6
Continuous
 62
     7
 48
10.0
370
    15
100
AcDbLine
 10
147.5725252856
 20
112.3531848158
 30
0.0
 11
147.5725252856
 21
111.5414989943
 31
0.0
  0
SPLINE
  5
1C2
330
1F
100
AcDbEntity
  8
0
  6
Continuous
 62
     7
 48
10.0
370
    15
100
AcDbSpline
210
0.0
220
0.0
230
1.0
 70
     8
 71
     3
 72
    10
 73
     6
 74
     0
 42
0.00000001
 43
0.00000001
 40
0.0
 40
0.0
 40
0.0
 40
0.0
 40
0.4914241986845381
 40
0.9931227016023441
 40
1.0
 40
1.0
 40
1.0
 40
1.0
 10
149.5765841556909
 20
111.5414989943425
 30
0.0
 10
149.7363474014878
 20
111.6723663246663
 30
0.0
 10
150.0592140952877
 20
111.9368370548226
 30
0.0
 10
150.3985591780538
 20
112.2113666816833
 30
0.0
 10
150.5702041882816
 20
112.3512926443664
 30
0.0
 10
150.5725252856494
 20
112.3531848157918
 30
0.0
  0
LINE
  5
1C3
330
1F
100
AcDbEntity
  8
0
  6
Continuous
 62
     7
 48
10.0
370
    15
100
AcDbLine
 10
170.5725252856
 20
111.5414989943
 30
0.0
 11
170.5725252856
 21
112.3531848158
 31
0.0
  0
SPLINE
  5
1C4
330
1F
100
AcDbEntity
  8
0
  6
Continuous
 62
     7
 48
10.0
370
    15
100
AcDbSpline
210
0.0
220
0.0
230
1.0
 70
     8
 71
     3
 72
    10
 73
     6
 74
     0
 42
0.00000001
 43
0.00000001
 40
0.0
 40
0.0
 40
0.0
 40
0.0
 40
0.0068773256864743
 40
0.4987269744300775
 40
0.9999999999999999
 40
0.9999999999999999
 40
0.9999999999999999
 40
0.9999999999999999
 10
167.5725252856495
 20
112.3531848157918
 30
0.0
 10
167.5748463831559
 20
112.3512926440922
 30
0.0
 10
167.7431667433501
 20
112.214076942833
 30
0.0
 10
168.082470405583
 20
111.9395453508163
 30
0.0
 10
168.4054462126061
 20
111.6750177815301
 30
0.0
 10
168.568466415608
 20
111.5414989943425
 30
0.0
  0
ARC
  5
1C5
330
1F
100
AcDbEntity
  8
0
  6
Continuous
 62
     7
 48
100.0
370
    15
100
AcDbCircle
 10
170.8217571915
 20
107.8013404619
 30
0.0
 40
4.558662475405955
100
AcDbArc
 50
80.5207484664
 51
93.134046419
  0
LINE
  5
1C6
330
1F
100
AcDbEntity
  8
0
  6
Continuous
 62
     7
 48
10.0
370
    15
100
AcDbLine
 10
171.5725252856
 20
112.2977557934
 30
0.0
 11
171.5725252856
 21
111.0802270613
 31
0.0
  0
ARC
  5
1C7
330
1F
100
AcDbEntity
  8
0
  6
Continuous
 62
     7
 48
100.0
370
    15
100
AcDbCircle
 10
147.3232933798
 20
107.8013404619
 30
0.0
 40
4.558662475409122
100
AcDbArc
 50
86.865953581
 51
99.4792515336
  0
LINE
  5
1C8
330
1F
100
AcDbEntity
  8
0
  6
Continuous
 62
     7
 48
10.0
370
    15
100
AcDbLine
 10
146.5725252856
 20
111.0802270613
 30
0.0
 11
146.5725252856
 21
112.2977557934
 31
0.0
  0
ARC
  5
1C9
330
1F
100
AcDbEntity
  8
0
  6
Continuous
 62
     7
 48
100.0
370
    15
100
AcDbCircle
 10
170.8217571915
 20
116.5547579995
 30
0.0
 40
4.55866247541592
100
AcDbArc
 50
80.5207484664
 51
93.134046419
  0
LINE
  5
1CA
330
1F
100
AcDbEntity
  8
0
  6
Continuous
 62
     7
 48
10.0
370
    15
100
AcDbLine
 10
171.5725252856
 20
121.0511733311
 30
0.0
 11
171.5725252856
 21
112.2977557934
 31
0.0
  0
ARC
  5
1CB
330
1F
100
AcDbEntity
  8
0
  6
Continuous
 62
     7
 48
100.0
370
    15
100
AcDbCircle
 10
147.3232933798
 20
116.5547579995
 30
0.0
 40
4.558662475415234
100
AcDbArc
 50
86.865953581
 51
99.4792515336
  0
LINE
  5
1CC
330
1F
100
AcDbEntity
  8
0
  6
Continuous
 62
     7
 48
10.0
370
    15
100
AcDbLine
 10
146.5725252856
 20
112.2977557934
 30
0.0
 11
146.5725252856
 21
121.0511733311
 31
0.0
  0
ARC
  5
1CD
330
1F
100
AcDbEntity
  8
0
  6
Continuous
 62
     7
 48
100.0
370
    15
100
AcDbCircle
 10
169.5725252856
 20
121.0511733311
 30
0.0
 40
2.000000000000057
100
AcDbArc
 50
0.0
 51
90.0
  0
LINE
  5
1CE
330
1F
100
AcDbEntity
  8
0
  6
Continuous
 62
     7
 48
10.0
370
    15
100
AcDbLine
 10
169.5725252856
 20
123.0511733311
 30
0.0
 11
169.5725252856
 21
122.1066023534
 31
0.0
  0
ARC
  5
1CF
330
1F
100
AcDbEntity
  8
0
  6
Continuous
 62
     7
 48
100.0
370
    15
100
AcDbCircle
 10
148.5725252856
 20
121.0511733311
 30
0.0
 40
2.000000000000057
100
AcDbArc
 50
90.0
 51
180.0
  0
LINE
  5
1D0
330
1F
100
AcDbEntity
  8
0
  6
Continuous
 62
     7
 48
10.0
370
    15
100
AcDbLine
 10
148.5725252856
 20
123.0511733311
 30
0.0
 11
148.5725252856
 21
122.1066023534
 31
0.0
  0
LINE
  5
1D1
330
1F
100
AcDbEntity
  8
0
  6
Continuous
 62
     7
 48
10.0
370
    15
100
AcDbLine
 10
148.5725252856
 20
123.0511733311
 30
0.0
 11
151.5725252856
 21
123.0511733311
 31
0.0
  0
LINE
  5
1D2
330
1F
100
AcDbEntity
  8
0
  6
Continuous
 62
     7
 48
10.0
370
    15
100
AcDbLine
 10
166.5725252856
 20
123.0511733311
 30
0.0
 11
169.5725252856
 21
123.0511733311
 31
0.0
  0
LINE
  5
1D3
330
1F
100
AcDbEntity
  8
0
  6
Continuous
 62
     8
 48
10.0
370
    15
100
AcDbLine
 10
165.5725252856
 20
120.5201155919
 30
0.0
 11
165.5725252856
 21
205.9458728055
 31
0.0
  0
LINE
  5
1D4
330
1F
100
AcDbEntity
  8
0
  6
Continuous
 62
     8
 48
10.0
370
    15
100
AcDbLine
 10
152.5725252856
 20
205.9458728055
 30
0.0
 11
152.5725252856
 21
120.5201155919
 31
0.0
  0
LINE
  5
1D5
330
1F
100
AcDbEntity
  8
0
  6
Continuous
 62
     8
 48
10.0
370
    15
100
AcDbLine
 10
163.7064998819
 20
92.0511733311
 30
0.0
 11
154.4385506894
 21
92.0511733311
 31
0.0
  0
LINE
  5
1D6
330
1F
100
AcDbEntity
  8
0
  6
Continuous
 62
     8
 48
10.0
370
    15
100
AcDbLine
 10
169.5725252856
 20
122.1066023534
 30
0.0
 11
166.5725252856
 21
122.1066023534
 31
0.0
  0
LINE
  5
1D7
330
1F
100
AcDbEntity
  8
0
  6
Continuous
 62
     8
 48
10.0
370
    15
100
AcDbLine
 10
151.5725252856
 20
122.1066023534
 30
0.0
 11
148.5725252856
 21
122.1066023534
 31
0.0
  0
DIMENSION
  5
1D8
330
1F
100
AcDbEntity
  8
SLD-0
 48
10.0
100
AcDbDimension
  2
*D4
 10
146.5725252856
 20
78.5511733311
 30
0.0
 11
159.2201105902
 21
78.5511733311
 31
0.0
 70
   160
 71
     2
 42
-1.0
 73
     0
 74
     0
 75
     0
  3
SLDDIMSTYLE0
100
AcDbAlignedDimension
 13
171.5725252856
 23
92.1673575319
 33
0.0
 14
146.5725252856
 24
92.1673575319
 34
0.0
 50
0.0
100
AcDbRotatedDimension
  0
ARC
  5
1E3
330
1F
100
AcDbEntity
  8
0
  6
Continuous
 62
     7
 48
100.0
370
    15
100
AcDbCircle
 10
69.5815187348
 20
110.9458728055
 30
0.0
 40
18.50000000000002
100
AcDbArc
 50
341.0753555839
 51
0.0
  0
ARC
  5
1E4
330
1F
100
AcDbEntity
  8
0
  6
Continuous
 62
     7
 48
100.0
370
    15
100
AcDbCircle
 10
69.5815187348
 20
110.9458728055
 30
0.0
 40
18.50000000000002
100
AcDbArc
 50
0.0
 51
18.9246444161
  0
LINE
  5
1E5
330
1F
100
AcDbEntity
  8
0
  6
Continuous
 62
     7
 48
10.0
370
    15
100
AcDbLine
 10
87.0815187348
 20
116.9458728055
 30
0.0
 11
85.0815187348
 21
116.9458728055
 31
0.0
  0
LINE
  5
1E6
330
1F
100
AcDbEntity
  8
0
  6
Continuous
 62
     7
 48
10.0
370
    15
100
AcDbLine
 10
85.0815187348
 20
104.9458728055
 30
0.0
 11
87.0815187348
 21
104.9458728055
 31
0.0
  0
LINE
  5
1E7
330
1F
100
AcDbEntity
  8
0
  6
Continuous
 62
     7
 48
10.0
370
    15
100
AcDbLine
 10
85.0815187348
 20
114.1458728055
 30
0.0
 11
84.2903214465
 21
114.1458728055
 31
0.0
  0
LINE
  5
1E8
330
1F
100
AcDbEntity
  8
0
  6
Continuous
 62
     7
 48
10.0
370
    15
100
AcDbLine
 10
81.2824030619
 20
114.1458728055
 30
0.0
 11
80.5249469527
 21
114.1458728055
 31
0.0
  0
LINE
  5
1E9
330
1F
100
AcDbEntity
  8
0
  6
Continuous
 62
     7
 48
10.0
370
    15
100
AcDbLine
 10
74.9439365197
 20
114.1458728055
 30
0.0
 11
74.1864804105
 21
114.1458728055
 31
0.0
  0
LINE
  5
1EA
330
1F
100
AcDbEntity
  8
0
  6
Continuous
 62
     7
 48
10.0
370
    15
100
AcDbLine
 10
71.1785620258
 20
114.1458728055
 30
0.0
 11
70.3873647375
 21
114.1458728055
 31
0.0
  0
LINE
  5
1EB
330
1F
100
AcDbEntity
  8
0
  6
Continuous
 62
     7
 48
10.0
370
    15
100
AcDbLine
 10
68.8873647375
 20
114.1458728055
 30
0.0
 11
60.0815187348
 21
114.1458728055
 31
0.0
  0
LINE
  5
1EC
330
1F
100
AcDbEntity
  8
0
  6
Continuous
 62
     7
 48
10.0
370
    15
100
AcDbLine
 10
60.0815187348
 20
107.7458728055
 30
0.0
 11
68.8873647375
 21
107.7458728055
 31
0.0
  0
LINE
  5
1ED
330
1F
100
AcDbEntity
  8
0
  6
Continuous
 62
     7
 48
10.0
370
    15
100
AcDbLine
 10
70.3873647375
 20
107.7458728055
 30
0.0
 11
70.7132556225
 21
107.7458728055
 31
0.0
  0
LINE
  5
1EE
330
1F
100
AcDbEntity
  8
0
  6
Continuous
 62
     7
 48
10.0
370
    15
100
AcDbLine
 10
84.7556278499
 20
107.7458728055
 30
0.0
 11
85.0815187348
 21
107.7458728055
 31
0.0
  0
ARC
  5
1EF
330
1F
100
AcDbEntity
  8
0
  6
Continuous
 62
     7
 48
100.0
370
    15
100
AcDbCircle
 10
107.9844417362
 20
90.5511733311
 30
0.0
 40
1.000000000000043
100
AcDbArc
 50
0.0
 51
90.0
  0
LINE
  5
1F0
330
1F
100
AcDbEntity
  8
0
  6
Continuous
 62
     7
 48
10.0
370
    15
100
AcDbLine
 10
108.9844417362
 20
88.5511733311
 30
0.0
 11
108.9844417362
 21
90.5511733311
 31
0.0
  0
LINE
  5
1F1
330
1F
100
AcDbEntity
  8
0
  6
Continuous
 62
     7
 48
10.0
370
    15
100
AcDbLine
 10
46.4844417362
 20
90.5511733311
 30
0.0
 11
46.4844417362
 21
88.5511733311
 31
0.0
  0
ARC
  5
1F2
330
1F
100
AcDbEntity
  8
0
  6
Continuous
 62
     7
 48
100.0
370
    15
100
AcDbCircle
 10
47.4844417362
 20
90.5511733311
 30
0.0
 40
1.000000000000007
100
AcDbArc
 50
90.0
 51
180.0
  0
ARC
  5
1F3
330
1F
100
AcDbEntity
  8
0
  6
Continuous
 62
     7
 48
100.0
370
    15
100
AcDbCircle
 10
101.7344417362
 20
92.5511733311
 30
0.0
 40
1.000000000000001
100
AcDbArc
 50
210.0
 51
270.0
  0
ARC
  5
1F4
330
1F
100
AcDbEntity
  8
0
  6
Continuous
 62
     7
 48
100.0
370
    15
100
AcDbCircle
 10
53.7344417362
 20
92.5511733311
 30
0.0
 40
1.000000000000028
100
AcDbArc
 50
270.0
 51
330.0
  0
ARC
  5
1F5
330
1F
100
AcDbEntity
  8
0
  6
Continuous
 62
     7
 48
100.0
370
    15
100
AcDbCircle
 10
100.0023909286
 20
91.5511733311
 30
0.0
 40
1.000000000000021
100
AcDbArc
 50
30.0
 51
90.0
  0
ARC
  5
1F6
330
1F
100
AcDbEntity
  8
0
  6
Continuous
 62
     7
 48
100.0
370
    15
100
AcDbCircle
 10
55.4664925437
 20
91.5511733311
 30
0.0
 40
1.000000000000043
100
AcDbArc
 50
90.0
 51
150.0
  0
SPLINE
  5
1F7
330
1F
100
AcDbEntity
  8
0
  6
Continuous
 62
     7
 48
10.0
370
    15
100
AcDbSpline
210
0.0
220
0.0
230
1.0
 70
     8
 71
     3
 72
     9
 73
     5
 74
     0
 42
0.00000001
 43
0.00000001
 40
0.0
 40
0.0
 40
0.0
 40
0.0
 40
0.7158044826063842
 40
1.0
 40
1.0
 40
1.0
 40
1.0
 10
91.59716348338057
 20
92.06844307578778
 30
0.0
 10
91.5661183811947
 20
92.01311910163062
 30
0.0
 10
91.52274745667519
 20
91.93582987600895
 30
0.0
 10
91.45674324280536
 20
91.87776919042288
 30
0.0
 10
91.43798514109447
 20
91.86126860384255
 30
0.0
  0
SPLINE
  5
1F8
330
1F
100
AcDbEntity
  8
0
  6
Continuous
 62
     7
 48
10.0
370
    15
100
AcDbSpline
210
0.0
220
0.0
230
1.0
 70
     8
 71
     3
 72
     9
 73
     5
 74
     0
 42
0.00000001
 43
0.00000001
 40
0.0
 40
0.0
 40
0.0
 40
0.0
 40
0.3841030918408936
 40
0.9999999999999999
 40
0.9999999999999999
 40
0.9999999999999999
 40
0.9999999999999999
 10
64.04040476059261
 20
91.85784560598319
 30
0.0
 10
64.013306006976
 20
91.88003555878794
 30
0.0
 10
63.94275527673654
 20
91.9378063845795
 30
0.0
 10
63.90055731897337
 20
92.01929256574567
 30
0.0
 10
63.87456772725641
 20
92.06947965278358
 30
0.0
  0
ARC
  5
1F9
330
1F
100
AcDbEntity
  8
0
  6
Continuous
 62
     7
 48
100.0
370
    15
100
AcDbCircle
 10
92.4583336717
 20
91.551174712
 30
0.0
 40
0.9999986191049538
100
AcDbArc
 50
89.9995349687
 51
149.0142942434
  0
ARC
  5
1FA
330
1F
100
AcDbEntity
  8
0
  6
Continuous
 62
     7
 48
100.0
370
    15
100
AcDbCircle
 10
63.0105498006
 20
91.5511747112
 30
0.0
 40
0.9999986197824939
100
AcDbArc
 50
30.9494601911
 51
90.0207183086
  0
LINE
  5
1FB
330
1F
100
AcDbEntity
  8
0
  6
Continuous
 62
     7
 48
10.0
370
    15
100
AcDbLine
 10
68.8873647375
 20
105.9030282849
 30
0.0
 11
70.3873647375
 21
105.9030282849
 31
0.0
  0
LINE
  5
1FC
330
1F
100
AcDbEntity
  8
0
  6
Continuous
 62
     7
 48
10.0
370
    15
100
AcDbLine
 10
68.8873647375
 20
105.9030282849
 30
0.0
 11
68.8873647375
 21
106.5043064745
 31
0.0
  0
LINE
  5
1FD
330
1F
100
AcDbEntity
  8
0
  6
Continuous
 62
     7
 48
10.0
370
    15
100
AcDbLine
 10
68.8873647375
 20
106.5043064745
 30
0.0
 11
70.3873647375
 21
106.5043064745
 31
0.0
  0
LINE
  5
1FE
330
1F
100
AcDbEntity
  8
0
  6
Continuous
 62
     7
 48
10.0
370
    15
100
AcDbLine
 10
70.3873647375
 20
105.9030282849
 30
0.0
 11
70.3873647375
 21
106.5043064745
 31
0.0
  0
LINE
  5
1FF
330
1F
100
AcDbEntity
  8
0
  6
Continuous
 62
     7
 48
10.0
370
    15
100
AcDbLine
 10
68.8873647375
 20
106.5043064745
 30
0.0
 11
68.8873647375
 21
115.9887173262
 31
0.0
  0
LINE
  5
200
330
1F
100
AcDbEntity
  8
0
  6
Continuous
 62
     7
 48
10.0
370
    15
100
AcDbLine
 10
68.8873647375
 20
115.9887173262
 30
0.0
 11
70.3873647375
 21
115.9887173262
 31
0.0
  0
LINE
  5
201
330
1F
100
AcDbEntity
  8
0
  6
Continuous
 62
     7
 48
10.0
370
    15
100
AcDbLine
 10
70.3873647375
 20
106.5043064745
 30
0.0
 11
70.3873647375
 21
115.9887173262
 31
0.0
  0
LINE
  5
202
330
1F
100
AcDbEntity
  8
0
  6
Continuous
 62
     7
 48
10.0
370
    15
100
AcDbLine
 10
87.0815187348
 20
116.9458728055
 30
0.0
 11
87.0815187348
 21
104.9458728055
 31
0.0
  0
LINE
  5
203
330
1F
100
AcDbEntity
  8
0
  6
Continuous
 62
     7
 48
10.0
370
    15
100
AcDbLine
 10
85.0815187348
 20
116.9458728055
 30
0.0
 11
85.0815187348
 21
104.9458728055
 31
0.0
  0
LINE
  5
204
330
1F
100
AcDbEntity
  8
0
  6
Continuous
 62
     7
 48
10.0
370
    15
100
AcDbLine
 10
60.0815187348
 20
114.1458728055
 30
0.0
 11
60.0815187348
 21
107.7458728055
 31
0.0
  0
ARC
  5
205
330
1F
100
AcDbEntity
  8
0
  6
Continuous
 62
     7
 48
100.0
370
    15
100
AcDbCircle
 10
77.7344417362
 20
162.9458728055
 30
0.0
 40
43.00000000000018
100
AcDbArc
 50
279.3742316029
 51
260.6257683971
  0
LINE
  5
206
330
1F
100
AcDbEntity
  8
0
  6
Continuous
 62
     7
 48
10.0
370
    15
100
AcDbLine
 10
84.7383781185
 20
120.5201155919
 30
0.0
 11
84.575495877
 21
121.5067611085
 31
0.0
  0
ARC
  5
207
330
1F
100
AcDbEntity
  8
0
  6
Continuous
 62
     7
 48
100.0
370
    15
100
AcDbCircle
 10
77.7344417362
 20
162.9458728055
 30
0.0
 40
42.00000000000015
100
AcDbArc
 50
279.3742316029
 51
260.6257683971
  0
LINE
  5
208
330
1F
100
AcDbEntity
  8
0
  6
Continuous
 62
     7
 48
10.0
370
    15
100
AcDbLine
 10
70.7305053539
 20
120.5201155919
 30
0.0
 11
70.8933875954
 21
121.5067611085
 31
0.0
  0
ARC
  5
209
330
1F
100
AcDbEntity
  8
0
  6
Continuous
 62
     7
 48
100.0
370
    15
100
AcDbCircle
 10
83.8369938296
 20
120.3811120527
 30
0.0
 40
3.000000000000047
100
AcDbArc
 50
98.158952994
 51
184.1583230325
  0
ARC
  5
20A
330
1F
100
AcDbEntity
  8
0
  6
Continuous
 62
     7
 48
100.0
370
    15
100
AcDbCircle
 10
77.7344417362
 20
162.9458728055
 30
0.0
 40
40.00000000000009
100
AcDbArc
 50
278.158952994
 51
261.841047006
  0
ARC
  5
20B
330
1F
100
AcDbEntity
  8
0
  6
Continuous
 62
     7
 48
100.0
370
    15
100
AcDbCircle
 10
71.6318896427
 20
120.3811120527
 30
0.0
 40
3.000000000000117
100
AcDbArc
 50
355.8416769675
 51
81.841047006
  0
LINE
  5
20C
330
1F
100
AcDbEntity
  8
0
  6
Continuous
 62
     7
 48
10.0
370
    15
100
AcDbLine
 10
74.6239921033
 20
120.1635738598
 30
0.0
 11
73.8955369492
 21
110.1441265613
 31
0.0
  0
ARC
  5
20D
330
1F
100
AcDbEntity
  8
0
  6
Continuous
 62
     7
 48
100.0
370
    15
100
AcDbCircle
 10
70.5676231125
 20
119.5334700753
 30
0.0
 40
2.000000000000029
100
AcDbArc
 50
355.8416769675
 51
80.6257683971
  0
ARC
  5
20E
330
1F
100
AcDbEntity
  8
0
  6
Continuous
 62
     7
 48
100.0
370
    15
100
AcDbCircle
 10
84.9012603599
 20
119.5334700753
 30
0.0
 40
2.000000000000011
100
AcDbArc
 50
99.3742316029
 51
184.1583230325
  0
LINE
  5
20F
330
1F
100
AcDbEntity
  8
0
  6
Continuous
 62
     7
 48
10.0
370
    15
100
AcDbLine
 10
81.5733465231
 20
110.1441265613
 30
0.0
 11
80.844891369
 21
120.1635738598
 31
0.0
  0
LINE
  5
210
330
1F
100
AcDbEntity
  8
0
  6
Continuous
 62
     7
 48
10.0
370
    15
100
AcDbLine
 10
83.903892873
 20
119.4609573443
 30
0.0
 11
85.0703028511
 21
103.4177139981
 31
0.0
  0
LINE
  5
211
330
1F
100
AcDbEntity
  8
0
  6
Continuous
 62
     7
 48
10.0
370
    15
100
AcDbLine
 10
83.903892873
 20
119.4609573443
 30
0.0
 11
82.9065253862
 21
119.3884446133
 31
0.0
  0
ARC
  5
212
330
1F
100
AcDbEntity
  8
0
  6
Continuous
 62
     7
 48
100.0
370
    15
100
AcDbCircle
 10
84.9012603599
 20
119.5334700753
 30
0.0
 40
1.000000000000093
100
AcDbArc
 50
99.3742316029
 51
184.1583230325
  0
ARC
  5
213
330
1F
100
AcDbEntity
  8
0
  6
Continuous
 62
     7
 48
100.0
370
    15
100
AcDbCircle
 10
70.5676231125
 20
119.5334700753
 30
0.0
 40
1.000000000000008
100
AcDbArc
 50
355.8416769675
 51
80.6257683971
  0
LINE
  5
214
330
1F
100
AcDbEntity
  8
0
  6
Continuous
 62
     7
 48
10.0
370
    15
100
AcDbLine
 10
71.5649905993
 20
119.4609573443
 30
0.0
 11
72.5623580862
 21
119.3884446133
 31
0.0
  0
LINE
  5
215
330
1F
100
AcDbEntity
  8
0
  6
Continuous
 62
     7
 48
10.0
370
    15
100
AcDbLine
 10
70.3985806212
 20
103.4177139981
 30
0.0
 11
71.5649905993
 21
119.4609573443
 31
0.0
  0
LINE
  5
216
330
1F
100
AcDbEntity
  8
0
  6
Continuous
 62
     7
 48
10.0
370
    15
100
AcDbLine
 10
96.4844417362
 20
90.5511733311
 30
0.0
 11
96.4844417362
 21
91.5511733311
 31
0.0
  0
LINE
  5
217
330
1F
100
AcDbEntity
  8
0
  6
Continuous
 62
     7
 48
10.0
370
    15
100
AcDbLine
 10
96.4844417362
 20
91.5511733311
 30
0.0
 11
107.9844417362
 21
91.5511733311
 31
0.0
  0
LINE
  5
218
330
1F
100
AcDbEntity
  8
0
  6
Continuous
 62
     7
 48
10.0
370
    15
100
AcDbLine
 10
108.9844417362
 20
88.5511733311
 30
0.0
 11
96.4844417362
 21
88.5511733311
 31
0.0
  0
LINE
  5
219
330
1F
100
AcDbEntity
  8
0
  6
Continuous
 62
     7
 48
10.0
370
    15
100
AcDbLine
 10
96.4844417362
 20
88.5511733311
 30
0.0
 11
96.4844417362
 21
90.5511733311
 31
0.0
  0
LINE
  5
21A
330
1F
100
AcDbEntity
  8
0
  6
Continuous
 62
     7
 48
10.0
370
    15
100
AcDbLine
 10
96.4844417362
 20
90.5511733311
 30
0.0
 11
92.4538962059
 21
90.5511733311
 31
0.0
  0
LINE
  5
21B
330
1F
100
AcDbEntity
  8
0
  6
Continuous
 62
     7
 48
10.0
370
    15
100
AcDbLine
 10
92.4538962059
 20
90.5511733311
 30
0.0
 11
92.4538962059
 21
91.5511733311
 31
0.0
  0
LINE
  5
21C
330
1F
100
AcDbEntity
  8
0
  6
Continuous
 62
     7
 48
10.0
370
    15
100
AcDbLine
 10
92.4538962059
 20
91.5511733311
 30
0.0
 11
96.4844417362
 21
91.5511733311
 31
0.0
  0
LINE
  5
21D
330
1F
100
AcDbEntity
  8
0
  6
Continuous
 62
     7
 48
10.0
370
    15
100
AcDbLine
 10
79.6260042643
 20
112.2977557934
 30
0.0
 11
79.1400638178
 21
121.0511733311
 31
0.0
  0
ARC
  5
21E
330
1F
100
AcDbEntity
  8
0
  6
Continuous
 62
     7
 48
100.0
370
    15
100
AcDbCircle
 10
82.6213921543
 20
112.4640428605
 30
0.0
 40
3.000000000000037
100
AcDbArc
 50
183.1774775293
 51
207.469213517
  0
LINE
  5
21F
330
1F
100
AcDbEntity
  8
0
  6
Continuous
 62
     7
 48
10.0
370
    15
100
AcDbLine
 10
89.7921197627
 20
92.1673575319
 30
0.0
 11
79.959615711
 21
111.0802270613
 31
0.0
  0
ARC
  5
220
330
1F
100
AcDbEntity
  8
0
  6
Continuous
 62
     7
 48
100.0
370
    15
100
AcDbCircle
 10
92.4538962059
 20
93.5511733311
 30
0.0
 40
3.000000000000142
100
AcDbArc
 50
207.469213517
 51
270.0
  0
LINE
  5
221
330
1F
100
AcDbEntity
  8
0
  6
Continuous
 62
     7
 48
10.0
370
    15
100
AcDbLine
 10
58.9844417362
 20
90.5511733311
 30
0.0
 11
58.9844417362
 21
88.5511733311
 31
0.0
  0
LINE
  5
222
330
1F
100
AcDbEntity
  8
0
  6
Continuous
 62
     7
 48
10.0
370
    15
100
AcDbLine
 10
63.0149872664
 20
90.5511733311
 30
0.0
 11
58.9844417362
 21
90.5511733311
 31
0.0
  0
ARC
  5
223
330
1F
100
AcDbEntity
  8
0
  6
Continuous
 62
     7
 48
100.0
370
    15
100
AcDbCircle
 10
63.0149872664
 20
93.5511733311
 30
0.0
 40
3.000000000000057
100
AcDbArc
 50
270.0
 51
332.530786483
  0
LINE
  5
224
330
1F
100
AcDbEntity
  8
0
  6
Continuous
 62
     7
 48
10.0
370
    15
100
AcDbLine
 10
75.5092677614
 20
111.0802270613
 30
0.0
 11
65.6767637097
 21
92.1673575319
 31
0.0
  0
ARC
  5
225
330
1F
100
AcDbEntity
  8
0
  6
Continuous
 62
     7
 48
100.0
370
    15
100
AcDbCircle
 10
72.8474913181
 20
112.4640428605
 30
0.0
 40
2.999999999999999
100
AcDbArc
 50
332.530786483
 51
356.8225224708
  0
LINE
  5
226
330
1F
100
AcDbEntity
  8
0
  6
Continuous
 62
     7
 48
10.0
370
    15
100
AcDbLine
 10
76.3288196546
 20
121.0511733311
 30
0.0
 11
75.8428792081
 21
112.2977557934
 31
0.0
  0
LINE
  5
227
330
1F
100
AcDbEntity
  8
0
  6
Continuous
 62
     7
 48
10.0
370
    15
100
AcDbLine
 10
79.1400638178
 20
121.0511733311
 30
0.0
 11
76.3288196546
 21
121.0511733311
 31
0.0
  0
LINE
  5
228
330
1F
100
AcDbEntity
  8
0
  6
Continuous
 62
     7
 48
10.0
370
    15
100
AcDbLine
 10
96.4844417362
 20
88.5511733311
 30
0.0
 11
58.9844417362
 21
88.5511733311
 31
0.0
  0
LINE
  5
229
330
1F
100
AcDbEntity
  8
0
  6
Continuous
 62
     7
 48
10.0
370
    15
100
AcDbLine
 10
90.6793785771
 20
92.6286294649
 30
0.0
 11
89.7921197627
 21
92.1673575319
 31
0.0
  0
ARC
  5
22A
330
1F
100
AcDbEntity
  8
0
  6
Continuous
 62
     7
 48
100.0
370
    15
100
AcDbCircle
 10
92.4538962059
 20
93.5511733311
 30
0.0
 40
2.000000000000142
100
AcDbArc
 50
207.469213517
 51
270.0
  0
LINE
  5
22B
330
1F
100
AcDbEntity
  8
0
  6
Continuous
 62
     7
 48
10.0
370
    15
100
AcDbLine
 10
80.8468745254
 20
111.5414989943
 30
0.0
 11
90.6793785771
 21
92.6286294649
 31
0.0
  0
LINE
  5
22C
330
1F
100
AcDbEntity
  8
0
  6
Continuous
 62
     7
 48
10.0
370
    15
100
AcDbLine
 10
80.8468745254
 20
111.5414989943
 30
0.0
 11
79.959615711
 21
111.0802270613
 31
0.0
  0
ARC
  5
22D
330
1F
100
AcDbEntity
  8
0
  6
Continuous
 62
     7
 48
100.0
370
    15
100
AcDbCircle
 10
82.6213921543
 20
112.4640428605
 30
0.0
 40
2.00000000000002
100
AcDbArc
 50
183.1774775293
 51
207.469213517
  0
LINE
  5
22E
330
1F
100
AcDbEntity
  8
0
  6
Continuous
 62
     7
 48
10.0
370
    15
100
AcDbLine
 10
80.6244668943
 20
112.3531848158
 30
0.0
 11
79.6260042643
 21
112.2977557934
 31
0.0
  0
LINE
  5
22F
330
1F
100
AcDbEntity
  8
0
  6
Continuous
 62
     7
 48
10.0
370
    15
100
AcDbLine
 10
80.1385264477
 20
121.1066023534
 30
0.0
 11
80.6244668943
 21
112.3531848158
 31
0.0
  0
LINE
  5
230
330
1F
100
AcDbEntity
  8
0
  6
Continuous
 62
     7
 48
10.0
370
    15
100
AcDbLine
 10
80.1385264477
 20
121.1066023534
 30
0.0
 11
79.1400638178
 21
121.0511733311
 31
0.0
  0
LINE
  5
231
330
1F
100
AcDbEntity
  8
0
  6
Continuous
 62
     7
 48
10.0
370
    15
100
AcDbLine
 10
80.0830120793
 20
122.1066023534
 30
0.0
 11
80.1385264477
 21
121.1066023534
 31
0.0
  0
LINE
  5
232
330
1F
100
AcDbEntity
  8
0
  6
Continuous
 62
     7
 48
10.0
370
    15
100
AcDbLine
 10
79.1400638178
 20
121.0511733311
 30
0.0
 11
79.0845494493
 21
123.0511733311
 31
0.0
  0
ARC
  5
233
330
1F
100
AcDbEntity
  8
0
  6
Continuous
 62
     7
 48
100.0
370
    15
100
AcDbCircle
 10
79.0845494493
 20
122.0511733311
 30
0.0
 40
1.00000000000001
100
AcDbArc
 50
3.1774775292
 51
90.0
  0
LINE
  5
234
330
1F
100
AcDbEntity
  8
0
  6
Continuous
 62
     7
 48
10.0
370
    15
100
AcDbLine
 10
76.3843340231
 20
123.0511733311
 30
0.0
 11
76.3288196546
 21
121.0511733311
 31
0.0
  0
LINE
  5
235
330
1F
100
AcDbEntity
  8
0
  6
Continuous
 62
     7
 48
10.0
370
    15
100
AcDbLine
 10
76.3843340231
 20
123.0511733311
 30
0.0
 11
79.0845494493
 21
123.0511733311
 31
0.0
  0
LINE
  5
236
330
1F
100
AcDbEntity
  8
0
  6
Continuous
 62
     7
 48
10.0
370
    15
100
AcDbLine
 10
76.3288196546
 20
121.0511733311
 30
0.0
 11
75.3303570246
 21
121.1066023534
 31
0.0
  0
LINE
  5
237
330
1F
100
AcDbEntity
  8
0
  6
Continuous
 62
     7
 48
10.0
370
    15
100
AcDbLine
 10
75.3303570246
 20
121.1066023534
 30
0.0
 11
75.3858713931
 21
122.1066023534
 31
0.0
  0
ARC
  5
238
330
1F
100
AcDbEntity
  8
0
  6
Continuous
 62
     7
 48
100.0
370
    15
100
AcDbCircle
 10
76.3843340231
 20
122.0511733311
 30
0.0
 40
1.0
100
AcDbArc
 50
90.0
 51
176.8225224707
  0
LINE
  5
239
330
1F
100
AcDbEntity
  8
0
  6
Continuous
 62
     7
 48
10.0
370
    15
100
AcDbLine
 10
75.8428792081
 20
112.2977557934
 30
0.0
 11
74.8444165781
 21
112.3531848158
 31
0.0
  0
LINE
  5
23A
330
1F
100
AcDbEntity
  8
0
  6
Continuous
 62
     7
 48
10.0
370
    15
100
AcDbLine
 10
74.8444165781
 20
112.3531848158
 30
0.0
 11
75.3303570246
 21
121.1066023534
 31
0.0
  0
LINE
  5
23B
330
1F
100
AcDbEntity
  8
0
  6
Continuous
 62
     7
 48
10.0
370
    15
100
AcDbLine
 10
74.6220089469
 20
111.5414989943
 30
0.0
 11
75.5092677614
 21
111.0802270613
 31
0.0
  0
ARC
  5
23C
330
1F
100
AcDbEntity
  8
0
  6
Continuous
 62
     7
 48
100.0
370
    15
100
AcDbCircle
 10
72.8474913181
 20
112.4640428605
 30
0.0
 40
1.999999999999989
100
AcDbArc
 50
332.530786483
 51
356.8225224708
  0
LINE
  5
23D
330
1F
100
AcDbEntity
  8
0
  6
Continuous
 62
     7
 48
10.0
370
    15
100
AcDbLine
 10
64.7895048953
 20
92.6286294649
 30
0.0
 11
74.6220089469
 21
111.5414989943
 31
0.0
  0
LINE
  5
23E
330
1F
100
AcDbEntity
  8
0
  6
Continuous
 62
     7
 48
10.0
370
    15
100
AcDbLine
 10
64.7895048953
 20
92.6286294649
 30
0.0
 11
65.6767637097
 21
92.1673575319
 31
0.0
  0
LINE
  5
23F
330
1F
100
AcDbEntity
  8
0
  6
Continuous
 62
     7
 48
10.0
370
    15
100
AcDbLine
 10
58.9844417362
 20
88.5511733311
 30
0.0
 11
46.4844417362
 21
88.5511733311
 31
0.0
  0
LINE
  5
240
330
1F
100
AcDbEntity
  8
0
  6
Continuous
 62
     7
 48
10.0
370
    15
100
AcDbLine
 10
47.4844417362
 20
91.5511733311
 30
0.0
 11
58.9844417362
 21
91.5511733311
 31
0.0
  0
LINE
  5
241
330
1F
100
AcDbEntity
  8
0
  6
Continuous
 62
     7
 48
10.0
370
    15
100
AcDbLine
 10
58.9844417362
 20
91.5511733311
 30
0.0
 11
58.9844417362
 21
90.5511733311
 31
0.0
  0
ARC
  5
242
330
1F
100
AcDbEntity
  8
0
  6
Continuous
 62
     7
 48
100.0
370
    15
100
AcDbCircle
 10
63.0149872664
 20
93.5511733311
 30
0.0
 40
1.999999999999988
100
AcDbArc
 50
270.0
 51
332.530786483
  0
LINE
  5
243
330
1F
100
AcDbEntity
  8
0
  6
Continuous
 62
     7
 48
10.0
370
    15
100
AcDbLine
 10
63.0149872664
 20
91.5511733311
 30
0.0
 11
63.0149872664
 21
90.5511733311
 31
0.0
  0
LINE
  5
244
330
1F
100
AcDbEntity
  8
0
  6
Continuous
 62
     7
 48
10.0
370
    15
100
AcDbLine
 10
58.9844417362
 20
91.5511733311
 30
0.0
 11
63.0149872664
 21
91.5511733311
 31
0.0
  0
LINE
  5
245
330
1F
100
AcDbEntity
  8
0
  6
Continuous
 62
     7
 48
10.0
370
    15
100
AcDbLine
 10
92.8125200173
 20
92.5511733311
 30
0.0
 11
100.0023909286
 21
92.5511733311
 31
0.0
  0
ARC
  5
246
330
1F
100
AcDbEntity
  8
0
  6
Continuous
 62
     7
 48
100.0
370
    15
100
AcDbCircle
 10
92.8307245459
 20
91.6539642851
 30
0.0
 40
0.897393713470964
100
AcDbArc
 50
91.1623819035
 51
153.7285022827
  0
LINE
  5
247
330
1F
100
AcDbEntity
  8
0
  6
Continuous
 62
     7
 48
10.0
370
    15
100
AcDbLine
 10
55.4664925437
 20
92.5511733311
 30
0.0
 11
62.6563634551
 21
92.5511733311
 31
0.0
  0
ARC
  5
248
330
1F
100
AcDbEntity
  8
0
  6
Continuous
 62
     7
 48
100.0
370
    15
100
AcDbCircle
 10
62.6381589264
 20
91.6539642851
 30
0.0
 40
0.8973937134713235
100
AcDbArc
 50
26.2714977173
 51
88.8376180964
  0
SPLINE
  5
249
330
1F
100
AcDbEntity
  8
0
  6
Continuous
 62
     7
 48
10.0
370
    15
100
AcDbSpline
210
0.0
220
0.0
230
1.0
 70
    24
 71
     3
 72
    10
 73
     6
 74
     0
 42
0.00000001
 43
0.00000001
 40
0.0
 40
0.0
 40
0.0
 40
0.0
 40
0.1966195134507662
 40
0.5922589871286782
 40
0.9999999999999999
 40
0.9999999999999999
 40
0.9999999999999999
 40
0.9999999999999999
 10
92.47319587779936
 20
92.55117333106625
 30
0.0
 10
92.47048400807226
 20
92.55117333106627
 30
0.0
 10
92.4623152907888
 20
92.55117333106627
 30
0.0
 10
92.56932148707179
 20
92.55117333106622
 30
0.0
 10
92.73064382640595
 20
92.55117333106634
 30
0.0
 10
92.81252001725224
 20
92.5511733310664
 30
0.0
  0
SPLINE
  5
24A
330
1F
100
AcDbEntity
  8
0
  6
Continuous
 62
     7
 48
10.0
370
    15
100
AcDbSpline
210
0.0
220
0.0
230
1.0
 70
    24
 71
     3
 72
    10
 73
     6
 74
     0
 42
0.00000001
 43
0.00000001
 40
0.0
 40
0.0
 40
0.0
 40
0.0
 40
0.4059694233054211
 40
0.7944552669710419
 40
1.0
 40
1.0
 40
1.0
 40
1.0
 10
62.65636345510908
 20
92.55117333106632
 30
0.0
 10
62.73847765057311
 20
92.5511733310664
 30
0.0
 10
62.89916969124044
 20
92.5511733310665
 30
0.0
 10
63.00648857069898
 20
92.55117333106638
 30
0.0
 10
62.99846417306615
 20
92.55117333106632
 30
0.0
 10
62.99568759432785
 20
92.55117333106634
 30
0.0
  0
LINE
  5
24B
330
1F
100
AcDbEntity
  8
0
  6
Continuous
 62
     8
 48
10.0
370
    15
100
AcDbLine
 10
72.5623580862
 20
119.3884446133
 30
0.0
 11
71.5642327306
 21
105.6598515191
 31
0.0
  0
LINE
  5
24C
330
1F
100
AcDbEntity
  8
0
  6
Continuous
 62
     8
 48
10.0
370
    15
100
AcDbLine
 10
83.9046507418
 20
105.6598515191
 30
0.0
 11
82.9065253862
 21
119.3884446133
 31
0.0
  0
LINE
  5
24D
330
1F
100
AcDbEntity
  8
0
  6
Continuous
 62
     8
 48
10.0
370
    15
100
AcDbLine
 10
108.9844417362
 20
90.5511733311
 30
0.0
 11
96.4844417362
 21
90.5511733311
 31
0.0
  0
LINE
  5
24E
330
1F
100
AcDbEntity
  8
0
  6
Continuous
 62
     8
 48
10.0
370
    15
100
AcDbLine
 10
58.9844417362
 20
90.5511733311
 30
0.0
 11
46.4844417362
 21
90.5511733311
 31
0.0
  0
ARC
  5
24F
330
1F
100
AcDbEntity
  8
0
  6
Continuous
 62
     8
 48
100.0
370
    15
100
AcDbCircle
 10
91.1721524084
 20
92.4923622461
 30
0.0
 40
0.9611175918704624
100
AcDbArc
 50
303.9509144209
 51
332.6749902545
  0
LINE
  5
250
330
1F
100
AcDbEntity
  8
0
  6
Continuous
 62
     8
 48
10.0
370
    15
100
AcDbLine
 10
100.8684163324
 20
92.0511733311
 30
0.0
 11
92.0260255644
 21
92.0511733311
 31
0.0
  0
LINE
  5
251
330
1F
100
AcDbEntity
  8
0
  6
Continuous
 62
     8
 48
10.0
370
    15
100
AcDbLine
 10
63.4428579079
 20
92.0511733311
 30
0.0
 11
54.60046714
 21
92.0511733311
 31
0.0
  0
ARC
  5
252
330
1F
100
AcDbEntity
  8
0
  6
Continuous
 62
     8
 48
100.0
370
    15
100
AcDbCircle
 10
64.296731064
 20
92.4923622461
 30
0.0
 40
0.9611175918715394
100
AcDbArc
 50
207.3250097455
 51
236.049085579
  0
SPLINE
  5
253
330
1F
100
AcDbEntity
  8
0
  6
Continuous
 62
     8
 48
10.0
370
    15
100
AcDbSpline
210
0.0
220
0.0
230
1.0
 70
     8
 71
     3
 72
    10
 73
     6
 74
     0
 42
0.00000001
 43
0.00000001
 40
0.0
 40
0.0
 40
0.0
 40
0.0
 40
0.3913496863360161
 40
0.7941681863061667
 40
1.0
 40
1.0
 40
1.0
 40
1.0
 10
92.02602556443249
 20
92.0511733310664
 30
0.0
 10
91.92941995636606
 20
92.05190403113029
 30
0.0
 10
91.73337763609895
 20
92.05338684500431
 30
0.0
 10
91.60319482254012
 20
92.05809634470285
 30
0.0
 10
91.61063118207916
 20
92.05781575433143
 30
0.0
 10
91.61314599121806
 20
92.05772086499388
 30
0.0
  0
SPLINE
  5
254
330
1F
100
AcDbEntity
  8
0
  6
Continuous
 62
     8
 48
10.0
370
    15
100
AcDbSpline
210
0.0
220
0.0
230
1.0
 70
     8
 71
     3
 72
    10
 73
     6
 74
     0
 42
0.00000001
 43
0.00000001
 40
0.0
 40
0.0
 40
0.0
 40
0.0
 40
0.1794730671186676
 40
0.5830625061011684
 40
1.0
 40
1.0
 40
1.0
 40
1.0
 10
63.85580856121135
 20
92.05772312367058
 30
0.0
 10
63.85912631858054
 20
92.0578425282217
 30
0.0
 10
63.86990487135937
 20
92.05823044334416
 30
0.0
 10
63.74558820787246
 20
92.05359891517625
 30
0.0
 10
63.54485648651817
 20
92.05199058038535
 30
0.0
 10
63.44285790792969
 20
92.05117333106641
 30
0.0
  0
DIMENSION
  5
255
330
1F
100
AcDbEntity
  8
SLD-0
 48
10.0
100
AcDbDimension
  2
*D5
 10
24.7344417362
 20
205.9458728055
 30
0.0
 11
24.7344417362
 21
142.1799348971
 31
0.0
 70
   160
 71
     2
 42
-1.0
 73
     0
 74
     0
 75
     0
  3
SLDDIMSTYLE0
100
AcDbAlignedDimension
 13
46.4844417362
 23
88.5511733311
 33
0.0
 14
77.7344417362
 24
205.9458728055
 34
0.0
 50
90.0
100
AcDbRotatedDimension
  0
DIMENSION
  5
25F
330
1F
100
AcDbEntity
  8
SLD-0
 48
10.0
100
AcDbDimension
  2
*D6
 10
108.9844417362
 20
72.5511733311
 30
0.0
 11
77.7808752642
 21
72.5511733311
 31
0.0
 70
   160
 71
     2
 42
-1.0
 73
     0
 74
     0
 75
     0
  3
SLDDIMSTYLE1
100
AcDbAlignedDimension
 13
46.4844417362
 23
88.5511733311
 33
0.0
 14
108.9844417362
 24
88.5511733311
 34
0.0
 50
0.0
100
AcDbRotatedDimension
  0
DIMENSION
  5
26A
330
1F
100
AcDbEntity
  8
SLD-0
 48
10.0
100
AcDbDimension
  2
*D7
 10
96.4844417362
 20
82.9642770977
 30
0.0
 11
77.7808752642
 21
82.9642770977
 31
0.0
 70
   160
 71
     2
 42
-1.0
 73
     0
 74
     0
 75
     0
  3
SLDDIMSTYLE1
100
AcDbAlignedDimension
 13
58.9844417362
 23
88.5511733311
 33
0.0
 14
96.4844417362
 24
88.5511733311
 34
0.0
 50
0.0
100
AcDbRotatedDimension
  0
ENDSEC
  0
SECTION
  2
OBJECTS
  0
DICTIONARY
  5
C
330
0
100
AcDbDictionary
281
     1
  3
ACAD_GROUP
350
D
  3
ACAD_IMAGE_DICT
350
73
  3
ACAD_IMAGE_VARS
350
298
  3
ACAD_LAYOUT
350
1A
  3
ACAD_MATERIAL
350
3B
  3
ACAD_MLEADERSTYLE
350
297
  3
ACAD_MLINESTYLE
350
17
  3
ACAD_PLOTSETTINGS
350
19
  3
ACAD_PLOTSTYLENAME
350
E
  3
ACAD_SCALELIST
350
4A
  3
ACAD_TABLESTYLE
350
296
  3
ACAD_VISUALSTYLE
350
2A
  3
AcDbVariableDictionary
350
274
  0
IMAGEDEF_REACTOR
  5
76
330
75
100
AcDbRasterImageDefReactor
 90
        2
330
75
  0
DICTIONARY
  5
D
102
{ACAD_REACTORS
330
C
102
}
330
C
100
AcDbDictionary
281
     1
  0
DICTIONARY
  5
73
102
{ACAD_REACTORS
330
C
102
}
330
C
100
AcDbDictionary
281
     1
  3
S:\MWDesign CLIENT L -Z\Marley NZ\RAINWATER PRODUCTS\12-501 illustration of rainwater products\12-501 Illustration\dxf2E7.bmp
350
74
  0
RASTERVARIABLES
  5
298
102
{ACAD_REACTORS
330
C
102
}
330
C
100
AcDbRasterVariables
 90
        0
 70
     1
 71
     1
 72
     1
  0
DICTIONARY
  5
1A
102
{ACAD_REACTORS
330
C
102
}
330
C
100
AcDbDictionary
281
     1
  3
Layout1
350
1E
  3
Layout2
350
26
  3
Model
350
22
  0
DICTIONARY
  5
3B
102
{ACAD_REACTORS
330
C
102
}
330
C
100
AcDbDictionary
281
     1
  3
ByBlock
350
3D
  3
ByLayer
350
3C
  3
Global
350
3E
  0
DICTIONARY
  5
297
102
{ACAD_REACTORS
330
C
102
}
330
C
100
AcDbDictionary
281
     1
  0
DICTIONARY
  5
17
102
{ACAD_REACTORS
330
C
102
}
330
C
100
AcDbDictionary
281
     1
  3
Standard
350
18
  0
DICTIONARY
  5
19
102
{ACAD_REACTORS
330
C
102
}
330
C
100
AcDbDictionary
281
     1
  0
ACDBDICTIONARYWDFLT
  5
E
102
{ACAD_REACTORS
330
C
102
}
330
C
100
AcDbDictionary
281
     1
  3
Normal
350
F
100
AcDbDictionaryWithDefault
340
F
  0
DICTIONARY
  5
4A
102
{ACAD_REACTORS
330
C
102
}
330
C
100
AcDbDictionary
281
     1
  3
A0
350
4B
  3
A1
350
4C
  3
A2
350
4D
  3
A3
350
4E
  3
A4
350
4F
  3
A5
350
50
  3
A6
350
51
  3
A7
350
52
  3
A8
350
53
  3
A9
350
54
  3
B0
350
55
  3
B1
350
56
  3
B2
350
57
  3
B3
350
58
  3
B4
350
59
  3
B5
350
5A
  3
B6
350
5B
  3
B7
350
5C
  3
B8
350
5D
  3
B9
350
5E
  3
C0
350
5F
  3
C1
350
60
  3
C2
350
61
  3
C3
350
62
  3
C4
350
63
  3
C5
350
64
  3
C6
350
65
  3
C7
350
66
  3
C8
350
67
  3
C9
350
68
  3
D0
350
69
  3
D1
350
6A
  3
D2
350
6B
  0
DICTIONARY
  5
296
102
{ACAD_REACTORS
330
C
102
}
330
C
100
AcDbDictionary
281
     1
  0
DICTIONARY
  5
2A
102
{ACAD_REACTORS
330
C
102
}
330
C
100
AcDbDictionary
281
     1
  3
2dWireframe
350
2F
  3
3D Hidden
350
31
  3
3dWireframe
350
30
  3
Basic
350
32
  3
Brighten
350
36
  3
ColorChange
350
3A
  3
Conceptual
350
34
  3
Dim
350
35
  3
Facepattern
350
39
  3
Flat
350
2B
  3
FlatWithEdges
350
2C
  3
Gouraud
350
2D
  3
GouraudWithEdges
350
2E
  3
Linepattern
350
38
  3
Realistic
350
33
  3
Thicken
350
37
  0
DICTIONARY
  5
274
102
{ACAD_REACTORS
330
C
102
}
330
C
100
AcDbDictionary
281
     1
  3
CANNOSCALE
350
275
  0
IMAGEDEF
  5
74
102
{ACAD_REACTORS
330
73
330
76
102
}
330
73
100
AcDbRasterImageDef
 90
        0
  1
S:\MWDesign CLIENT L -Z\Marley NZ\RAINWATER PRODUCTS\12-501 illustration of rainwater products\12-501 Illustration\dxf2E7.bmp
 10
394.0
 20
64.0
 11
0.2645502645502645
 21
0.2645502645502645
280
     1
281
     3
  0
LAYOUT
  5
1E
102
{ACAD_REACTORS
330
1A
102
}
330
1A
100
AcDbPlotSettings
  1

  2
none_device
  4

  6

 40
0.0
 41
0.0
 42
0.0
 43
0.0
 44
0.0
 45
0.0
 46
0.0
 47
0.0
 48
0.0
 49
0.0
140
0.0
141
0.0
142
1.0
143
1.0
 70
   688
 72
     0
 73
     0
 74
     5
  7

 75
    16
 76
     0
 77
     2
 78
   300
147
1.0
148
0.0
149
0.0
100
AcDbLayout
  1
Layout1
 70
     1
 71
     1
 10
0.0
 20
0.0
 11
420.0
 21
297.0
 12
0.0
 22
0.0
 32
0.0
 14
1.0000000000E+20
 24
1.0000000000E+20
 34
1.0000000000E+20
 15
-1.0000000000E+20
 25
-1.0000000000E+20
 35
-1.0000000000E+20
146
0.0
 13
0.0
 23
0.0
 33
0.0
 16
1.0
 26
0.0
 36
0.0
 17
0.0
 27
1.0
 37
0.0
 76
     0
330
1B
  0
LAYOUT
  5
26
102
{ACAD_REACTORS
330
1A
102
}
330
1A
100
AcDbPlotSettings
  1

  2
none_device
  4

  6

 40
0.0
 41
0.0
 42
0.0
 43
0.0
 44
0.0
 45
0.0
 46
0.0
 47
0.0
 48
0.0
 49
0.0
140
0.0
141
0.0
142
1.0
143
1.0
 70
   688
 72
     0
 73
     0
 74
     5
  7

 75
    16
 76
     0
 77
     2
 78
   300
147
1.0
148
0.0
149
0.0
100
AcDbLayout
  1
Layout2
 70
     1
 71
     2
 10
0.0
 20
0.0
 11
0.0
 21
0.0
 12
0.0
 22
0.0
 32
0.0
 14
0.0
 24
0.0
 34
0.0
 15
0.0
 25
0.0
 35
0.0
146
0.0
 13
0.0
 23
0.0
 33
0.0
 16
1.0
 26
0.0
 36
0.0
 17
0.0
 27
1.0
 37
0.0
 76
     0
330
23
  0
LAYOUT
  5
22
102
{ACAD_REACTORS
330
1A
102
}
330
1A
100
AcDbPlotSettings
  1

  2
none_device
  4

  6

 40
0.0
 41
0.0
 42
0.0
 43
0.0
 44
0.0
 45
0.0
 46
0.0
 47
0.0
 48
0.0
 49
0.0
140
0.0
141
0.0
142
1.0
143
1.0
 70
  1712
 72
     0
 73
     0
 74
     0
  7

 75
     0
 76
     0
 77
     2
 78
   300
147
1.0
148
0.0
149
0.0
100
AcDbLayout
  1
Model
 70
     1
 71
     0
 10
0.0
 20
0.0
 11
210.0
 21
297.0
 12
0.0
 22
0.0
 32
0.0
 14
0.0
 24
0.0
 34
0.0
 15
210.0
 25
297.0
 35
0.0
146
0.0
 13
0.0
 23
0.0
 33
0.0
 16
1.0
 26
0.0
 36
0.0
 17
0.0
 27
1.0
 37
0.0
 76
     0
330
1F
331
29
  0
MATERIAL
  5
3D
102
{ACAD_REACTORS
330
3B
102
}
330
3B
100
AcDbMaterial
  1
ByBlock
 72
     1
 94
      127
  0
MATERIAL
  5
3C
102
{ACAD_REACTORS
330
3B
102
}
330
3B
100
AcDbMaterial
  1
ByLayer
 72
     1
 94
      127
  0
MATERIAL
  5
3E
102
{ACAD_REACTORS
330
3B
102
}
330
3B
100
AcDbMaterial
  1
Global
 72
     1
 94
      127
  0
MLINESTYLE
  5
18
102
{ACAD_REACTORS
330
17
102
}
330
17
100
AcDbMlineStyle
  2
Standard
 70
     0
  3

 62
   256
 51
90.0
 52
90.0
 71
     2
 49
0.5
 62
   256
  6
BYLAYER
 49
-0.5
 62
   256
  6
BYLAYER
  0
ACDBPLACEHOLDER
  5
F
102
{ACAD_REACTORS
330
E
102
}
330
E
  0
SCALE
  5
4B
102
{ACAD_REACTORS
330
4A
102
}
330
4A
100
AcDbScale
 70
     0
300
1:1
140
1.0
141
1.0
290
     1
  0
SCALE
  5
4C
102
{ACAD_REACTORS
330
4A
102
}
330
4A
100
AcDbScale
 70
     0
300
1:2
140
1.0
141
2.0
290
     0
  0
SCALE
  5
4D
102
{ACAD_REACTORS
330
4A
102
}
330
4A
100
AcDbScale
 70
     0
300
1:4
140
1.0
141
4.0
290
     0
  0
SCALE
  5
4E
102
{ACAD_REACTORS
330
4A
102
}
330
4A
100
AcDbScale
 70
     0
300
1:5
140
1.0
141
5.0
290
     0
  0
SCALE
  5
4F
102
{ACAD_REACTORS
330
4A
102
}
330
4A
100
AcDbScale
 70
     0
300
1:8
140
1.0
141
8.0
290
     0
  0
SCALE
  5
50
102
{ACAD_REACTORS
330
4A
102
}
330
4A
100
AcDbScale
 70
     0
300
1:10
140
1.0
141
10.0
290
     0
  0
SCALE
  5
51
102
{ACAD_REACTORS
330
4A
102
}
330
4A
100
AcDbScale
 70
     0
300
1:16
140
1.0
141
16.0
290
     0
  0
SCALE
  5
52
102
{ACAD_REACTORS
330
4A
102
}
330
4A
100
AcDbScale
 70
     0
300
1:20
140
1.0
141
20.0
290
     0
  0
SCALE
  5
53
102
{ACAD_REACTORS
330
4A
102
}
330
4A
100
AcDbScale
 70
     0
300
1:30
140
1.0
141
30.0
290
     0
  0
SCALE
  5
54
102
{ACAD_REACTORS
330
4A
102
}
330
4A
100
AcDbScale
 70
     0
300
1:40
140
1.0
141
40.0
290
     0
  0
SCALE
  5
55
102
{ACAD_REACTORS
330
4A
102
}
330
4A
100
AcDbScale
 70
     0
300
1:50
140
1.0
141
50.0
290
     0
  0
SCALE
  5
56
102
{ACAD_REACTORS
330
4A
102
}
330
4A
100
AcDbScale
 70
     0
300
1:100
140
1.0
141
100.0
290
     0
  0
SCALE
  5
57
102
{ACAD_REACTORS
330
4A
102
}
330
4A
100
AcDbScale
 70
     0
300
2:1
140
2.0
141
1.0
290
     0
  0
SCALE
  5
58
102
{ACAD_REACTORS
330
4A
102
}
330
4A
100
AcDbScale
 70
     0
300
4:1
140
4.0
141
1.0
290
     0
  0
SCALE
  5
59
102
{ACAD_REACTORS
330
4A
102
}
330
4A
100
AcDbScale
 70
     0
300
8:1
140
8.0
141
1.0
290
     0
  0
SCALE
  5
5A
102
{ACAD_REACTORS
330
4A
102
}
330
4A
100
AcDbScale
 70
     0
300
10:1
140
10.0
141
1.0
290
     0
  0
SCALE
  5
5B
102
{ACAD_REACTORS
330
4A
102
}
330
4A
100
AcDbScale
 70
     0
300
100:1
140
100.0
141
1.0
290
     0
  0
SCALE
  5
5C
102
{ACAD_REACTORS
330
4A
102
}
330
4A
100
AcDbScale
 70
     0
300
1/128" = 1'-0"
140
0.0078125
141
12.0
290
     0
  0
SCALE
  5
5D
102
{ACAD_REACTORS
330
4A
102
}
330
4A
100
AcDbScale
 70
     0
300
1/64" = 1'-0"
140
0.015625
141
12.0
290
     0
  0
SCALE
  5
5E
102
{ACAD_REACTORS
330
4A
102
}
330
4A
100
AcDbScale
 70
     0
300
1/32" = 1'-0"
140
0.03125
141
12.0
290
     0
  0
SCALE
  5
5F
102
{ACAD_REACTORS
330
4A
102
}
330
4A
100
AcDbScale
 70
     0
300
1/16" = 1'-0"
140
0.0625
141
12.0
290
     0
  0
SCALE
  5
60
102
{ACAD_REACTORS
330
4A
102
}
330
4A
100
AcDbScale
 70
     0
300
3/32" = 1'-0"
140
0.09375
141
12.0
290
     0
  0
SCALE
  5
61
102
{ACAD_REACTORS
330
4A
102
}
330
4A
100
AcDbScale
 70
     0
300
1/8" = 1'-0"
140
0.125
141
12.0
290
     0
  0
SCALE
  5
62
102
{ACAD_REACTORS
330
4A
102
}
330
4A
100
AcDbScale
 70
     0
300
3/16" = 1'-0"
140
0.1875
141
12.0
290
     0
  0
SCALE
  5
63
102
{ACAD_REACTORS
330
4A
102
}
330
4A
100
AcDbScale
 70
     0
300
1/4" = 1'-0"
140
0.25
141
12.0
290
     0
  0
SCALE
  5
64
102
{ACAD_REACTORS
330
4A
102
}
330
4A
100
AcDbScale
 70
     0
300
3/8" = 1'-0"
140
0.375
141
12.0
290
     0
  0
SCALE
  5
65
102
{ACAD_REACTORS
330
4A
102
}
330
4A
100
AcDbScale
 70
     0
300
1/2" = 1'-0"
140
0.5
141
12.0
290
     0
  0
SCALE
  5
66
102
{ACAD_REACTORS
330
4A
102
}
330
4A
100
AcDbScale
 70
     0
300
3/4" = 1'-0"
140
0.75
141
12.0
290
     0
  0
SCALE
  5
67
102
{ACAD_REACTORS
330
4A
102
}
330
4A
100
AcDbScale
 70
     0
300
1" = 1'-0"
140
1.0
141
12.0
290
     0
  0
SCALE
  5
68
102
{ACAD_REACTORS
330
4A
102
}
330
4A
100
AcDbScale
 70
     0
300
1-1/2" = 1'-0"
140
1.5
141
12.0
290
     0
  0
SCALE
  5
69
102
{ACAD_REACTORS
330
4A
102
}
330
4A
100
AcDbScale
 70
     0
300
3" = 1'-0"
140
3.0
141
12.0
290
     0
  0
SCALE
  5
6A
102
{ACAD_REACTORS
330
4A
102
}
330
4A
100
AcDbScale
 70
     0
300
6" = 1'-0"
140
6.0
141
12.0
290
     0
  0
SCALE
  5
6B
102
{ACAD_REACTORS
330
4A
102
}
330
4A
100
AcDbScale
 70
     0
300
1'-0" = 1'-0"
140
12.0
141
12.0
290
     0
  0
VISUALSTYLE
  5
2F
102
{ACAD_REACTORS
330
2A
102
}
102
{ACAD_XDICTIONARY
360
27E
102
}
330
2A
100
AcDbVisualStyle
  2
2dWireframe
 70
     4
 71
     0
 72
     2
 73
     0
 90
        0
 40
-0.6
 41
-30.0
 62
     5
 63
     7
421
 16777215
 74
     1
 91
        4
 64
     7
 65
   257
 75
     1
175
     1
 42
1.0
 92
        0
 66
   257
 43
1.0
 76
     1
 77
     6
 78
     2
 67
     7
 79
     5
170
     0
171
     0
290
     0
174
     0
 93
        1
 44
0.0
173
     0
291
     0
 45
0.0
  0
VISUALSTYLE
  5
31
102
{ACAD_REACTORS
330
2A
102
}
102
{ACAD_XDICTIONARY
360
282
102
}
330
2A
100
AcDbVisualStyle
  2
3D Hidden
 70
     6
 71
     1
 72
     2
 73
     2
 90
        0
 40
-0.6
 41
-30.0
 62
     5
 63
     7
421
 16777215
 74
     2
 91
        2
 64
     7
 65
   257
 75
     2
175
     1
 42
40.0
 92
        0
 66
   257
 43
1.0
 76
     1
 77
     6
 78
     2
 67
     7
 79
     3
170
     0
171
     0
290
     0
174
     0
 93
        1
 44
0.0
173
     0
291
     0
 45
0.0
  0
VISUALSTYLE
  5
30
102
{ACAD_REACTORS
330
2A
102
}
102
{ACAD_XDICTIONARY
360
280
102
}
330
2A
100
AcDbVisualStyle
  2
3dWireframe
 70
     5
 71
     0
 72
     2
 73
     0
 90
        0
 40
-0.6
 41
-30.0
 62
     5
 63
     7
421
 16777215
 74
     1
 91
        4
 64
     7
 65
   257
 75
     1
175
     1
 42
1.0
 92
        0
 66
   257
 43
1.0
 76
     1
 77
     6
 78
     2
 67
     7
 79
     5
170
     0
171
     0
290
     0
174
     0
 93
        1
 44
0.0
173
     0
291
     0
 45
0.0
  0
VISUALSTYLE
  5
32
102
{ACAD_REACTORS
330
2A
102
}
102
{ACAD_XDICTIONARY
360
284
102
}
330
2A
100
AcDbVisualStyle
  2
Basic
 70
     7
 71
     1
 72
     0
 73
     1
 90
        0
 40
-0.6
 41
-30.0
 62
     5
 63
     7
421
 16777215
 74
     0
 91
        4
 64
     7
 65
   257
 75
     1
175
     1
 42
1.0
 92
        8
 66
     7
 43
1.0
 76
     1
 77
     6
 78
     2
 67
     7
 79
     5
170
     0
171
     0
290
     0
174
     0
 93
        1
 44
0.0
173
     0
291
     1
 45
0.0
  0
VISUALSTYLE
  5
36
102
{ACAD_REACTORS
330
2A
102
}
102
{ACAD_XDICTIONARY
360
28C
102
}
330
2A
100
AcDbVisualStyle
  2
Brighten
 70
    12
 71
     2
 72
     2
 73
     0
 90
        0
 40
-0.6
 41
-30.0
 62
     5
 63
     7
421
 16777215
 74
     1
 91
        4
 64
     7
 65
   257
 75
     1
175
     1
 42
1.0
 92
        8
 66
     7
 43
1.0
 76
     1
 77
     6
 78
     2
 67
     7
 79
     5
170
     0
171
     0
290
     0
174
     0
 93
        1
 44
50.0
173
     0
291
     1
 45
0.0
  0
VISUALSTYLE
  5
3A
102
{ACAD_REACTORS
330
2A
102
}
102
{ACAD_XDICTIONARY
360
294
102
}
330
2A
100
AcDbVisualStyle
  2
ColorChange
 70
    16
 71
     2
 72
     2
 73
     3
 90
        0
 40
-0.6
 41
-30.0
 62
     5
 63
     8
421
  8421504
 74
     1
 91
        4
 64
     7
 65
   257
 75
     1
175
     1
 42
1.0
 92
        8
 66
     8
424
  8421504
 43
1.0
 76
     1
 77
     6
 78
     2
 67
     7
 79
     5
170
     0
171
     0
290
     0
174
     0
 93
        1
 44
0.0
173
     0
291
     1
 45
0.0
  0
VISUALSTYLE
  5
34
102
{ACAD_REACTORS
330
2A
102
}
102
{ACAD_XDICTIONARY
360
288
102
}
330
2A
100
AcDbVisualStyle
  2
Conceptual
 70
     9
 71
     3
 72
     2
 73
     0
 90
        0
 40
-0.6
 41
-30.0
 62
     5
 63
     7
421
 16777215
 74
     2
 91
        2
 64
     7
 65
   257
 75
     1
175
     1
 42
40.0
 92
        8
 66
     7
 43
1.0
 76
     1
 77
     6
 78
     2
 67
     7
 79
     3
170
     0
171
     0
290
     0
174
     0
 93
        1
 44
0.0
173
     0
291
     0
 45
0.0
  0
VISUALSTYLE
  5
35
102
{ACAD_REACTORS
330
2A
102
}
102
{ACAD_XDICTIONARY
360
28A
102
}
330
2A
100
AcDbVisualStyle
  2
Dim
 70
    11
 71
     2
 72
     2
 73
     0
 90
        0
 40
-0.6
 41
-30.0
 62
     5
 63
     7
421
 16777215
 74
     1
 91
        4
 64
     7
 65
   257
 75
     1
175
     1
 42
1.0
 92
        8
 66
     7
 43
1.0
 76
     1
 77
     6
 78
     2
 67
     7
 79
     5
170
     0
171
     0
290
     0
174
     0
 93
        1
 44
-50.0
173
     0
291
     1
 45
0.0
  0
VISUALSTYLE
  5
39
102
{ACAD_REACTORS
330
2A
102
}
102
{ACAD_XDICTIONARY
360
292
102
}
330
2A
100
AcDbVisualStyle
  2
Facepattern
 70
    15
 71
     2
 72
     2
 73
     0
 90
        0
 40
-0.6
 41
-30.0
 62
     5
 63
     7
421
 16777215
 74
     1
 91
        4
 64
     7
 65
   257
 75
     1
175
     1
 42
1.0
 92
        8
 66
     7
 43
1.0
 76
     1
 77
     6
 78
     2
 67
     7
 79
     5
170
     0
171
     0
290
     0
174
     0
 93
        1
 44
0.0
173
     0
291
     1
 45
0.0
  0
VISUALSTYLE
  5
2B
102
{ACAD_REACTORS
330
2A
102
}
102
{ACAD_XDICTIONARY
360
276
102
}
330
2A
100
AcDbVisualStyle
  2
Flat
 70
     0
 71
     2
 72
     1
 73
     1
 90
        2
 40
-0.6
 41
30.0
 62
     5
 63
     7
421
 16777215
 74
     0
 91
        4
 64
     7
 65
   257
 75
     1
175
     1
 42
1.0
 92
        8
 66
     7
 43
1.0
 76
     1
 77
     6
 78
     2
 67
     7
 79
     5
170
     0
171
     0
290
     0
174
     0
 93
       13
 44
0.0
173
     0
291
     1
 45
0.0
  0
VISUALSTYLE
  5
2C
102
{ACAD_REACTORS
330
2A
102
}
102
{ACAD_XDICTIONARY
360
278
102
}
330
2A
100
AcDbVisualStyle
  2
FlatWithEdges
 70
     1
 71
     2
 72
     1
 73
     1
 90
        2
 40
-0.6
 41
30.0
 62
     5
 63
     7
421
 16777215
 74
     1
 91
        4
 64
     7
 65
   257
 75
     1
175
     1
 42
1.0
 92
        0
 66
   257
 43
1.0
 76
     1
 77
     6
 78
     2
 67
     7
 79
     5
170
     0
171
     0
290
     0
174
     0
 93
       13
 44
0.0
173
     0
291
     1
 45
0.0
  0
VISUALSTYLE
  5
2D
102
{ACAD_REACTORS
330
2A
102
}
102
{ACAD_XDICTIONARY
360
27A
102
}
330
2A
100
AcDbVisualStyle
  2
Gouraud
 70
     2
 71
     2
 72
     2
 73
     1
 90
        2
 40
-0.6
 41
30.0
 62
     5
 63
     7
421
 16777215
 74
     0
 91
        4
 64
     7
 65
   257
 75
     1
175
     1
 42
1.0
 92
        0
 66
     7
 43
1.0
 76
     1
 77
     6
 78
     2
 67
     7
 79
     5
170
     0
171
     0
290
     0
174
     0
 93
       13
 44
0.0
173
     0
291
     1
 45
0.0
  0
VISUALSTYLE
  5
2E
102
{ACAD_REACTORS
330
2A
102
}
102
{ACAD_XDICTIONARY
360
27C
102
}
330
2A
100
AcDbVisualStyle
  2
GouraudWithEdges
 70
     3
 71
     2
 72
     2
 73
     1
 90
        2
 40
-0.6
 41
30.0
 62
     5
 63
     7
421
 16777215
 74
     1
 91
        4
 64
     7
 65
   257
 75
     1
175
     1
 42
1.0
 92
        0
 66
   257
 43
1.0
 76
     1
 77
     6
 78
     2
 67
     7
 79
     5
170
     0
171
     0
290
     0
174
     0
 93
       13
 44
0.0
173
     0
291
     1
 45
0.0
  0
VISUALSTYLE
  5
38
102
{ACAD_REACTORS
330
2A
102
}
102
{ACAD_XDICTIONARY
360
290
102
}
330
2A
100
AcDbVisualStyle
  2
Linepattern
 70
    14
 71
     2
 72
     2
 73
     0
 90
        0
 40
-0.6
 41
-30.0
 62
     5
 63
     7
421
 16777215
 74
     1
 91
        4
 64
     7
 65
   257
 75
     7
175
     7
 42
1.0
 92
        8
 66
     7
 43
1.0
 76
     1
 77
     6
 78
     2
 67
     7
 79
     5
170
     0
171
     0
290
     0
174
     0
 93
        1
 44
0.0
173
     0
291
     1
 45
0.0
  0
VISUALSTYLE
  5
33
102
{ACAD_REACTORS
330
2A
102
}
102
{ACAD_XDICTIONARY
360
286
102
}
330
2A
100
AcDbVisualStyle
  2
Realistic
 70
     8
 71
     2
 72
     2
 73
     0
 90
        0
 40
-0.6
 41
-30.0
 62
     5
 63
     7
421
 16777215
 74
     1
 91
        0
 64
     7
 65
   257
 75
     1
175
     1
 42
1.0
 92
        8
 66
     8
424
  7895160
 43
1.0
 76
     1
 77
     6
 78
     2
 67
     7
 79
     5
170
     0
171
     0
290
     0
174
     0
 93
       13
 44
0.0
173
     0
291
     0
 45
0.0
  0
VISUALSTYLE
  5
37
102
{ACAD_REACTORS
330
2A
102
}
102
{ACAD_XDICTIONARY
360
28E
102
}
330
2A
100
AcDbVisualStyle
  2
Thicken
 70
    13
 71
     2
 72
     2
 73
     0
 90
        0
 40
-0.6
 41
-30.0
 62
     5
 63
     7
421
 16777215
 74
     1
 91
        4
 64
     7
 65
   257
 75
     1
175
     1
 42
1.0
 92
       12
 66
     7
 43
1.0
 76
     1
 77
     6
 78
     2
 67
     7
 79
     5
170
     0
171
     0
290
     0
174
     0
 93
        1
 44
0.0
173
     0
291
     1
 45
0.0
  0
DICTIONARYVAR
  5
275
102
{ACAD_REACTORS
330
274
102
}
330
274
100
DictionaryVariables
280
     0
  1
1:1
  0
DICTIONARY
  5
27E
330
2F
100
AcDbDictionary
280
     1
281
     1
  3
ACAD_XREC_ROUNDTRIP
360
27F
  0
DICTIONARY
  5
282
330
31
100
AcDbDictionary
280
     1
281
     1
  3
ACAD_XREC_ROUNDTRIP
360
283
  0
DICTIONARY
  5
280
330
30
100
AcDbDictionary
280
     1
281
     1
  3
ACAD_XREC_ROUNDTRIP
360
281
  0
DICTIONARY
  5
284
330
32
100
AcDbDictionary
280
     1
281
     1
  3
ACAD_XREC_ROUNDTRIP
360
285
  0
DICTIONARY
  5
28C
330
36
100
AcDbDictionary
280
     1
281
     1
  3
ACAD_XREC_ROUNDTRIP
360
28D
  0
DICTIONARY
  5
294
330
3A
100
AcDbDictionary
280
     1
281
     1
  3
ACAD_XREC_ROUNDTRIP
360
295
  0
DICTIONARY
  5
288
330
34
100
AcDbDictionary
280
     1
281
     1
  3
ACAD_XREC_ROUNDTRIP
360
289
  0
DICTIONARY
  5
28A
330
35
100
AcDbDictionary
280
     1
281
     1
  3
ACAD_XREC_ROUNDTRIP
360
28B
  0
DICTIONARY
  5
292
330
39
100
AcDbDictionary
280
     1
281
     1
  3
ACAD_XREC_ROUNDTRIP
360
293
  0
DICTIONARY
  5
276
330
2B
100
AcDbDictionary
280
     1
281
     1
  3
ACAD_XREC_ROUNDTRIP
360
277
  0
DICTIONARY
  5
278
330
2C
100
AcDbDictionary
280
     1
281
     1
  3
ACAD_XREC_ROUNDTRIP
360
279
  0
DICTIONARY
  5
27A
330
2D
100
AcDbDictionary
280
     1
281
     1
  3
ACAD_XREC_ROUNDTRIP
360
27B
  0
DICTIONARY
  5
27C
330
2E
100
AcDbDictionary
280
     1
281
     1
  3
ACAD_XREC_ROUNDTRIP
360
27D
  0
DICTIONARY
  5
290
330
38
100
AcDbDictionary
280
     1
281
     1
  3
ACAD_XREC_ROUNDTRIP
360
291
  0
DICTIONARY
  5
286
330
33
100
AcDbDictionary
280
     1
281
     1
  3
ACAD_XREC_ROUNDTRIP
360
287
  0
DICTIONARY
  5
28E
330
37
100
AcDbDictionary
280
     1
281
     1
  3
ACAD_XREC_ROUNDTRIP
360
28F
  0
XRECORD
  5
27F
102
{ACAD_REACTORS
330
27E
102
}
330
27E
100
AcDbXrecord
280
     1
102
RTVSPropertyOp0
 70
     1
102
RTVSPropertyOp1
 70
     1
102
RTVSPropertyOp2
 70
     1
102
RTVSPropertyOp3
 70
     1
102
RTVSPropertyOp4
 70
     1
102
RTVSPropertyOp5
 70
     1
102
RTVSPropertyOp6
 70
     1
102
RTVSPropertyOp7
 70
     1
102
RTVSPropertyOp8
 70
     1
102
RTVSPropertyOp9
 70
     1
102
RTVSPropertyOp10
 70
     1
102
RTVSPropertyOp11
 70
     1
102
RTVSPropertyOp12
 70
     1
102
RTVSPropertyOp13
 70
     1
102
RTVSPropertyOp14
 70
     1
102
RTVSPropertyOp15
 70
     1
102
RTVSPropertyOp16
 70
     1
102
RTVSPropertyOp17
 70
     1
102
RTVSPropertyOp18
 70
     1
102
RTVSPropertyOp19
 70
     1
102
RTVSPropertyOp20
 70
     1
102
RTVSPropertyOp21
 70
     1
102
RTVSPropertyOp22
 70
     1
102
RTVSPropertyOp23
 70
     1
102
RTVSPropertyOp24
 70
     1
102
RTVSPropertyOp25
 70
     1
102
RTVSPropertyOp26
 70
     1
102
RTVSPropertyOp27
 70
     1
  0
XRECORD
  5
283
102
{ACAD_REACTORS
330
282
102
}
330
282
100
AcDbXrecord
280
     1
102
RTVSPropertyOp0
 70
     1
102
RTVSPropertyOp1
 70
     1
102
RTVSPropertyOp2
 70
     1
102
RTVSPropertyOp3
 70
     1
102
RTVSPropertyOp4
 70
     1
102
RTVSPropertyOp5
 70
     1
102
RTVSPropertyOp6
 70
     1
102
RTVSPropertyOp7
 70
     1
102
RTVSPropertyOp8
 70
     1
102
RTVSPropertyOp9
 70
     1
102
RTVSPropertyOp10
 70
     1
102
RTVSPropertyOp11
 70
     1
102
RTVSPropertyOp12
 70
     1
102
RTVSPropertyOp13
 70
     1
102
RTVSPropertyOp14
 70
     1
102
RTVSPropertyOp15
 70
     1
102
RTVSPropertyOp16
 70
     1
102
RTVSPropertyOp17
 70
     1
102
RTVSPropertyOp18
 70
     1
102
RTVSPropertyOp19
 70
     1
102
RTVSPropertyOp20
 70
     1
102
RTVSPropertyOp21
 70
     1
102
RTVSPropertyOp22
 70
     1
102
RTVSPropertyOp23
 70
     1
102
RTVSPropertyOp24
 70
     1
102
RTVSPropertyOp25
 70
     1
102
RTVSPropertyOp26
 70
     1
102
RTVSPropertyOp27
 70
     1
  0
XRECORD
  5
281
102
{ACAD_REACTORS
330
280
102
}
330
280
100
AcDbXrecord
280
     1
102
RTVSPropertyOp0
 70
     1
102
RTVSPropertyOp1
 70
     1
102
RTVSPropertyOp2
 70
     1
102
RTVSPropertyOp3
 70
     1
102
RTVSPropertyOp4
 70
     1
102
RTVSPropertyOp5
 70
     1
102
RTVSPropertyOp6
 70
     1
102
RTVSPropertyOp7
 70
     1
102
RTVSPropertyOp8
 70
     1
102
RTVSPropertyOp9
 70
     1
102
RTVSPropertyOp10
 70
     1
102
RTVSPropertyOp11
 70
     1
102
RTVSPropertyOp12
 70
     1
102
RTVSPropertyOp13
 70
     1
102
RTVSPropertyOp14
 70
     1
102
RTVSPropertyOp15
 70
     1
102
RTVSPropertyOp16
 70
     1
102
RTVSPropertyOp17
 70
     1
102
RTVSPropertyOp18
 70
     1
102
RTVSPropertyOp19
 70
     1
102
RTVSPropertyOp20
 70
     1
102
RTVSPropertyOp21
 70
     1
102
RTVSPropertyOp22
 70
     1
102
RTVSPropertyOp23
 70
     1
102
RTVSPropertyOp24
 70
     1
102
RTVSPropertyOp25
 70
     1
102
RTVSPropertyOp26
 70
     1
102
RTVSPropertyOp27
 70
     1
  0
XRECORD
  5
285
102
{ACAD_REACTORS
330
284
102
}
330
284
100
AcDbXrecord
280
     1
102
RTVSPropertyOp0
 70
     1
102
RTVSPropertyOp1
 70
     1
102
RTVSPropertyOp2
 70
     1
102
RTVSPropertyOp3
 70
     1
102
RTVSPropertyOp4
 70
     1
102
RTVSPropertyOp5
 70
     1
102
RTVSPropertyOp6
 70
     1
102
RTVSPropertyOp7
 70
     1
102
RTVSPropertyOp8
 70
     1
102
RTVSPropertyOp9
 70
     1
102
RTVSPropertyOp10
 70
     1
102
RTVSPropertyOp11
 70
     1
102
RTVSPropertyOp12
 70
     1
102
RTVSPropertyOp13
 70
     1
102
RTVSPropertyOp14
 70
     1
102
RTVSPropertyOp15
 70
     1
102
RTVSPropertyOp16
 70
     1
102
RTVSPropertyOp17
 70
     1
102
RTVSPropertyOp18
 70
     1
102
RTVSPropertyOp19
 70
     1
102
RTVSPropertyOp20
 70
     1
102
RTVSPropertyOp21
 70
     1
102
RTVSPropertyOp22
 70
     1
102
RTVSPropertyOp23
 70
     1
102
RTVSPropertyOp24
 70
     1
102
RTVSPropertyOp25
 70
     1
102
RTVSPropertyOp26
 70
     1
102
RTVSPropertyOp27
 70
     1
  0
XRECORD
  5
28D
102
{ACAD_REACTORS
330
28C
102
}
330
28C
100
AcDbXrecord
280
     1
102
RTVSPropertyOp0
 70
     1
102
RTVSPropertyOp1
 70
     1
102
RTVSPropertyOp2
 70
     1
102
RTVSPropertyOp3
 70
     1
102
RTVSPropertyOp4
 70
     1
102
RTVSPropertyOp5
 70
     1
102
RTVSPropertyOp6
 70
     1
102
RTVSPropertyOp7
 70
     1
102
RTVSPropertyOp8
 70
     1
102
RTVSPropertyOp9
 70
     1
102
RTVSPropertyOp10
 70
     1
102
RTVSPropertyOp11
 70
     1
102
RTVSPropertyOp12
 70
     1
102
RTVSPropertyOp13
 70
     1
102
RTVSPropertyOp14
 70
     1
102
RTVSPropertyOp15
 70
     1
102
RTVSPropertyOp16
 70
     1
102
RTVSPropertyOp17
 70
     1
102
RTVSPropertyOp18
 70
     1
102
RTVSPropertyOp19
 70
     1
102
RTVSPropertyOp20
 70
     1
102
RTVSPropertyOp21
 70
     1
102
RTVSPropertyOp22
 70
     1
102
RTVSPropertyOp23
 70
     1
102
RTVSPropertyOp24
 70
     1
102
RTVSPropertyOp25
 70
     1
102
RTVSPropertyOp26
 70
     1
102
RTVSPropertyOp27
 70
     1
  0
XRECORD
  5
295
102
{ACAD_REACTORS
330
294
102
}
330
294
100
AcDbXrecord
280
     1
102
RTVSPropertyOp0
 70
     1
102
RTVSPropertyOp1
 70
     1
102
RTVSPropertyOp2
 70
     1
102
RTVSPropertyOp3
 70
     1
102
RTVSPropertyOp4
 70
     1
102
RTVSPropertyOp5
 70
     1
102
RTVSPropertyOp6
 70
     1
102
RTVSPropertyOp7
 70
     1
102
RTVSPropertyOp8
 70
     1
102
RTVSPropertyOp9
 70
     1
102
RTVSPropertyOp10
 70
     1
102
RTVSPropertyOp11
 70
     1
102
RTVSPropertyOp12
 70
     1
102
RTVSPropertyOp13
 70
     1
102
RTVSPropertyOp14
 70
     1
102
RTVSPropertyOp15
 70
     1
102
RTVSPropertyOp16
 70
     1
102
RTVSPropertyOp17
 70
     1
102
RTVSPropertyOp18
 70
     1
102
RTVSPropertyOp19
 70
     1
102
RTVSPropertyOp20
 70
     1
102
RTVSPropertyOp21
 70
     1
102
RTVSPropertyOp22
 70
     1
102
RTVSPropertyOp23
 70
     1
102
RTVSPropertyOp24
 70
     1
102
RTVSPropertyOp25
 70
     1
102
RTVSPropertyOp26
 70
     1
102
RTVSPropertyOp27
 70
     1
  0
XRECORD
  5
289
102
{ACAD_REACTORS
330
288
102
}
330
288
100
AcDbXrecord
280
     1
102
RTVSPropertyOp0
 70
     1
102
RTVSPropertyOp1
 70
     1
102
RTVSPropertyOp2
 70
     1
102
RTVSPropertyOp3
 70
     1
102
RTVSPropertyOp4
 70
     1
102
RTVSPropertyOp5
 70
     1
102
RTVSPropertyOp6
 70
     1
102
RTVSPropertyOp7
 70
     1
102
RTVSPropertyOp8
 70
     1
102
RTVSPropertyOp9
 70
     1
102
RTVSPropertyOp10
 70
     1
102
RTVSPropertyOp11
 70
     1
102
RTVSPropertyOp12
 70
     1
102
RTVSPropertyOp13
 70
     1
102
RTVSPropertyOp14
 70
     1
102
RTVSPropertyOp15
 70
     1
102
RTVSPropertyOp16
 70
     1
102
RTVSPropertyOp17
 70
     1
102
RTVSPropertyOp18
 70
     1
102
RTVSPropertyOp19
 70
     1
102
RTVSPropertyOp20
 70
     1
102
RTVSPropertyOp21
 70
     1
102
RTVSPropertyOp22
 70
     1
102
RTVSPropertyOp23
 70
     1
102
RTVSPropertyOp24
 70
     1
102
RTVSPropertyOp25
 70
     1
102
RTVSPropertyOp26
 70
     1
102
RTVSPropertyOp27
 70
     1
  0
XRECORD
  5
28B
102
{ACAD_REACTORS
330
28A
102
}
330
28A
100
AcDbXrecord
280
     1
102
RTVSPropertyOp0
 70
     1
102
RTVSPropertyOp1
 70
     1
102
RTVSPropertyOp2
 70
     1
102
RTVSPropertyOp3
 70
     1
102
RTVSPropertyOp4
 70
     1
102
RTVSPropertyOp5
 70
     1
102
RTVSPropertyOp6
 70
     1
102
RTVSPropertyOp7
 70
     1
102
RTVSPropertyOp8
 70
     1
102
RTVSPropertyOp9
 70
     1
102
RTVSPropertyOp10
 70
     1
102
RTVSPropertyOp11
 70
     1
102
RTVSPropertyOp12
 70
     1
102
RTVSPropertyOp13
 70
     1
102
RTVSPropertyOp14
 70
     1
102
RTVSPropertyOp15
 70
     1
102
RTVSPropertyOp16
 70
     1
102
RTVSPropertyOp17
 70
     1
102
RTVSPropertyOp18
 70
     1
102
RTVSPropertyOp19
 70
     1
102
RTVSPropertyOp20
 70
     1
102
RTVSPropertyOp21
 70
     1
102
RTVSPropertyOp22
 70
     1
102
RTVSPropertyOp23
 70
     1
102
RTVSPropertyOp24
 70
     1
102
RTVSPropertyOp25
 70
     1
102
RTVSPropertyOp26
 70
     1
102
RTVSPropertyOp27
 70
     1
  0
XRECORD
  5
293
102
{ACAD_REACTORS
330
292
102
}
330
292
100
AcDbXrecord
280
     1
102
RTVSPropertyOp0
 70
     1
102
RTVSPropertyOp1
 70
     1
102
RTVSPropertyOp2
 70
     1
102
RTVSPropertyOp3
 70
     1
102
RTVSPropertyOp4
 70
     1
102
RTVSPropertyOp5
 70
     1
102
RTVSPropertyOp6
 70
     1
102
RTVSPropertyOp7
 70
     1
102
RTVSPropertyOp8
 70
     1
102
RTVSPropertyOp9
 70
     1
102
RTVSPropertyOp10
 70
     1
102
RTVSPropertyOp11
 70
     1
102
RTVSPropertyOp12
 70
     1
102
RTVSPropertyOp13
 70
     1
102
RTVSPropertyOp14
 70
     1
102
RTVSPropertyOp15
 70
     1
102
RTVSPropertyOp16
 70
     1
102
RTVSPropertyOp17
 70
     1
102
RTVSPropertyOp18
 70
     1
102
RTVSPropertyOp19
 70
     1
102
RTVSPropertyOp20
 70
     1
102
RTVSPropertyOp21
 70
     1
102
RTVSPropertyOp22
 70
     1
102
RTVSPropertyOp23
 70
     1
102
RTVSPropertyOp24
 70
     1
102
RTVSPropertyOp25
 70
     1
102
RTVSPropertyOp26
 70
     1
102
RTVSPropertyOp27
 70
     1
  0
XRECORD
  5
277
102
{ACAD_REACTORS
330
276
102
}
330
276
100
AcDbXrecord
280
     1
102
RTVSPropertyOp0
 70
     1
102
RTVSPropertyOp1
 70
     1
102
RTVSPropertyOp2
 70
     1
102
RTVSPropertyOp3
 70
     1
102
RTVSPropertyOp4
 70
     1
102
RTVSPropertyOp5
 70
     1
102
RTVSPropertyOp6
 70
     1
102
RTVSPropertyOp7
 70
     1
102
RTVSPropertyOp8
 70
     1
102
RTVSPropertyOp9
 70
     1
102
RTVSPropertyOp10
 70
     1
102
RTVSPropertyOp11
 70
     1
102
RTVSPropertyOp12
 70
     1
102
RTVSPropertyOp13
 70
     1
102
RTVSPropertyOp14
 70
     1
102
RTVSPropertyOp15
 70
     1
102
RTVSPropertyOp16
 70
     1
102
RTVSPropertyOp17
 70
     1
102
RTVSPropertyOp18
 70
     1
102
RTVSPropertyOp19
 70
     1
102
RTVSPropertyOp20
 70
     1
102
RTVSPropertyOp21
 70
     1
102
RTVSPropertyOp22
 70
     1
102
RTVSPropertyOp23
 70
     1
102
RTVSPropertyOp24
 70
     1
102
RTVSPropertyOp25
 70
     1
102
RTVSPropertyOp26
 70
     1
102
RTVSPropertyOp27
 70
     1
  0
XRECORD
  5
279
102
{ACAD_REACTORS
330
278
102
}
330
278
100
AcDbXrecord
280
     1
102
RTVSPropertyOp0
 70
     1
102
RTVSPropertyOp1
 70
     1
102
RTVSPropertyOp2
 70
     1
102
RTVSPropertyOp3
 70
     1
102
RTVSPropertyOp4
 70
     1
102
RTVSPropertyOp5
 70
     1
102
RTVSPropertyOp6
 70
     1
102
RTVSPropertyOp7
 70
     1
102
RTVSPropertyOp8
 70
     1
102
RTVSPropertyOp9
 70
     1
102
RTVSPropertyOp10
 70
     1
102
RTVSPropertyOp11
 70
     1
102
RTVSPropertyOp12
 70
     1
102
RTVSPropertyOp13
 70
     1
102
RTVSPropertyOp14
 70
     1
102
RTVSPropertyOp15
 70
     1
102
RTVSPropertyOp16
 70
     1
102
RTVSPropertyOp17
 70
     1
102
RTVSPropertyOp18
 70
     1
102
RTVSPropertyOp19
 70
     1
102
RTVSPropertyOp20
 70
     1
102
RTVSPropertyOp21
 70
     1
102
RTVSPropertyOp22
 70
     1
102
RTVSPropertyOp23
 70
     1
102
RTVSPropertyOp24
 70
     1
102
RTVSPropertyOp25
 70
     1
102
RTVSPropertyOp26
 70
     1
102
RTVSPropertyOp27
 70
     1
  0
XRECORD
  5
27B
102
{ACAD_REACTORS
330
27A
102
}
330
27A
100
AcDbXrecord
280
     1
102
RTVSPropertyOp0
 70
     1
102
RTVSPropertyOp1
 70
     1
102
RTVSPropertyOp2
 70
     1
102
RTVSPropertyOp3
 70
     1
102
RTVSPropertyOp4
 70
     1
102
RTVSPropertyOp5
 70
     1
102
RTVSPropertyOp6
 70
     1
102
RTVSPropertyOp7
 70
     1
102
RTVSPropertyOp8
 70
     1
102
RTVSPropertyOp9
 70
     1
102
RTVSPropertyOp10
 70
     1
102
RTVSPropertyOp11
 70
     1
102
RTVSPropertyOp12
 70
     1
102
RTVSPropertyOp13
 70
     1
102
RTVSPropertyOp14
 70
     1
102
RTVSPropertyOp15
 70
     1
102
RTVSPropertyOp16
 70
     1
102
RTVSPropertyOp17
 70
     1
102
RTVSPropertyOp18
 70
     1
102
RTVSPropertyOp19
 70
     1
102
RTVSPropertyOp20
 70
     1
102
RTVSPropertyOp21
 70
     1
102
RTVSPropertyOp22
 70
     1
102
RTVSPropertyOp23
 70
     1
102
RTVSPropertyOp24
 70
     1
102
RTVSPropertyOp25
 70
     1
102
RTVSPropertyOp26
 70
     1
102
RTVSPropertyOp27
 70
     1
  0
XRECORD
  5
27D
102
{ACAD_REACTORS
330
27C
102
}
330
27C
100
AcDbXrecord
280
     1
102
RTVSPropertyOp0
 70
     1
102
RTVSPropertyOp1
 70
     1
102
RTVSPropertyOp2
 70
     1
102
RTVSPropertyOp3
 70
     1
102
RTVSPropertyOp4
 70
     1
102
RTVSPropertyOp5
 70
     1
102
RTVSPropertyOp6
 70
     1
102
RTVSPropertyOp7
 70
     1
102
RTVSPropertyOp8
 70
     1
102
RTVSPropertyOp9
 70
     1
102
RTVSPropertyOp10
 70
     1
102
RTVSPropertyOp11
 70
     1
102
RTVSPropertyOp12
 70
     1
102
RTVSPropertyOp13
 70
     1
102
RTVSPropertyOp14
 70
     1
102
RTVSPropertyOp15
 70
     1
102
RTVSPropertyOp16
 70
     1
102
RTVSPropertyOp17
 70
     1
102
RTVSPropertyOp18
 70
     1
102
RTVSPropertyOp19
 70
     1
102
RTVSPropertyOp20
 70
     1
102
RTVSPropertyOp21
 70
     1
102
RTVSPropertyOp22
 70
     1
102
RTVSPropertyOp23
 70
     1
102
RTVSPropertyOp24
 70
     1
102
RTVSPropertyOp25
 70
     1
102
RTVSPropertyOp26
 70
     1
102
RTVSPropertyOp27
 70
     1
  0
XRECORD
  5
291
102
{ACAD_REACTORS
330
290
102
}
330
290
100
AcDbXrecord
280
     1
102
RTVSPropertyOp0
 70
     1
102
RTVSPropertyOp1
 70
     1
102
RTVSPropertyOp2
 70
     1
102
RTVSPropertyOp3
 70
     1
102
RTVSPropertyOp4
 70
     1
102
RTVSPropertyOp5
 70
     1
102
RTVSPropertyOp6
 70
     1
102
RTVSPropertyOp7
 70
     1
102
RTVSPropertyOp8
 70
     1
102
RTVSPropertyOp9
 70
     1
102
RTVSPropertyOp10
 70
     1
102
RTVSPropertyOp11
 70
     1
102
RTVSPropertyOp12
 70
     1
102
RTVSPropertyOp13
 70
     1
102
RTVSPropertyOp14
 70
     1
102
RTVSPropertyOp15
 70
     1
102
RTVSPropertyOp16
 70
     1
102
RTVSPropertyOp17
 70
     1
102
RTVSPropertyOp18
 70
     1
102
RTVSPropertyOp19
 70
     1
102
RTVSPropertyOp20
 70
     1
102
RTVSPropertyOp21
 70
     1
102
RTVSPropertyOp22
 70
     1
102
RTVSPropertyOp23
 70
     1
102
RTVSPropertyOp24
 70
     1
102
RTVSPropertyOp25
 70
     1
102
RTVSPropertyOp26
 70
     1
102
RTVSPropertyOp27
 70
     1
  0
XRECORD
  5
287
102
{ACAD_REACTORS
330
286
102
}
330
286
100
AcDbXrecord
280
     1
102
RTVSPropertyOp0
 70
     1
102
RTVSPropertyOp1
 70
     1
102
RTVSPropertyOp2
 70
     1
102
RTVSPropertyOp3
 70
     1
102
RTVSPropertyOp4
 70
     1
102
RTVSPropertyOp5
 70
     1
102
RTVSPropertyOp6
 70
     1
102
RTVSPropertyOp7
 70
     1
102
RTVSPropertyOp8
 70
     1
102
RTVSPropertyOp9
 70
     1
102
RTVSPropertyOp10
 70
     1
102
RTVSPropertyOp11
 70
     1
102
RTVSPropertyOp12
 70
     1
102
RTVSPropertyOp13
 70
     1
102
RTVSPropertyOp14
 70
     1
102
RTVSPropertyOp15
 70
     1
102
RTVSPropertyOp16
 70
     1
102
RTVSPropertyOp17
 70
     1
102
RTVSPropertyOp18
 70
     1
102
RTVSPropertyOp19
 70
     1
102
RTVSPropertyOp20
 70
     1
102
RTVSPropertyOp21
 70
     1
102
RTVSPropertyOp22
 70
     1
102
RTVSPropertyOp23
 70
     1
102
RTVSPropertyOp24
 70
     1
102
RTVSPropertyOp25
 70
     1
102
RTVSPropertyOp26
 70
     1
102
RTVSPropertyOp27
 70
     1
  0
XRECORD
  5
28F
102
{ACAD_REACTORS
330
28E
102
}
330
28E
100
AcDbXrecord
280
     1
102
RTVSPropertyOp0
 70
     1
102
RTVSPropertyOp1
 70
     1
102
RTVSPropertyOp2
 70
     1
102
RTVSPropertyOp3
 70
     1
102
RTVSPropertyOp4
 70
     1
102
RTVSPropertyOp5
 70
     1
102
RTVSPropertyOp6
 70
     1
102
RTVSPropertyOp7
 70
     1
102
RTVSPropertyOp8
 70
     1
102
RTVSPropertyOp9
 70
     1
102
RTVSPropertyOp10
 70
     1
102
RTVSPropertyOp11
 70
     1
102
RTVSPropertyOp12
 70
     1
102
RTVSPropertyOp13
 70
     1
102
RTVSPropertyOp14
 70
     1
102
RTVSPropertyOp15
 70
     1
102
RTVSPropertyOp16
 70
     1
102
RTVSPropertyOp17
 70
     1
102
RTVSPropertyOp18
 70
     1
102
RTVSPropertyOp19
 70
     1
102
RTVSPropertyOp20
 70
     1
102
RTVSPropertyOp21
 70
     1
102
RTVSPropertyOp22
 70
     1
102
RTVSPropertyOp23
 70
     1
102
RTVSPropertyOp24
 70
     1
102
RTVSPropertyOp25
 70
     1
102
RTVSPropertyOp26
 70
     1
102
RTVSPropertyOp27
 70
     1
  0
ENDSEC
  0
EOF
