  0
SECTION
  2
HEADER
  9
$ACADVER
  1
AC1021
  9
$ACADMAINTVER
 70
    25
  9
$DWGCODEPAGE
  3
ANSI_1252
  9
$INSBASE
 10
0.0
 20
0.0
 30
0.0
  9
$EXTMIN
 10
0.0
 20
0.0
 30
0.0
  9
$EXTMAX
 10
210.0
 20
297.0
 30
0.0
  9
$LIMMIN
 10
0.0
 20
0.0
  9
$LIMMAX
 10
210.0
 20
297.0
  9
$ORTHOMODE
 70
     0
  9
$REGENMODE
 70
     1
  9
$FILLMODE
 70
     1
  9
$QTEXTMODE
 70
     0
  9
$MIRRTEXT
 70
     1
  9
$LTSCALE
 40
10.0
  9
$ATTMODE
 70
     1
  9
$TEXTSIZE
 40
3.5
  9
$TRACEWID
 40
1.0
  9
$TEXTSTYLE
  7
Standard
  9
$CLAYER
  8
0
  9
$CELTYPE
  6
ByLayer
  9
$CECOLOR
 62
   256
  9
$CELTSCALE
 40
1.0
  9
$DISPSILH
 70
     0
  9
$DIMSCALE
 40
1.0
  9
$DIMASZ
 40
3.302
  9
$DIMEXO
 40
1.0
  9
$DIMDLI
 40
3.75
  9
$DIMRND
 40
0.0
  9
$DIMDLE
 40
0.0
  9
$DIMEXE
 40
1.0
  9
$DIMTP
 40
0.0
  9
$DIMTM
 40
0.0
  9
$DIMTXT
 40
3.5
  9
$DIMCEN
 40
2.5
  9
$DIMTSZ
 40
0.0
  9
$DIMTOL
 70
     0
  9
$DIMLIM
 70
     0
  9
$DIMTIH
 70
     1
  9
$DIMTOH
 70
     1
  9
$DIMSE1
 70
     0
  9
$DIMSE2
 70
     0
  9
$DIMTAD
 70
     1
  9
$DIMZIN
 70
     1
  9
$DIMBLK
  1

  9
$DIMASO
 70
     1
  9
$DIMSHO
 70
     1
  9
$DIMPOST
  1

  9
$DIMAPOST
  1

  9
$DIMALT
 70
     0
  9
$DIMALTD
 70
     3
  9
$DIMALTF
 40
0.0393700787
  9
$DIMLFAC
 40
1.0
  9
$DIMTOFL
 70
     1
  9
$DIMTVP
 40
0.0
  9
$DIMTIX
 70
     0
  9
$DIMSOXD
 70
     0
  9
$DIMSAH
 70
     0
  9
$DIMBLK1
  1

  9
$DIMBLK2
  1

  9
$DIMSTYLE
  2
ISO-25
  9
$DIMCLRD
 70
     0
  9
$DIMCLRE
 70
     0
  9
$DIMCLRT
 70
     0
  9
$DIMTFAC
 40
1.0
  9
$DIMGAP
 40
1.524
  9
$DIMJUST
 70
     0
  9
$DIMSD1
 70
     0
  9
$DIMSD2
 70
     0
  9
$DIMTOLJ
 70
     0
  9
$DIMTZIN
 70
     1
  9
$DIMALTZ
 70
     0
  9
$DIMALTTZ
 70
     0
  9
$DIMUPT
 70
     0
  9
$DIMDEC
 70
     2
  9
$DIMTDEC
 70
     2
  9
$DIMALTU
 70
     2
  9
$DIMALTTD
 70
     3
  9
$DIMTXSTY
  7
Standard
  9
$DIMAUNIT
 70
     0
  9
$DIMADEC
 70
     2
  9
$DIMALTRND
 40
0.0
  9
$DIMAZIN
 70
     0
  9
$DIMDSEP
 70
    44
  9
$DIMATFIT
 70
     3
  9
$DIMFRAC
 70
     0
  9
$DIMLDRBLK
  1

  9
$DIMLUNIT
 70
     2
  9
$DIMLWD
 70
    -2
  9
$DIMLWE
 70
    -2
  9
$DIMTMOVE
 70
     0
  9
$DIMFXL
 40
1.0
  9
$DIMFXLON
 70
     0
  9
$DIMJOGANG
 40
0.7853981634
  9
$DIMTFILL
 70
     0
  9
$DIMTFILLCLR
 70
     0
  9
$DIMARCSYM
 70
     0
  9
$DIMLTYPE
  6

  9
$DIMLTEX1
  6

  9
$DIMLTEX2
  6

  9
$LUNITS
 70
     2
  9
$LUPREC
 70
     2
  9
$SKETCHINC
 40
1.0
  9
$FILLETRAD
 40
10.0
  9
$AUNITS
 70
     0
  9
$AUPREC
 70
     2
  9
$MENU
  1
.
  9
$ELEVATION
 40
0.0
  9
$PELEVATION
 40
0.0
  9
$THICKNESS
 40
0.0
  9
$LIMCHECK
 70
     0
  9
$CHAMFERA
 40
10.0
  9
$CHAMFERB
 40
10.0
  9
$CHAMFERC
 40
20.0
  9
$CHAMFERD
 40
0.0
  9
$SKPOLY
 70
     0
  9
$TDCREATE
 40
2456142.644987153
  9
$TDUCREATE
 40
2456142.144987153
  9
$TDUPDATE
 40
2456142.644987165
  9
$TDUUPDATE
 40
2456142.144987165
  9
$TDINDWG
 40
0.0000000116
  9
$TDUSRTIMER
 40
0.0000000116
  9
$USRTIMER
 70
     1
  9
$ANGBASE
 50
0.0
  9
$ANGDIR
 70
     0
  9
$PDMODE
 70
     0
  9
$PDSIZE
 40
-1.0
  9
$PLINEWID
 40
0.0
  9
$SPLFRAME
 70
     0
  9
$SPLINETYPE
 70
     6
  9
$SPLINESEGS
 70
     8
  9
$HANDSEED
  5
195
  9
$SURFTAB1
 70
     6
  9
$SURFTAB2
 70
     6
  9
$SURFTYPE
 70
     6
  9
$SURFU
 70
     6
  9
$SURFV
 70
     6
  9
$UCSBASE
  2

  9
$UCSNAME
  2

  9
$UCSORG
 10
0.0
 20
0.0
 30
0.0
  9
$UCSXDIR
 10
1.0
 20
0.0
 30
0.0
  9
$UCSYDIR
 10
0.0
 20
1.0
 30
0.0
  9
$UCSORTHOREF
  2

  9
$UCSORTHOVIEW
 70
     0
  9
$UCSORGTOP
 10
0.0
 20
0.0
 30
0.0
  9
$UCSORGBOTTOM
 10
0.0
 20
0.0
 30
0.0
  9
$UCSORGLEFT
 10
0.0
 20
0.0
 30
0.0
  9
$UCSORGRIGHT
 10
0.0
 20
0.0
 30
0.0
  9
$UCSORGFRONT
 10
0.0
 20
0.0
 30
0.0
  9
$UCSORGBACK
 10
0.0
 20
0.0
 30
0.0
  9
$PUCSBASE
  2

  9
$PUCSNAME
  2

  9
$PUCSORG
 10
0.0
 20
0.0
 30
0.0
  9
$PUCSXDIR
 10
1.0
 20
0.0
 30
0.0
  9
$PUCSYDIR
 10
0.0
 20
1.0
 30
0.0
  9
$PUCSORTHOREF
  2

  9
$PUCSORTHOVIEW
 70
     0
  9
$PUCSORGTOP
 10
0.0
 20
0.0
 30
0.0
  9
$PUCSORGBOTTOM
 10
0.0
 20
0.0
 30
0.0
  9
$PUCSORGLEFT
 10
0.0
 20
0.0
 30
0.0
  9
$PUCSORGRIGHT
 10
0.0
 20
0.0
 30
0.0
  9
$PUCSORGFRONT
 10
0.0
 20
0.0
 30
0.0
  9
$PUCSORGBACK
 10
0.0
 20
0.0
 30
0.0
  9
$USERI1
 70
     0
  9
$USERI2
 70
     0
  9
$USERI3
 70
     0
  9
$USERI4
 70
     0
  9
$USERI5
 70
     0
  9
$USERR1
 40
0.0
  9
$USERR2
 40
0.0
  9
$USERR3
 40
0.0
  9
$USERR4
 40
0.0
  9
$USERR5
 40
0.0
  9
$WORLDVIEW
 70
     1
  9
$SHADEDGE
 70
     3
  9
$SHADEDIF
 70
    70
  9
$TILEMODE
 70
     1
  9
$MAXACTVP
 70
    64
  9
$PINSBASE
 10
0.0
 20
0.0
 30
0.0
  9
$PLIMCHECK
 70
     0
  9
$PEXTMIN
 10
1.0000000000E+20
 20
1.0000000000E+20
 30
1.0000000000E+20
  9
$PEXTMAX
 10
-1.0000000000E+20
 20
-1.0000000000E+20
 30
-1.0000000000E+20
  9
$PLIMMIN
 10
0.0
 20
0.0
  9
$PLIMMAX
 10
420.0
 20
297.0
  9
$UNITMODE
 70
     0
  9
$VISRETAIN
 70
     1
  9
$PLINEGEN
 70
     0
  9
$PSLTSCALE
 70
     1
  9
$TREEDEPTH
 70
  3020
  9
$CMLSTYLE
  2
Standard
  9
$CMLJUST
 70
     0
  9
$CMLSCALE
 40
20.0
  9
$PROXYGRAPHICS
 70
     1
  9
$MEASUREMENT
 70
     1
  9
$CELWEIGHT
370
    -1
  9
$ENDCAPS
280
     0
  9
$JOINSTYLE
280
     0
  9
$LWDISPLAY
290
     1
  9
$INSUNITS
 70
     4
  9
$HYPERLINKBASE
  1

  9
$STYLESHEET
  1

  9
$XEDIT
290
     1
  9
$CEPSNTYPE
380
     0
  9
$PSTYLEMODE
290
     1
  9
$FINGERPRINTGUID
  2
{9EE68D16-0E40-40DD-999B-8DCC53FF47FF}
  9
$VERSIONGUID
  2
{FAEB1C32-E019-11D5-929B-00C0DF256EC4}
  9
$EXTNAMES
290
     1
  9
$PSVPSCALE
 40
0.0
  9
$OLESTARTUP
290
     0
  9
$SORTENTS
280
   127
  9
$INDEXCTL
280
     0
  9
$HIDETEXT
280
     1
  9
$XCLIPFRAME
290
     0
  9
$HALOGAP
280
     0
  9
$OBSCOLOR
 70
   257
  9
$OBSLTYPE
280
     0
  9
$INTERSECTIONDISPLAY
280
     0
  9
$INTERSECTIONCOLOR
 70
   257
  9
$DIMASSOC
280
     2
  9
$PROJECTNAME
  1

  9
$CAMERADISPLAY
290
     0
  9
$LENSLENGTH
 40
50.0
  9
$CAMERAHEIGHT
 40
0.0
  9
$STEPSPERSEC
 40
2.0
  9
$STEPSIZE
 40
6.0
  9
$3DDWFPREC
 40
2.0
  9
$PSOLWIDTH
 40
5.0
  9
$PSOLHEIGHT
 40
80.0
  9
$LOFTANG1
 40
1.5707963268
  9
$LOFTANG2
 40
1.5707963268
  9
$LOFTMAG1
 40
0.0
  9
$LOFTMAG2
 40
0.0
  9
$LOFTPARAM
 70
     7
  9
$LOFTNORMALS
280
     1
  9
$LATITUDE
 40
37.795
  9
$LONGITUDE
 40
-122.394
  9
$NORTHDIRECTION
 40
0.0
  9
$TIMEZONE
 70
 -8000
  9
$LIGHTGLYPHDISPLAY
280
     1
  9
$TILEMODELIGHTSYNCH
280
     1
  9
$SOLIDHIST
280
     1
  9
$SHOWHIST
280
     1
  9
$DWFFRAME
280
     2
  9
$DGNFRAME
280
     2
  9
$REALWORLDSCALE
290
     1
  9
$INTERFERECOLOR
 62
   256
  9
$CSHADOW
280
     0
  9
$SHADOWPLANELOCATION
 40
0.0
  0
ENDSEC
  0
SECTION
  2
CLASSES
  0
CLASS
  1
ACDBDICTIONARYWDFLT
  2
AcDbDictionaryWithDefault
  3
ObjectDBX Classes
 90
        0
 91
        4
280
     0
281
     0
  0
CLASS
  1
VISUALSTYLE
  2
AcDbVisualStyle
  3
ObjectDBX Classes
 90
     4095
 91
        4
280
     0
281
     0
  0
CLASS
  1
MATERIAL
  2
AcDbMaterial
  3
ObjectDBX Classes
 90
     1153
 91
        4
280
     0
281
     0
  0
CLASS
  1
SCALE
  2
AcDbScale
  3
ObjectDBX Classes
 90
     1153
 91
        4
280
     0
281
     0
  0
CLASS
  1
IMAGEDEF
  2
AcDbRasterImageDef
  3
ISM
 90
        0
 91
        4
280
     0
281
     0
  0
CLASS
  1
IMAGE
  2
AcDbRasterImage
  3
ISM
 90
      127
 91
        5
280
     0
281
     1
  0
CLASS
  1
IMAGEDEF_REACTOR
  2
AcDbRasterImageDefReactor
  3
ISM
 90
        1
 91
        4
280
     0
281
     0
  0
CLASS
  1
DICTIONARYVAR
  2
AcDbDictionaryVar
  3
ObjectDBX Classes
 90
        0
 91
        4
280
     0
281
     0
  0
ENDSEC
  0
SECTION
  2
TABLES
  0
TABLE
  2
VPORT
  5
8
330
0
100
AcDbSymbolTable
 70
     1
  0
VPORT
  5
29
330
8
100
AcDbSymbolTableRecord
100
AcDbViewportTableRecord
  2
*Active
 70
     0
 10
0.0
 20
0.0
 11
1.0
 21
1.0
 12
105.0
 22
148.5
 13
0.0
 23
0.0
 14
10.0
 24
10.0
 15
10.0
 25
10.0
 16
0.0
 26
0.0
 36
1.0
 17
0.0
 27
0.0
 37
0.0
 40
297.0
 41
0.7070707071
 42
50.0
 43
0.0
 44
0.0
 50
0.0
 51
0.0
 71
     0
 72
  2000
 73
     1
 74
     3
 75
     0
 76
     0
 77
     0
 78
     0
281
     0
 65
     1
110
0.0
120
0.0
130
0.0
111
1.0
121
0.0
131
0.0
112
0.0
122
1.0
132
0.0
 79
     0
146
0.0
 60
     3
 61
     5
292
     1
282
     1
141
0.0
142
0.0
 63
   250
  0
ENDTAB
  0
TABLE
  2
LTYPE
  5
5
330
0
100
AcDbSymbolTable
 70
     6
  0
LTYPE
  5
14
330
5
100
AcDbSymbolTableRecord
100
AcDbLinetypeTableRecord
  2
ByBlock
 70
     0
  3

 72
    65
 73
     0
 40
0.0
  0
LTYPE
  5
15
330
5
100
AcDbSymbolTableRecord
100
AcDbLinetypeTableRecord
  2
ByLayer
 70
     0
  3

 72
    65
 73
     0
 40
0.0
  0
LTYPE
  5
16
330
5
100
AcDbSymbolTableRecord
100
AcDbLinetypeTableRecord
  2
Continuous
 70
     0
  3
Solid line
 72
    65
 73
     0
 40
0.0
  0
LTYPE
  5
3F
330
5
100
AcDbSymbolTableRecord
100
AcDbLinetypeTableRecord
  2
HIDDEN
 70
     0
  3
Hidden __ __ __ __ __ __ __ __ __ __ __ __ __ __
 72
    65
 73
     2
 40
1.905
 49
1.27
 74
     0
 49
-0.635
 74
     0
  0
LTYPE
  5
40
330
5
100
AcDbSymbolTableRecord
100
AcDbLinetypeTableRecord
  2
PHANTOM
 70
     0
  3
Phantom ______  __  __  ______  __  __  ______
 72
    65
 73
     6
 40
12.7
 49
6.35
 74
     0
 49
-1.27
 74
     0
 49
1.27
 74
     0
 49
-1.27
 74
     0
 49
1.27
 74
     0
 49
-1.27
 74
     0
  0
LTYPE
  5
41
330
5
100
AcDbSymbolTableRecord
100
AcDbLinetypeTableRecord
  2
CENTER
 70
     0
  3
Center ____ _ ____ _ ____ _ ____ _ ____ _ ____
 72
    65
 73
     4
 40
10.16
 49
6.35
 74
     0
 49
-1.27
 74
     0
 49
1.27
 74
     0
 49
-1.27
 74
     0
  0
LTYPE
  5
42
330
5
100
AcDbSymbolTableRecord
100
AcDbLinetypeTableRecord
  2
CENTERX2
 70
     0
  3
Center (2x) ________  __  ________  __  _____
 72
    65
 73
     4
 40
20.32
 49
12.7
 74
     0
 49
-2.54
 74
     0
 49
2.54
 74
     0
 49
-2.54
 74
     0
  0
LTYPE
  5
43
330
5
100
AcDbSymbolTableRecord
100
AcDbLinetypeTableRecord
  2
DOT2
 70
     0
  3
Dot (.5x) ........................................
 72
    65
 73
     2
 40
0.635
 49
0.0
 74
     0
 49
-0.635
 74
     0
  0
ENDTAB
  0
TABLE
  2
LAYER
  5
2
330
0
100
AcDbSymbolTable
 70
     3
  0
LAYER
  5
10
330
2
100
AcDbSymbolTableRecord
100
AcDbLayerTableRecord
  2
0
 70
     0
 62
     7
  6
Continuous
370
    -3
390
F
347
3E
  0
LAYER
  5
44
330
2
100
AcDbSymbolTableRecord
100
AcDbLayerTableRecord
  2
SLD-0
 70
     0
 62
   179
  6
Continuous
370
    -3
390
F
347
3E
  0
LAYER
  5
45
330
2
100
AcDbSymbolTableRecord
100
AcDbLayerTableRecord
  2
FORMAT
 70
     0
 62
   179
  6
Continuous
370
    -3
390
F
347
3E
  0
ENDTAB
  0
TABLE
  2
STYLE
  5
3
330
0
100
AcDbSymbolTable
 70
     5
  0
STYLE
  5
11
330
3
100
AcDbSymbolTableRecord
100
AcDbTextStyleTableRecord
  2
Standard
 70
     0
 40
0.0
 41
1.0
 50
0.0
 71
     0
 42
2.5
  3
txt
  4

  0
STYLE
  5
49
330
3
100
AcDbSymbolTableRecord
100
AcDbTextStyleTableRecord
  2
SLDTEXTSTYLE0
 70
     0
 40
0.0
 41
0.4457894737
 50
0.0
 71
     0
 42
0.2
  3
TXT
  4

  0
STYLE
  5
8E
330
3
100
AcDbSymbolTableRecord
100
AcDbTextStyleTableRecord
  2
SLDTEXTSTYLE1
 70
     0
 40
0.0
 41
0.5526315789
 50
0.0
 71
     0
 42
0.2
  3
TXT
  4

  0
STYLE
  5
90
330
3
100
AcDbSymbolTableRecord
100
AcDbTextStyleTableRecord
  2
SLDTEXTSTYLE2
 70
     0
 40
0.0
 41
0.5065789474
 50
0.0
 71
     0
 42
0.2
  3
TXT
  4

  0
STYLE
  5
9B
330
3
100
AcDbSymbolTableRecord
100
AcDbTextStyleTableRecord
  2
SLDTEXTSTYLE3
 70
     0
 40
0.0
 41
0.75
 50
0.0
 71
     0
 42
0.2
  3
TXT
  4

  0
ENDTAB
  0
TABLE
  2
VIEW
  5
6
330
0
100
AcDbSymbolTable
 70
     0
  0
ENDTAB
  0
TABLE
  2
UCS
  5
7
330
0
100
AcDbSymbolTable
 70
     0
  0
ENDTAB
  0
TABLE
  2
APPID
  5
9
330
0
100
AcDbSymbolTable
 70
     1
  0
APPID
  5
12
330
9
100
AcDbSymbolTableRecord
100
AcDbRegAppTableRecord
  2
ACAD
 70
     0
  0
ENDTAB
  0
TABLE
  2
DIMSTYLE
  5
A
330
0
100
AcDbSymbolTable
 70
     3
100
AcDbDimStyleTable
  0
DIMSTYLE
105
27
330
A
100
AcDbSymbolTableRecord
100
AcDbDimStyleTableRecord
  2
ISO-25
 70
     0
 41
2.5
 42
0.625
 43
3.75
 44
1.25
 73
     0
 74
     0
 77
     1
 78
     8
140
2.5
141
2.5
143
0.0393700787
147
0.625
171
     3
172
     1
271
     2
272
     2
274
     3
278
    44
283
     0
284
     8
340
11
  0
DIMSTYLE
105
D2
102
{ACAD_REACTORS
330
D1
330
E7
102
}
330
A
100
AcDbSymbolTableRecord
100
AcDbDimStyleTableRecord
  2
SLDDIMSTYLE0
 70
     0
 41
3.302
 44
0.0
 45
0.000000001
 73
     0
 77
     1
 78
    12
140
3.5
147
0.875
173
     1
271
     0
272
     2
284
    12
340
9B
  0
DIMSTYLE
105
DD
102
{ACAD_REACTORS
330
DC
330
167
102
}
330
A
100
AcDbSymbolTableRecord
100
AcDbDimStyleTableRecord
  2
SLDDIMSTYLE1
 70
     0
 41
3.302
 44
0.0
 45
0.000000001
 73
     0
 77
     1
 78
    12
140
3.5
147
0.875
173
     1
271
     1
272
     2
284
    12
340
9B
  0
ENDTAB
  0
TABLE
  2
BLOCK_RECORD
  5
1
330
0
100
AcDbSymbolTable
 70
     8
  0
BLOCK_RECORD
  5
1F
330
1
100
AcDbSymbolTableRecord
100
AcDbBlockTableRecord
  2
*Model_Space
340
22
 70
     0
280
     1
281
     0
  0
BLOCK_RECORD
  5
1B
330
1
100
AcDbSymbolTableRecord
100
AcDbBlockTableRecord
  2
*Paper_Space
340
1E
 70
     0
280
     1
281
     0
  0
BLOCK_RECORD
  5
23
330
1
100
AcDbSymbolTableRecord
100
AcDbBlockTableRecord
  2
*Paper_Space0
340
26
 70
     0
280
     1
281
     0
  0
BLOCK_RECORD
  5
46
330
1
100
AcDbSymbolTableRecord
100
AcDbBlockTableRecord
  2
SW_NOTE_0
340
0
102
{BLKREFS
331
8B
102
}
 70
     0
280
     1
281
     0
  0
BLOCK_RECORD
  5
6E
330
1
100
AcDbSymbolTableRecord
100
AcDbBlockTableRecord
  2
SW_NOTE_1
340
0
102
{BLKREFS
331
8C
102
}
 70
     0
280
     1
281
     0
  0
BLOCK_RECORD
  5
98
330
1
100
AcDbSymbolTableRecord
100
AcDbBlockTableRecord
  2
SW_NOTE_0_1
340
0
102
{BLKREFS
331
9F
102
}
 70
     0
280
     1
281
     0
  0
BLOCK_RECORD
  5
D3
330
1
100
AcDbSymbolTableRecord
100
AcDbBlockTableRecord
  2
*D4
340
0
 70
     0
280
     1
281
     0
  0
BLOCK_RECORD
  5
DE
330
1
100
AcDbSymbolTableRecord
100
AcDbBlockTableRecord
  2
*D5
340
0
 70
     0
280
     1
281
     0
  0
BLOCK_RECORD
  5
E8
330
1
100
AcDbSymbolTableRecord
100
AcDbBlockTableRecord
  2
*D6
340
0
 70
     0
280
     1
281
     0
  0
BLOCK_RECORD
  5
168
330
1
100
AcDbSymbolTableRecord
100
AcDbBlockTableRecord
  2
*D7
340
0
 70
     0
280
     1
281
     0
  0
ENDTAB
  0
ENDSEC
  0
SECTION
  2
BLOCKS
  0
BLOCK
  5
20
330
1F
100
AcDbEntity
  8
0
100
AcDbBlockBegin
  2
*Model_Space
 70
     0
 10
0.0
 20
0.0
 30
0.0
  3
*Model_Space
  1

  0
ENDBLK
  5
21
330
1F
100
AcDbEntity
  8
0
100
AcDbBlockEnd
  0
BLOCK
  5
1C
330
1B
100
AcDbEntity
 67
     1
  8
0
100
AcDbBlockBegin
  2
*Paper_Space
 70
     0
 10
0.0
 20
0.0
 30
0.0
  3
*Paper_Space
  1

  0
ENDBLK
  5
1D
330
1B
100
AcDbEntity
 67
     1
  8
0
100
AcDbBlockEnd
  0
BLOCK
  5
24
330
23
100
AcDbEntity
  8
0
100
AcDbBlockBegin
  2
*Paper_Space0
 70
     0
 10
0.0
 20
0.0
 30
0.0
  3
*Paper_Space0
  1

  0
ENDBLK
  5
25
330
23
100
AcDbEntity
  8
0
100
AcDbBlockEnd
  0
BLOCK
  5
47
330
46
100
AcDbEntity
  8
0
100
AcDbBlockBegin
  2
SW_NOTE_0
 70
     0
 10
0.0
 20
0.0
 30
0.0
  3
SW_NOTE_0
  1

  0
MTEXT
  5
6C
330
46
100
AcDbEntity
  8
SLD-0
 48
10.0
100
AcDbMText
 10
0.0
 20
16.0053660025
 30
0.0
 40
15.0
 41
0.0
 46
0.0
 71
     1
 72
     1
  1
Disclaimer: This information is intended solely as a guide for use fo Marley NZ products. Before using you should ensure that the product is suitable for use in the specific application. 
  7
SLDTEXTSTYLE0
 73
     1
 44
1.0
  0
MTEXT
  5
6D
330
46
100
AcDbEntity
  8
SLD-0
 48
10.0
100
AcDbMText
 10
0.0
 20
-8.9946334395
 30
0.0
 40
15.0
 41
0.0
 46
0.0
 71
     1
 72
     1
  1
Marley NZ makes no warranty regarding the use of this information with non-Marley NZ products. This drawing is the property of Marley NZ Ltd.
  7
SLDTEXTSTYLE0
 73
     1
 44
1.0
  0
ENDBLK
  5
48
330
46
100
AcDbEntity
  8
0
100
AcDbBlockEnd
  0
BLOCK
  5
6F
330
6E
100
AcDbEntity
  8
0
100
AcDbBlockBegin
  2
SW_NOTE_1
 70
     0
 10
0.0
 20
0.0
 30
0.0
  3
SW_NOTE_1
  1

  0
MTEXT
  5
71
330
6E
100
AcDbEntity
  8
SLD-0
 48
10.0
100
AcDbMText
 10
0.0
 20
25.4085168109
 30
0.0
 40
23.8125
 41
0.0
 46
0.0
 71
     1
 72
     1
  1
0800 MARLEY
  7
SLDTEXTSTYLE0
 73
     1
 44
1.0
  0
MTEXT
  5
72
330
6E
100
AcDbEntity
  8
SLD-0
 48
10.0
100
AcDbMText
 10
-20.973738283
 20
-6.3414828051
 30
0.0
 40
23.8125
 41
0.0
 46
0.0
 71
     1
 72
     1
  1
www.marley.co.nz
  7
SLDTEXTSTYLE0
 73
     1
 44
1.0
  0
ENDBLK
  5
70
330
6E
100
AcDbEntity
  8
0
100
AcDbBlockEnd
  0
BLOCK
  5
99
330
98
100
AcDbEntity
  8
0
100
AcDbBlockBegin
  2
SW_NOTE_0_1
 70
     0
 10
0.0
 20
0.0
 30
0.0
  3
SW_NOTE_0_1
  1

  0
MTEXT
  5
9C
330
98
100
AcDbEntity
  8
SLD-0
 62
     0
 48
10.0
100
AcDbMText
 10
0.0
 20
4.0927900738
 30
0.0
 40
3.175
 41
0.0
 46
0.0
 71
     1
 72
     1
  1
NOTE: Fixing recommendations
  7
SLDTEXTSTYLE3
 73
     1
 44
1.0
  0
MTEXT
  5
9D
330
98
100
AcDbEntity
  8
SLD-0
 62
     0
 48
10.0
100
AcDbMText
 10
0.0
 20
-0.1171193985
 30
0.0
 40
2.6458333333
 41
0.0
 46
0.0
 71
     1
 72
     1
  1
Stainless Steel, grade 304 8g screw with neutral coloured 
  7
SLDTEXTSTYLE3
 73
     1
 44
1.0
  0
MTEXT
  5
9E
330
98
100
AcDbEntity
  8
SLD-0
 62
     0
 48
10.0
100
AcDbMText
 10
0.0
 20
-3.6448971337
 30
0.0
 40
2.6458333333
 41
0.0
 46
0.0
 71
     1
 72
     1
  1
washer to go between clip and wall. 
  7
SLDTEXTSTYLE3
 73
     1
 44
1.0
  0
ENDBLK
  5
9A
330
98
100
AcDbEntity
  8
0
100
AcDbBlockEnd
  0
BLOCK
  5
D4
330
D3
100
AcDbEntity
  8
0
100
AcDbBlockBegin
  2
*D4
 70
     1
 10
0.0
 20
0.0
 30
0.0
  3
*D4
  1

  0
SOLID
  5
D6
330
D3
100
AcDbEntity
  8
SLD-0
 48
10.0
100
AcDbTrace
 10
23.1426104432
 20
77.6311339226
 30
0.0
 11
26.4446104432
 21
77.1231339226
 31
0.0
 12
26.4446104432
 22
78.1391339226
 32
0.0
 13
26.4446104432
 23
78.1391339226
 33
0.0
  0
SOLID
  5
D7
330
D3
100
AcDbEntity
  8
SLD-0
 48
10.0
100
AcDbTrace
 10
163.1426104432
 20
77.6311339226
 30
0.0
 11
159.8406104432
 21
78.1391339226
 31
0.0
 12
159.8406104432
 22
77.1231339226
 32
0.0
 13
159.8406104432
 23
77.1231339226
 33
0.0
  0
LINE
  5
D8
330
D3
100
AcDbEntity
  8
SLD-0
 48
10.0
100
AcDbLine
 10
23.1426104432
 20
92.6311339226
 30
0.0
 11
23.1426104432
 21
76.6311339226
 31
0.0
  0
LINE
  5
D9
330
D3
100
AcDbEntity
  8
SLD-0
 48
10.0
100
AcDbLine
 10
163.1426104432
 20
92.6311339226
 30
0.0
 11
163.1426104432
 21
76.6311339226
 31
0.0
  0
LINE
  5
DA
330
D3
100
AcDbEntity
  8
SLD-0
 48
10.0
100
AcDbLine
 10
23.1426104432
 20
77.6311339226
 30
0.0
 11
163.1426104432
 21
77.6311339226
 31
0.0
  0
MTEXT
  5
DB
330
D3
100
AcDbEntity
  8
SLD-0
 48
10.0
100
AcDbMText
 10
86.45100118
 20
82.1428708371
 30
0.0
 40
3.5
 41
0.0
 46
0.0
 71
     1
 72
     1
  1
140
  7
SLDTEXTSTYLE3
 73
     1
 44
1.0
  0
ENDBLK
  5
D5
330
D3
100
AcDbEntity
  8
0
100
AcDbBlockEnd
  0
BLOCK
  5
DF
330
DE
100
AcDbEntity
  8
0
100
AcDbBlockBegin
  2
*D5
 70
     1
 10
0.0
 20
0.0
 30
0.0
  3
*D5
  1

  0
SOLID
  5
E1
330
DE
100
AcDbEntity
  8
SLD-0
 48
10.0
100
AcDbTrace
 10
22.1779793881
 20
93.6311339226
 30
0.0
 11
22.6859793881
 21
96.9331339226
 31
0.0
 12
21.6699793881
 22
96.9331339226
 32
0.0
 13
21.6699793881
 23
96.9331339226
 33
0.0
  0
SOLID
  5
E2
330
DE
100
AcDbEntity
  8
SLD-0
 48
10.0
100
AcDbTrace
 10
22.1779793881
 20
194.1311339226
 30
0.0
 11
21.6699793881
 21
190.8291339226
 31
0.0
 12
22.6859793881
 22
190.8291339226
 32
0.0
 13
22.6859793881
 23
190.8291339226
 33
0.0
  0
LINE
  5
E3
330
DE
100
AcDbEntity
  8
SLD-0
 48
10.0
100
AcDbLine
 10
22.1426104432
 20
93.6311339226
 30
0.0
 11
21.1779793881
 21
93.6311339226
 31
0.0
  0
LINE
  5
E4
330
DE
100
AcDbEntity
  8
SLD-0
 48
10.0
100
AcDbLine
 10
92.1426104432
 20
194.1311339226
 30
0.0
 11
21.1779793881
 21
194.1311339226
 31
0.0
  0
LINE
  5
E5
330
DE
100
AcDbEntity
  8
SLD-0
 48
10.0
100
AcDbLine
 10
22.1779793881
 20
93.6311339226
 30
0.0
 11
22.1779793881
 21
194.1311339226
 31
0.0
  0
MTEXT
  5
E6
330
DE
100
AcDbEntity
  8
SLD-0
 48
10.0
100
AcDbMText
 10
17.6662424736
 20
141.816309723
 30
0.0
 40
3.5
 41
0.0
 46
0.0
 71
     1
 72
     1
  1
100.5
  7
SLDTEXTSTYLE3
 11
-6.049014748177263E-16
 21
1.0
 31
0.0
 73
     1
 44
1.0
  0
ENDBLK
  5
E0
330
DE
100
AcDbEntity
  8
0
100
AcDbBlockEnd
  0
BLOCK
  5
E9
330
E8
100
AcDbEntity
  8
0
100
AcDbBlockBegin
  2
*D6
 70
     1
 10
0.0
 20
0.0
 30
0.0
  3
*D6
  1

  0
SOLID
  5
EB
330
E8
100
AcDbEntity
  8
SLD-0
 48
10.0
100
AcDbTrace
 10
148.6426104432
 20
83.6311339226
 30
0.0
 11
145.3406104432
 21
84.1391339226
 31
0.0
 12
145.3406104432
 22
83.1231339226
 32
0.0
 13
145.3406104432
 23
83.1231339226
 33
0.0
  0
SOLID
  5
EC
330
E8
100
AcDbEntity
  8
SLD-0
 48
10.0
100
AcDbTrace
 10
37.6426104432
 20
83.6311339226
 30
0.0
 11
40.9446104432
 21
83.1231339226
 31
0.0
 12
40.9446104432
 22
84.1391339226
 32
0.0
 13
40.9446104432
 23
84.1391339226
 33
0.0
  0
LINE
  5
ED
330
E8
100
AcDbEntity
  8
SLD-0
 48
10.0
100
AcDbLine
 10
148.6426104432
 20
92.6311339226
 30
0.0
 11
148.6426104432
 21
82.6311339226
 31
0.0
  0
LINE
  5
EE
330
E8
100
AcDbEntity
  8
SLD-0
 48
10.0
100
AcDbLine
 10
37.6426104432
 20
92.6311339226
 30
0.0
 11
37.6426104432
 21
82.6311339226
 31
0.0
  0
LINE
  5
EF
330
E8
100
AcDbEntity
  8
SLD-0
 48
10.0
100
AcDbLine
 10
148.6426104432
 20
83.6311339226
 30
0.0
 11
37.6426104432
 21
83.6311339226
 31
0.0
  0
MTEXT
  5
F0
330
E8
100
AcDbEntity
  8
SLD-0
 48
10.0
100
AcDbMText
 10
86.45100118
 20
88.1428708371
 30
0.0
 40
3.5
 41
0.0
 46
0.0
 71
     1
 72
     1
  1
111
  7
SLDTEXTSTYLE3
 73
     1
 44
1.0
  0
ENDBLK
  5
EA
330
E8
100
AcDbEntity
  8
0
100
AcDbBlockEnd
  0
BLOCK
  5
169
330
168
100
AcDbEntity
  8
0
100
AcDbBlockBegin
  2
*D7
 70
     1
 10
0.0
 20
0.0
 30
0.0
  3
*D7
  1

  0
SOLID
  5
16B
330
168
100
AcDbEntity
  8
SLD-0
 48
10.0
100
AcDbTrace
 10
195.6703145031
 20
83.6311339226
 30
0.0
 11
192.3683145031
 21
84.1391339226
 31
0.0
 12
192.3683145031
 22
83.1231339226
 32
0.0
 13
192.3683145031
 23
83.1231339226
 33
0.0
  0
SOLID
  5
16C
330
168
100
AcDbEntity
  8
SLD-0
 48
10.0
100
AcDbTrace
 10
173.3703145031
 20
83.6311339226
 30
0.0
 11
176.6723145031
 21
83.1231339226
 31
0.0
 12
176.6723145031
 22
84.1391339226
 32
0.0
 13
176.6723145031
 23
84.1391339226
 33
0.0
  0
LINE
  5
16D
330
168
100
AcDbEntity
  8
SLD-0
 48
10.0
100
AcDbLine
 10
195.6703145031
 20
95.8612854416
 30
0.0
 11
195.6703145031
 21
82.6311339226
 31
0.0
  0
LINE
  5
16E
330
168
100
AcDbEntity
  8
SLD-0
 48
10.0
100
AcDbLine
 10
173.3703145031
 20
95.8612854416
 30
0.0
 11
173.3703145031
 21
82.6311339226
 31
0.0
  0
LINE
  5
16F
330
168
100
AcDbEntity
  8
SLD-0
 48
10.0
100
AcDbLine
 10
195.6703145031
 20
83.6311339226
 30
0.0
 11
173.3703145031
 21
83.6311339226
 31
0.0
  0
MTEXT
  5
170
330
168
100
AcDbEntity
  8
SLD-0
 48
10.0
100
AcDbMText
 10
180.177466248
 20
88.1428708371
 30
0.0
 40
3.5
 41
0.0
 46
0.0
 71
     1
 72
     1
  1
22.3
  7
SLDTEXTSTYLE3
 73
     1
 44
1.0
  0
ENDBLK
  5
16A
330
168
100
AcDbEntity
  8
0
100
AcDbBlockEnd
  0
ENDSEC
  0
SECTION
  2
ENTITIES
  0
IMAGE
  5
75
330
1F
100
AcDbEntity
  8
0
 92
      140
310
8C000000010000008400000006000000050000007B2AF04D7B252440CA7ECED2C0853A400000000000000000D287FE2793E75340CA7ECED2C0853A400000000000000000D287FE2793E75340FC7BB1D4D9E8424000000000000000007B2AF04D7B252440FC7BB1D4D9E8424000000000000000007B2AF04D7B252440CA7ECE
310
D2C0853A400000000000000000
100
AcDbRasterImage
 90
        0
 10
10.0732063633
 20
26.5224735026
 30
0.0
 11
0.1765105338580665
 21
0.0
 31
0.0
 12
0.0
 22
0.1765105338580665
 32
0.0
 13
394.0
 23
64.0
340
74
 70
     7
280
     0
281
    50
282
    50
283
     0
360
76
 71
     1
 91
        2
 14
-0.5
 24
-0.5
 14
393.5
 24
63.5
  0
LINE
  5
77
330
1F
100
AcDbEntity
  8
SLD-0
  6
Continuous
 62
   250
420
  1644836
 48
10.0
370
    40
100
AcDbLine
 10
10.0788435654
 20
5.2147801566
 30
0.0
 11
205.0788435654
 21
5.2147801566
 31
0.0
  0
LINE
  5
78
330
1F
100
AcDbEntity
  8
SLD-0
  6
Continuous
 62
   250
420
  1644836
 48
10.0
370
    40
100
AcDbLine
 10
0.0788435654
 20
0.2147801566
 30
0.0
 11
210.0788435654
 21
0.2147801566
 31
0.0
  0
LINE
  5
79
330
1F
100
AcDbEntity
  8
SLD-0
  6
Continuous
 62
   250
420
  1644836
 48
10.0
370
    40
100
AcDbLine
 10
0.0788435654
 20
0.2147801566
 30
0.0
 11
0.0788435654
 21
297.2147801566
 31
0.0
  0
LINE
  5
7A
330
1F
100
AcDbEntity
  8
SLD-0
  6
Continuous
 62
   250
420
  1644836
 48
10.0
370
    40
100
AcDbLine
 10
0.0788435654
 20
297.2147801566
 30
0.0
 11
210.0788435654
 21
297.2147801566
 31
0.0
  0
LINE
  5
7B
330
1F
100
AcDbEntity
  8
SLD-0
  6
Continuous
 62
   250
420
  1644836
 48
10.0
370
    40
100
AcDbLine
 10
210.0788435654
 20
0.2147801566
 30
0.0
 11
210.0788435654
 21
297.2147801566
 31
0.0
  0
LINE
  5
7C
330
1F
100
AcDbEntity
  8
SLD-0
  6
Continuous
 62
   250
420
  1644836
 48
10.0
370
    40
100
AcDbLine
 10
205.0788435654
 20
35.066192565
 30
0.0
 11
116.9116953245
 21
35.066192565
 31
0.0
  0
LINE
  5
7D
330
1F
100
AcDbEntity
  8
SLD-0
  6
Continuous
 62
   250
420
  1644836
 48
10.0
370
    40
100
AcDbLine
 10
10.0788435654
 20
292.2147801566
 30
0.0
 11
205.0788435654
 21
292.2147801566
 31
0.0
  0
LINE
  5
7E
330
1F
100
AcDbEntity
  8
SLD-0
  6
Continuous
 62
   250
420
  1644836
 48
10.0
370
    40
100
AcDbLine
 10
205.0788435654
 20
5.2147801566
 30
0.0
 11
180.9883118484
 21
5.2147801566
 31
0.0
  0
LINE
  5
7F
330
1F
100
AcDbEntity
  8
SLD-0
  6
Continuous
 62
   250
420
  1644836
 48
10.0
370
    40
100
AcDbLine
 10
10.0788435654
 20
5.2147801566
 30
0.0
 11
10.0788435654
 21
292.2147801566
 31
0.0
  0
LINE
  5
80
330
1F
100
AcDbEntity
  8
SLD-0
  6
Continuous
 62
   250
420
  1644836
 48
10.0
370
    40
100
AcDbLine
 10
10.0788435654
 20
11.2357498601
 30
0.0
 11
205.0788435654
 21
11.2357498601
 31
0.0
  0
LINE
  5
81
330
1F
100
AcDbEntity
  8
SLD-0
  6
Continuous
 62
   250
420
  1644836
 48
10.0
370
    40
100
AcDbLine
 10
205.0788435654
 20
43.3709272577
 30
0.0
 11
10.1108209117
 21
43.3709272577
 31
0.0
  0
LINE
  5
82
330
1F
100
AcDbEntity
  8
SLD-0
  6
Continuous
 62
   250
420
  1644836
 48
10.0
370
    40
100
AcDbLine
 10
210.0788435654
 20
292.2147801566
 30
0.0
 11
210.0788435654
 21
297.2147801566
 31
0.0
  0
LINE
  5
83
330
1F
100
AcDbEntity
  8
SLD-0
  6
Continuous
 62
   250
420
  1644836
 48
10.0
370
    40
100
AcDbLine
 10
79.7554204619
 20
22.1812450349
 30
0.0
 11
79.7554204619
 21
43.3709272577
 31
0.0
  0
LINE
  5
84
330
1F
100
AcDbEntity
  8
SLD-0
  6
Continuous
 62
   250
420
  1644836
 48
10.0
370
    40
100
AcDbLine
 10
10.1108209117
 20
60.3709272577
 30
0.0
 11
10.1108209117
 21
5.1209272577
 31
0.0
  0
LINE
  5
85
330
1F
100
AcDbEntity
  8
SLD-0
  6
Continuous
 62
   250
420
  1644836
 48
10.0
370
    40
100
AcDbLine
 10
10.0788435654
 20
22.2147801566
 30
0.0
 11
205.0788435654
 21
22.1209272577
 31
0.0
  0
LINE
  5
86
330
1F
100
AcDbEntity
  8
SLD-0
  6
Continuous
 62
   250
420
  1644836
 48
10.0
370
    40
100
AcDbLine
 10
116.9080516189
 20
43.3709272577
 30
0.0
 11
116.9173564476
 21
22.1633591097
 31
0.0
  0
LINE
  5
87
330
1F
100
AcDbEntity
  8
SLD-0
  6
Continuous
 62
   250
420
  1644836
 48
10.0
370
    40
100
AcDbLine
 10
160.8788435654
 20
5.2147801566
 30
0.0
 11
160.8788435654
 21
11.2357498601
 31
0.0
  0
LINE
  5
88
330
1F
100
AcDbEntity
  8
SLD-0
  6
Continuous
 62
   250
420
  1644836
 48
10.0
370
    40
100
AcDbLine
 10
192.0788435654
 20
11.2357498601
 30
0.0
 11
192.0788435654
 21
22.2147801566
 31
0.0
  0
LINE
  5
89
330
1F
100
AcDbEntity
  8
SLD-0
  6
Continuous
 62
   250
420
  1644836
 48
10.0
370
    40
100
AcDbLine
 10
205.0788435654
 20
13.7147801566
 30
0.0
 11
192.0788435654
 21
13.7147801566
 31
0.0
  0
LINE
  5
8A
330
1F
100
AcDbEntity
  8
SLD-0
  6
Continuous
 62
   250
420
  1644836
 48
10.0
370
    40
100
AcDbLine
 10
205.0788435654
 20
5.2147801566
 30
0.0
 11
205.0788435654
 21
292.2147801566
 31
0.0
  0
INSERT
  5
8B
330
1F
100
AcDbEntity
  8
0
  6
Continuous
 62
     7
 48
10.0
100
AcDbBlockReference
  2
SW_NOTE_0
 10
12.3050601837
 20
16.8389604502
 30
0.0
 41
0.1
 42
0.1
 43
0.1
  0
INSERT
  5
8C
330
1F
100
AcDbEntity
  8
0
  6
Continuous
 62
     7
 48
10.0
100
AcDbBlockReference
  2
SW_NOTE_1
 10
87.196611182
 20
32.8969357155
 30
0.0
 41
0.1
 42
0.1
 43
0.1
  0
MTEXT
  5
8D
330
1F
100
AcDbEntity
  8
SLD-0
 62
   250
420
  1644836
 48
10.0
100
AcDbMText
 10
131.9867841055
 20
40.1015259906
 30
0.0
 40
3.175
 41
0.0
 46
0.0
 71
     1
 72
     1
  1
RP65 Saddle Clip
  7
SLDTEXTSTYLE0
 73
     1
 44
1.0
  0
MTEXT
  5
8F
330
1F
100
AcDbEntity
  8
SLD-0
 62
   250
420
  1644836
 48
10.0
100
AcDbMText
 10
195.9998284117
 20
18.8689860195
 30
0.0
 40
2.9104166667
 41
0.0
 46
0.0
 71
     1
 72
     1
  1
A4
  7
SLDTEXTSTYLE1
 73
     1
 44
1.0
  0
MTEXT
  5
91
330
1F
100
AcDbEntity
  8
SLD-0
 62
   250
420
  1644836
 48
10.0
100
AcDbMText
 10
164.0281072696
 20
8.5413340856
 30
0.0
 40
1.5
 41
0.0
 46
0.0
 71
     1
 72
     1
  1
SHEET 1 OF 1
  7
SLDTEXTSTYLE2
 73
     1
 44
1.0
  0
MTEXT
  5
92
330
1F
100
AcDbEntity
  8
SLD-0
 62
   250
420
  1644836
 48
10.0
100
AcDbMText
 10
14.3797311356
 20
8.5413340856
 30
0.0
 40
1.5
 41
0.0
 46
0.0
 71
     1
 72
     1
  1
SCALE:
  7
SLDTEXTSTYLE1
 73
     1
 44
1.0
  0
MTEXT
  5
93
330
1F
100
AcDbEntity
  8
SLD-0
 62
   250
420
  1644836
 48
10.0
100
AcDbMText
 10
92.7036146979
 20
40.1514661596
 30
0.0
 40
1.5
 41
0.0
 46
0.0
 71
     1
 72
     1
  1
CONTACT:
  7
SLDTEXTSTYLE1
 73
     1
 44
1.0
  0
MTEXT
  5
94
330
1F
100
AcDbEntity
  8
SLD-0
 62
   250
420
  1644836
 48
10.0
100
AcDbMText
 10
23.5366971372
 20
9.0162768564
 30
0.0
 40
2.1166666667
 41
0.0
 46
0.0
 71
     1
 72
     1
  1
1:2
  7
SLDTEXTSTYLE0
 73
     1
 44
1.0
  0
MTEXT
  5
95
330
1F
100
AcDbEntity
  8
SLD-0
 62
   250
420
  1644836
 48
10.0
100
AcDbMText
 10
122.1441575388
 20
38.7971767854
 30
0.0
 40
1.5
 41
0.0
 46
0.0
 71
     1
 72
     1
  1
DWG NO.
  7
SLDTEXTSTYLE1
 73
     1
 44
1.0
  0
MTEXT
  5
96
330
1F
100
AcDbEntity
  8
SLD-0
 62
   250
420
  1644836
 48
10.0
100
AcDbMText
 10
128.2479860907
 20
30.2467692619
 30
0.0
 40
3.175
 41
0.0
 46
0.0
 71
     1
 72
     1
  1
65mm Round Downpipe with Saddle Clip
  7
SLDTEXTSTYLE0
 73
     1
 44
1.0
  0
MTEXT
  5
97
330
1F
100
AcDbEntity
  8
SLD-0
 62
   250
420
  1644836
 48
10.0
100
AcDbMText
 10
128.9875122993
 20
8.4914975992
 30
0.0
 40
1.5
 41
0.0
 46
0.0
 71
     1
 72
     1
  1
DATE: 30/04/12
  7
SLDTEXTSTYLE1
 73
     1
 44
1.0
  0
INSERT
  5
9F
330
1F
100
AcDbEntity
  8
SLD-0
 48
10.0
100
AcDbBlockReference
  2
SW_NOTE_0_1
 10
14.2414775022
 20
53.8384995651
 30
0.0
  0
LINE
  5
A0
330
1F
100
AcDbEntity
  8
0
  6
Continuous
 62
     7
 48
10.0
370
    15
100
AcDbLine
 10
23.1426104432
 20
95.6311339226
 30
0.0
 11
23.1426104432
 21
93.6311339226
 31
0.0
  0
LINE
  5
A1
330
1F
100
AcDbEntity
  8
0
  6
Continuous
 62
     7
 48
10.0
370
    15
100
AcDbLine
 10
163.1426104432
 20
93.6311339226
 30
0.0
 11
163.1426104432
 21
95.6311339226
 31
0.0
  0
ARC
  5
A2
330
1F
100
AcDbEntity
  8
0
  6
Continuous
 62
     7
 48
100.0
370
    15
100
AcDbCircle
 10
24.1426104432
 20
95.6311339226
 30
0.0
 40
1.0
100
AcDbArc
 50
90.0
 51
180.0
  0
ARC
  5
A3
330
1F
100
AcDbEntity
  8
0
  6
Continuous
 62
     7
 48
100.0
370
    15
100
AcDbCircle
 10
162.1426104432
 20
95.6311339226
 30
0.0
 40
1.0
100
AcDbArc
 50
0.0
 51
90.0
  0
LINE
  5
A4
330
1F
100
AcDbEntity
  8
0
  6
Continuous
 62
     7
 48
10.0
370
    15
100
AcDbLine
 10
34.2926104432
 20
93.6311339226
 30
0.0
 11
23.1426104432
 21
93.6311339226
 31
0.0
  0
LINE
  5
A5
330
1F
100
AcDbEntity
  8
0
  6
Continuous
 62
     7
 48
10.0
370
    15
100
AcDbLine
 10
34.2926104432
 20
95.6311339226
 30
0.0
 11
34.2926104432
 21
93.6311339226
 31
0.0
  0
LINE
  5
A6
330
1F
100
AcDbEntity
  8
0
  6
Continuous
 62
     7
 48
10.0
370
    15
100
AcDbLine
 10
163.1426104432
 20
93.6311339226
 30
0.0
 11
151.9926104432
 21
93.6311339226
 31
0.0
  0
LINE
  5
A7
330
1F
100
AcDbEntity
  8
0
  6
Continuous
 62
     7
 48
10.0
370
    15
100
AcDbLine
 10
151.9926104432
 20
93.6311339226
 30
0.0
 11
151.9926104432
 21
95.6311339226
 31
0.0
  0
ARC
  5
A8
330
1F
100
AcDbEntity
  8
0
  6
Continuous
 62
     7
 48
100.0
370
    15
100
AcDbCircle
 10
45.9744863565
 20
99.8311339226
 30
0.0
 40
3.200000000000003
100
AcDbArc
 50
270.0
 51
315.0
  0
LINE
  5
A9
330
1F
100
AcDbEntity
  8
0
  6
Continuous
 62
     7
 48
10.0
370
    15
100
AcDbLine
 10
48.2372280563
 20
97.5683922228
 30
0.0
 11
48.9443348375
 21
96.8612854416
 31
0.0
  0
ARC
  5
AA
330
1F
100
AcDbEntity
  8
0
  6
Continuous
 62
     7
 48
100.0
370
    15
100
AcDbCircle
 10
45.9744863565
 20
99.8311339226
 30
0.0
 40
4.200000000000003
100
AcDbArc
 50
270.0
 51
315.0
  0
LINE
  5
AB
330
1F
100
AcDbEntity
  8
0
  6
Continuous
 62
     7
 48
10.0
370
    15
100
AcDbLine
 10
45.9744863565
 20
96.6311339226
 30
0.0
 11
45.9744863565
 21
95.6311339226
 31
0.0
  0
LINE
  5
AC
330
1F
100
AcDbEntity
  8
0
  6
Continuous
 62
     7
 48
10.0
370
    15
100
AcDbLine
 10
151.9926104432
 20
95.6311339226
 30
0.0
 11
140.3107345299
 21
95.6311339226
 31
0.0
  0
LINE
  5
AD
330
1F
100
AcDbEntity
  8
0
  6
Continuous
 62
     7
 48
10.0
370
    15
100
AcDbLine
 10
140.3107345299
 20
95.6311339226
 30
0.0
 11
140.3107345299
 21
96.6311339226
 31
0.0
  0
LINE
  5
AE
330
1F
100
AcDbEntity
  8
0
  6
Continuous
 62
     7
 48
10.0
370
    15
100
AcDbLine
 10
140.3107345299
 20
96.6311339226
 30
0.0
 11
151.9926104432
 21
96.6311339226
 31
0.0
  0
LINE
  5
AF
330
1F
100
AcDbEntity
  8
0
  6
Continuous
 62
     7
 48
10.0
370
    15
100
AcDbLine
 10
151.9926104432
 20
95.6311339226
 30
0.0
 11
151.9926104432
 21
96.6311339226
 31
0.0
  0
LINE
  5
B0
330
1F
100
AcDbEntity
  8
0
  6
Continuous
 62
     7
 48
10.0
370
    15
100
AcDbLine
 10
48.2372280563
 20
97.5683922228
 30
0.0
 11
72.5006577754
 21
121.8318219419
 31
0.0
  0
LINE
  5
B1
330
1F
100
AcDbEntity
  8
0
  6
Continuous
 62
     7
 48
10.0
370
    15
100
AcDbLine
 10
72.5006577754
 20
121.8318219419
 30
0.0
 11
73.2077645565
 21
121.1247151607
 31
0.0
  0
LINE
  5
B2
330
1F
100
AcDbEntity
  8
0
  6
Continuous
 62
     7
 48
10.0
370
    15
100
AcDbLine
 10
73.2077645565
 20
121.1247151607
 30
0.0
 11
48.9443348375
 21
96.8612854416
 31
0.0
  0
ARC
  5
B3
330
1F
100
AcDbEntity
  8
0
  6
Continuous
 62
     7
 48
100.0
370
    15
100
AcDbCircle
 10
140.3107345299
 20
99.8311339226
 30
0.0
 40
4.200000000000003
100
AcDbArc
 50
225.0
 51
270.0
  0
LINE
  5
B4
330
1F
100
AcDbEntity
  8
0
  6
Continuous
 62
     7
 48
10.0
370
    15
100
AcDbLine
 10
137.3408860489
 20
96.8612854416
 30
0.0
 11
138.0479928301
 21
97.5683922228
 31
0.0
  0
ARC
  5
B5
330
1F
100
AcDbEntity
  8
0
  6
Continuous
 62
     7
 48
100.0
370
    15
100
AcDbCircle
 10
140.3107345299
 20
99.8311339226
 30
0.0
 40
3.200000000000003
100
AcDbArc
 50
225.0
 51
270.0
  0
LINE
  5
B6
330
1F
100
AcDbEntity
  8
0
  6
Continuous
 62
     7
 48
10.0
370
    15
100
AcDbLine
 10
34.2926104432
 20
96.6311339226
 30
0.0
 11
45.9744863565
 21
96.6311339226
 31
0.0
  0
LINE
  5
B7
330
1F
100
AcDbEntity
  8
0
  6
Continuous
 62
     7
 48
10.0
370
    15
100
AcDbLine
 10
45.9744863565
 20
95.6311339226
 30
0.0
 11
34.2926104432
 21
95.6311339226
 31
0.0
  0
LINE
  5
B8
330
1F
100
AcDbEntity
  8
0
  6
Continuous
 62
     7
 48
10.0
370
    15
100
AcDbLine
 10
34.2926104432
 20
96.6311339226
 30
0.0
 11
34.2926104432
 21
95.6311339226
 31
0.0
  0
ARC
  5
B9
330
1F
100
AcDbEntity
  8
0
  6
Continuous
 62
     7
 48
100.0
370
    15
100
AcDbCircle
 10
140.2278918174
 20
99.6311339226
 30
0.0
 40
6.0
100
AcDbArc
 50
225.0
 51
270.0
  0
ARC
  5
BA
330
1F
100
AcDbEntity
  8
0
  6
Continuous
 62
     7
 48
100.0
370
    15
100
AcDbCircle
 10
115.7360318565
 20
124.1229938835
 30
0.0
 40
6.000000000000008
100
AcDbArc
 50
124.3908713698
 51
225.0
  0
ARC
  5
BB
330
1F
100
AcDbEntity
  8
0
  6
Continuous
 62
     7
 48
100.0
370
    15
100
AcDbCircle
 10
46.0573290689
 20
99.6311339226
 30
0.0
 40
5.999999999999998
100
AcDbArc
 50
270.0
 51
315.0
  0
ARC
  5
BC
330
1F
100
AcDbEntity
  8
0
  6
Continuous
 62
     7
 48
100.0
370
    15
100
AcDbCircle
 10
70.2379160756
 20
124.0945636417
 30
0.0
 40
4.200000000000002
100
AcDbArc
 50
315.0
 51
55.2659147093
  0
ARC
  5
BD
330
1F
100
AcDbEntity
  8
0
  6
Continuous
 62
     7
 48
100.0
370
    15
100
AcDbCircle
 10
93.1426104432
 20
157.1311339226
 30
0.0
 40
36.00000000000002
100
AcDbArc
 50
304.7340852907
 51
235.2659147093
  0
ARC
  5
BE
330
1F
100
AcDbEntity
  8
0
  6
Continuous
 62
     7
 48
100.0
370
    15
100
AcDbCircle
 10
116.0473048108
 20
124.0945636417
 30
0.0
 40
4.200000000000002
100
AcDbArc
 50
124.7340852907
 51
225.0
  0
LINE
  5
BF
330
1F
100
AcDbEntity
  8
0
  6
Continuous
 62
     7
 48
10.0
370
    15
100
AcDbLine
 10
137.3408860489
 20
96.8612854416
 30
0.0
 11
113.0774563298
 21
121.1247151607
 31
0.0
  0
LINE
  5
C0
330
1F
100
AcDbEntity
  8
0
  6
Continuous
 62
     7
 48
10.0
370
    15
100
AcDbLine
 10
74.791829717
 20
119.8803531964
 30
0.0
 11
50.2999697561
 21
95.3884932354
 31
0.0
  0
ARC
  5
C1
330
1F
100
AcDbEntity
  8
0
  6
Continuous
 62
     7
 48
100.0
370
    15
100
AcDbCircle
 10
93.1426104432
 20
157.1311339226
 30
0.0
 40
34.00000000000001
100
AcDbArc
 50
304.3908713698
 51
235.6091286302
  0
LINE
  5
C2
330
1F
100
AcDbEntity
  8
0
  6
Continuous
 62
     7
 48
10.0
370
    15
100
AcDbLine
 10
135.9852511303
 20
95.3884932354
 30
0.0
 11
111.4933911694
 21
119.8803531964
 31
0.0
  0
LINE
  5
C3
330
1F
100
AcDbEntity
  8
0
  6
Continuous
 62
     7
 48
10.0
370
    15
100
AcDbLine
 10
151.9926104432
 20
93.6311339226
 30
0.0
 11
140.2278918174
 21
93.6311339226
 31
0.0
  0
ARC
  5
C4
330
1F
100
AcDbEntity
  8
0
  6
Continuous
 62
     7
 48
100.0
370
    15
100
AcDbCircle
 10
70.5491890299
 20
124.1229938835
 30
0.0
 40
6.000000000000008
100
AcDbArc
 50
315.0
 51
55.6091286302
  0
LINE
  5
C5
330
1F
100
AcDbEntity
  8
0
  6
Continuous
 62
     7
 48
10.0
370
    15
100
AcDbLine
 10
46.0573290689
 20
93.6311339226
 30
0.0
 11
34.2926104432
 21
93.6311339226
 31
0.0
  0
LINE
  5
C6
330
1F
100
AcDbEntity
  8
0
  6
Continuous
 62
     7
 48
10.0
370
    15
100
AcDbLine
 10
24.1426104432
 20
96.6311339226
 30
0.0
 11
34.2926104432
 21
96.6311339226
 31
0.0
  0
ARC
  5
C7
330
1F
100
AcDbEntity
  8
0
  6
Continuous
 62
     7
 48
100.0
370
    15
100
AcDbCircle
 10
70.2379160756
 20
124.0945636417
 30
0.0
 40
3.200000000000014
100
AcDbArc
 50
315.0
 51
55.2659147093
  0
LINE
  5
C8
330
1F
100
AcDbEntity
  8
0
  6
Continuous
 62
     7
 48
10.0
370
    15
100
AcDbLine
 10
72.0611753287
 20
126.7243403804
 30
0.0
 11
72.6309438453
 21
127.5461456113
 31
0.0
  0
LINE
  5
C9
330
1F
100
AcDbEntity
  8
0
  6
Continuous
 62
     7
 48
10.0
370
    15
100
AcDbLine
 10
151.9926104432
 20
96.6311339226
 30
0.0
 11
162.1426104432
 21
96.6311339226
 31
0.0
  0
LINE
  5
CA
330
1F
100
AcDbEntity
  8
0
  6
Continuous
 62
     7
 48
10.0
370
    15
100
AcDbLine
 10
113.0774563298
 20
121.1247151607
 30
0.0
 11
113.784563111
 21
121.8318219419
 31
0.0
  0
LINE
  5
CB
330
1F
100
AcDbEntity
  8
0
  6
Continuous
 62
     7
 48
10.0
370
    15
100
AcDbLine
 10
113.784563111
 20
121.8318219419
 30
0.0
 11
138.0479928301
 21
97.5683922228
 31
0.0
  0
ARC
  5
CC
330
1F
100
AcDbEntity
  8
0
  6
Continuous
 62
     7
 48
100.0
370
    15
100
AcDbCircle
 10
93.1426104432
 20
157.1311339226
 30
0.0
 40
37.00000000000002
100
AcDbArc
 50
304.7340852907
 51
235.2659147093
  0
LINE
  5
CD
330
1F
100
AcDbEntity
  8
0
  6
Continuous
 62
     7
 48
10.0
370
    15
100
AcDbLine
 10
114.2240455577
 20
126.7243403804
 30
0.0
 11
113.6542770411
 21
127.5461456113
 31
0.0
  0
ARC
  5
CE
330
1F
100
AcDbEntity
  8
0
  6
Continuous
 62
     7
 48
100.0
370
    15
100
AcDbCircle
 10
116.0473048108
 20
124.0945636417
 30
0.0
 40
3.200000000000014
100
AcDbArc
 50
124.7340852907
 51
225.0
  0
LINE
  5
CF
330
1F
100
AcDbEntity
  8
0
  6
Continuous
 62
     8
 48
10.0
370
    15
100
AcDbLine
 10
34.2926104432
 20
95.6311339226
 30
0.0
 11
23.1426104432
 21
95.6311339226
 31
0.0
  0
LINE
  5
D0
330
1F
100
AcDbEntity
  8
0
  6
Continuous
 62
     8
 48
10.0
370
    15
100
AcDbLine
 10
163.1426104432
 20
95.6311339226
 30
0.0
 11
151.9926104432
 21
95.6311339226
 31
0.0
  0
DIMENSION
  5
D1
330
1F
100
AcDbEntity
  8
SLD-0
 48
10.0
100
AcDbDimension
  2
*D4
 10
163.1426104432
 20
77.6311339226
 30
0.0
 11
90.3297842914
 21
77.6311339226
 31
0.0
 70
   160
 71
     2
 42
-1.0
 73
     0
 74
     0
 75
     0
  3
SLDDIMSTYLE0
100
AcDbAlignedDimension
 13
23.1426104432
 23
93.6311339226
 33
0.0
 14
163.1426104432
 24
93.6311339226
 34
0.0
 50
0.0
100
AcDbRotatedDimension
  0
DIMENSION
  5
DC
330
1F
100
AcDbEntity
  8
SLD-0
 48
10.0
100
AcDbDimension
  2
*D5
 10
22.1779793881
 20
194.1311339226
 30
0.0
 11
22.1779793881
 21
147.6344843903
 31
0.0
 70
   160
 71
     2
 42
-1.0
 73
     0
 74
     0
 75
     0
  3
SLDDIMSTYLE1
100
AcDbAlignedDimension
 13
23.1426104432
 23
93.6311339226
 33
0.0
 14
93.1426104432
 24
194.1311339226
 34
0.0
 50
90.0
100
AcDbRotatedDimension
  0
DIMENSION
  5
E7
330
1F
100
AcDbEntity
  8
SLD-0
 48
10.0
100
AcDbDimension
  2
*D6
 10
37.6426104432
 20
83.6311339226
 30
0.0
 11
90.3297842914
 21
83.6311339226
 31
0.0
 70
   160
 71
     2
 42
-1.0
 73
     0
 74
     0
 75
     0
  3
SLDDIMSTYLE0
100
AcDbAlignedDimension
 13
148.6426104432
 23
93.6311339226
 33
0.0
 14
37.6426104432
 24
93.6311339226
 34
0.0
100
AcDbRotatedDimension
  0
LINE
  5
F1
330
1F
100
AcDbEntity
  8
0
  6
Continuous
 62
     7
 48
10.0
370
    15
100
AcDbLine
 10
121.5027953789
 20
254.9034362741
 30
0.0
 11
121.3690891236
 21
255.4292518117
 31
0.0
  0
SPLINE
  5
F2
330
1F
100
AcDbEntity
  8
0
  6
Continuous
 62
     7
 48
10.0
370
    15
100
AcDbSpline
210
0.0
220
0.0
230
1.0
 70
     8
 71
     3
 72
    12
 73
     8
 74
     0
 42
0.00000001
 43
0.00000001
 40
0.0
 40
0.0
 40
0.0
 40
0.0
 40
0.1454177608524904
 40
0.4216829879628456
 40
0.6967203086022075
 40
0.9703988873253999
 40
1.0
 40
1.0
 40
1.0
 40
1.0
 10
86.05517520126247
 20
257.5524995634404
 30
0.0
 10
85.96983261399754
 20
257.4316698899939
 30
0.0
 10
85.72235584783513
 20
257.0812875334317
 30
0.0
 10
85.39848894263854
 20
256.4793523202828
 30
0.0
 10
85.09134567449509
 20
255.7525900171866
 30
0.0
 10
84.91487294824854
 20
255.2348641189283
 30
0.0
 10
84.86438042214633
 20
254.9591572788683
 30
0.0
 10
84.85945218264737
 20
254.9322473687449
 30
0.0
  0
LINE
  5
F3
330
1F
100
AcDbEntity
  8
0
  6
Continuous
 62
     7
 48
10.0
370
    15
100
AcDbLine
 10
121.6801752013
 20
245.1398043205
 30
0.0
 11
121.6801752013
 21
253.4276935612
 31
0.0
  0
LINE
  5
F4
330
1F
100
AcDbEntity
  8
0
  6
Continuous
 62
     7
 48
10.0
370
    15
100
AcDbLine
 10
84.6801752013
 20
253.4276935612
 30
0.0
 11
84.6801752013
 21
245.1398043205
 31
0.0
  0
SPLINE
  5
F5
330
1F
100
AcDbEntity
  8
0
  6
Continuous
 62
     7
 48
10.0
370
    15
100
AcDbSpline
210
0.0
220
0.0
230
1.0
 70
     8
 71
     3
 72
    50
 73
    46
 74
     0
 42
0.00000001
 43
0.00000001
 40
0.0
 40
0.0
 40
0.0
 40
0.0
 40
0.0192567068013768
 40
0.0425247128868096
 40
0.065891620218152
 40
0.0893684052267074
 40
0.1129503359752799
 40
0.1366217207078526
 40
0.1603616521500977
 40
0.1841488637410824
 40
0.2079647955677133
 40
0.231794905896055
 40
0.2556277312323035
 40
0.2794557633145433
 40
0.3032756318231772
 40
0.3270857646648053
 40
0.3508858239784857
 40
0.3746762882177709
 40
0.3984581579036636
 40
0.4222327566276085
 40
0.446001601333904
 40
0.4697663210345783
 40
0.4935286082485622
 40
0.517290191639711
 40
0.541052676827308
 40
0.5648173873316211
 40
0.5885860941326466
 40
0.6123605649631888
 40
0.6361425437185493
 40
0.6599337129539846
 40
0.683735629021618
 40
0.7075496157120569
 40
0.7313765971451651
 40
0.7552168446862598
 40
0.7790696073791711
 40
0.8029325946828251
 40
0.8268011428485735
 40
0.8506645422891274
 40
0.8745098880977275
 40
0.8983196731323477
 40
0.9220722771568061
 40
0.9457440882886067
 40
0.9693137204615507
 40
0.9927679695607975
 40
1.0
 40
1.0
 40
1.0
 40
1.0
 10
84.86238286968258
 20
243.6305780448863
 30
0.0
 10
84.91335126816102
 20
243.4274055930903
 30
0.0
 10
85.02590511934399
 20
242.9787385251306
 30
0.0
 10
85.30041227667212
 20
242.2973760664974
 30
0.0
 10
85.66484903523867
 20
241.5874050624969
 30
0.0
 10
86.1128528110164
 20
240.8938875954923
 30
0.0
 10
86.6396704966621
 20
240.2197138725905
 30
0.0
 10
87.2438599384352
 20
239.5682851040368
 30
0.0
 10
87.9223723443391
 20
238.9428409836959
 30
0.0
 10
88.67194016780559
 20
238.3464978303392
 30
0.0
 10
89.48881203745836
 20
237.7821407347959
 30
0.0
 10
90.36892349184862
 20
237.2524153139604
 30
0.0
 10
91.30793778605931
 20
236.7597208231096
 30
0.0
 10
92.30131299897643
 20
236.3062146900733
 30
0.0
 10
93.3443428319142
 20
235.8938271529941
 30
0.0
 10
94.43216945626769
 20
235.5242821596891
 30
0.0
 10
95.55977319883142
 20
235.1991142881235
 30
0.0
 10
96.72198475431829
 20
234.9196699771059
 30
0.0
 10
97.9134995976722
 20
234.6871057535975
 30
0.0
 10
99.1288950024952
 20
234.5023848191439
 30
0.0
 10
100.3626494966593
 20
234.3662730567792
 30
0.0
 10
101.6091643765085
 20
234.2793352254303
 30
0.0
 10
102.8627868209915
 20
234.2419318631726
 30
0.0
 10
104.1178316007445
 20
234.2542172139323
 30
0.0
 10
105.3686008996158
 20
234.3161376284761
 30
0.0
 10
106.6094177356545
 20
234.427431175127
 30
0.0
 10
107.834654205905
 20
234.5876302134194
 30
0.0
 10
109.0387611869606
 20
234.7960666624548
 30
0.0
 10
110.2162843457409
 20
235.0518765237579
 30
0.0
 10
111.3618864661424
 20
235.3540060059947
 30
0.0
 10
112.4703678532517
 20
235.7012185842018
 30
0.0
 10
113.5366842359659
 20
236.0921025007608
 30
0.0
 10
114.5559615282424
 20
236.5250779147983
 30
0.0
 10
115.5235070774699
 20
236.9984024496356
 30
0.0
 10
116.4348166255116
 20
237.5101733814062
 30
0.0
 10
117.2855777459898
 20
238.0583226354674
 30
0.0
 10
118.0716353492278
 20
238.6405799493901
 30
0.0
 10
118.7890484564547
 20
239.2544538352179
 30
0.0
 10
119.434048771901
 20
239.8972002610152
 30
0.0
 10
120.003356844049
 20
240.5657831650405
 30
0.0
 10
120.4933070971405
 20
241.2569198162597
 30
0.0
 10
120.9034056859145
 20
241.9667394153866
 30
0.0
 10
121.2236336577596
 20
242.6921127168422
 30
0.0
 10
121.4228949709357
 20
243.2580431770465
 30
0.0
 10
121.4865923202973
 20
243.5835234496268
 30
0.0
 10
121.5016042792708
 20
243.6602314531406
 30
0.0
  0
SPLINE
  5
F6
330
1F
100
AcDbEntity
  8
0
  6
Continuous
 62
     7
 48
10.0
370
    15
100
AcDbSpline
210
0.0
220
0.0
230
1.0
 70
     8
 71
     3
 72
    14
 73
    10
 74
     0
 42
0.00000001
 43
0.00000001
 40
0.0
 40
0.0
 40
0.0
 40
0.0
 40
0.0849485689568183
 40
0.2453245582156562
 40
0.4057138435334875
 40
0.5647345061247481
 40
0.7209251694566827
 40
0.8732778304205703
 40
1.0
 40
1.0
 40
1.0
 40
1.0
 10
145.4803460760039
 20
245.2476502634267
 30
0.0
 10
145.5704912855152
 20
245.1977440051935
 30
0.0
 10
145.8308233190053
 20
245.0536187903299
 30
0.0
 10
146.2649368444704
 20
244.8718232508519
 30
0.0
 10
146.7756678562748
 20
244.7325265892153
 30
0.0
 10
147.274358088627
 20
244.6777320494885
 30
0.0
 10
147.7481540971353
 20
244.7110541801961
 30
0.0
 10
148.1704413558282
 20
244.8153721800715
 30
0.0
 10
148.4116602793723
 20
244.9456829778604
 30
0.0
 10
148.5211928562643
 20
245.0048544444642
 30
0.0
  0
LINE
  5
F7
330
1F
100
AcDbEntity
  8
0
  6
Continuous
 62
     7
 48
10.0
370
    15
100
AcDbLine
 10
148.5175992264
 20
244.9963969072
 30
0.0
 11
149.2247060076
 21
245.4046009631
 31
0.0
  0
SPLINE
  5
F8
330
1F
100
AcDbEntity
  8
0
  6
Continuous
 62
     7
 48
10.0
370
    15
100
AcDbSpline
210
0.0
220
0.0
230
1.0
 70
     8
 71
     3
 72
     9
 73
     5
 74
     0
 42
0.00000001
 43
0.00000001
 40
0.0
 40
0.0
 40
0.0
 40
0.0
 40
0.587303850842813
 40
1.0
 40
1.0
 40
1.0
 40
1.0
 10
121.3690891235598
 20
255.4292518117412
 30
0.0
 10
121.3647125979913
 20
255.4428917831752
 30
0.0
 10
121.357260704798
 20
255.4661165098896
 30
0.0
 10
121.3617110311632
 20
255.4881345917832
 30
0.0
 10
121.3635476637166
 20
255.4972213693924
 30
0.0
  0
LINE
  5
F9
330
1F
100
AcDbEntity
  8
0
  6
Continuous
 62
     7
 48
10.0
370
    15
100
AcDbLine
 10
122.9583989918
 20
247.9200449368
 30
0.0
 11
140.115234681
 21
247.9200449368
 31
0.0
  0
LINE
  5
FA
330
1F
100
AcDbEntity
  8
0
  6
Continuous
 62
     7
 48
10.0
370
    15
100
AcDbLine
 10
141.3501792384
 20
247.6319448277
 30
0.0
 11
145.480346076
 21
245.2476502634
 31
0.0
  0
SPLINE
  5
FB
330
1F
100
AcDbEntity
  8
0
  6
Continuous
 62
     7
 48
10.0
370
    15
100
AcDbSpline
210
0.0
220
0.0
230
1.0
 70
     8
 71
     3
 72
    12
 73
     8
 74
     0
 42
0.00000001
 43
0.00000001
 40
0.0
 40
0.0
 40
0.0
 40
0.0
 40
0.0856737213301747
 40
0.3259552967766683
 40
0.569175211345929
 40
0.8158703668469455
 40
0.9999999999999999
 40
0.9999999999999999
 40
0.9999999999999999
 40
0.9999999999999999
 10
121.6801752012625
 20
247.5998449428989
 30
0.0
 10
121.7029306223601
 20
247.6159350419377
 30
0.0
 10
121.789506178108
 20
247.6771516311779
 30
0.0
 10
122.0109486619259
 20
247.7706338235366
 30
0.0
 10
122.3267031257585
 20
247.861564839665
 30
0.0
 10
122.652509605367
 20
247.9121145519319
 30
0.0
 10
122.8668096015954
 20
247.9176704212264
 30
0.0
 10
122.9583989918287
 20
247.9200449368113
 30
0.0
  0
SPLINE
  5
FC
330
1F
100
AcDbEntity
  8
0
  6
Continuous
 62
     7
 48
10.0
370
    15
100
AcDbSpline
210
0.0
220
0.0
230
1.0
 70
     8
 71
     3
 72
    12
 73
     8
 74
     0
 42
0.00000001
 43
0.00000001
 40
0.0
 40
0.0
 40
0.0
 40
0.0
 40
0.13551809325589
 40
0.3994312039653817
 40
0.6615623402980475
 40
0.9197662789285079
 40
1.0
 40
1.0
 40
1.0
 40
1.0
 10
140.1152346810388
 20
247.9200449368113
 30
0.0
 10
140.1788170782851
 20
247.9188777441677
 30
0.0
 10
140.3662222643596
 20
247.9154375159909
 30
0.0
 10
140.6713409371656
 20
247.8767626865603
 30
0.0
 10
141.0030817995172
 20
247.7926201215033
 30
0.0
 10
141.2230777636261
 20
247.7024854255633
 30
0.0
 10
141.3258216521098
 20
247.6454631499401
 30
0.0
 10
141.3501792383715
 20
247.6319448276552
 30
0.0
  0
SPLINE
  5
FD
330
1F
100
AcDbEntity
  8
0
  6
Continuous
 62
     7
 48
10.0
370
    15
100
AcDbSpline
210
0.0
220
0.0
230
1.0
 70
     8
 71
     3
 72
    26
 73
    22
 74
     0
 42
0.00000001
 43
0.00000001
 40
0.0
 40
0.0
 40
0.0
 40
0.0
 40
0.0082186748084333
 40
0.0628986061940201
 40
0.1175067254374877
 40
0.1727562042533442
 40
0.2291617288408304
 40
0.2867993974130538
 40
0.3453763728239359
 40
0.4044649196918093
 40
0.4637003891290271
 40
0.5228649806489977
 40
0.5819106236842294
 40
0.640845242927996
 40
0.6997027891470861
 40
0.7585282033082054
 40
0.8173709878667774
 40
0.8762666671986595
 40
0.9352670858624632
 40
0.9944238785073174
 40
0.9999999999999999
 40
0.9999999999999999
 40
0.9999999999999999
 40
0.9999999999999999
 10
101.3262245892334
 20
278.6671928757935
 30
0.0
 10
101.3066687813092
 20
278.6578642342295
 30
0.0
 10
101.1570055947128
 20
278.586470905531
 30
0.0
 10
100.9182111813774
 20
278.3814254760612
 30
0.0
 10
100.6221737094896
 20
278.0563423395018
 30
0.0
 10
100.3851119304812
 20
277.663901861584
 30
0.0
 10
100.2039031938741
 20
277.2165806415952
 30
0.0
 10
100.0826258959775
 20
276.7158269044231
 30
0.0
 10
100.0236150425219
 20
276.1688697035435
 30
0.0
 10
100.0284517677223
 20
275.5845917669124
 30
0.0
 10
100.0968096781631
 20
274.9734620352863
 30
0.0
 10
100.2268698675177
 20
274.3458688045266
 30
0.0
 10
100.4158124760726
 20
273.7116788599437
 30
0.0
 10
100.6601913605147
 20
273.0802153766269
 30
0.0
 10
100.9560148032268
 20
272.4606491051663
 30
0.0
 10
101.2987279021935
 20
271.8617451017524
 30
0.0
 10
101.6834516351461
 20
271.2928243313946
 30
0.0
 10
102.1042194537711
 20
270.7599985353863
 30
0.0
 10
102.5572590801071
 20
270.2795810498977
 30
0.0
 10
102.8862458279462
 20
269.9644189544525
 30
0.0
 10
103.0661382891745
 20
269.830251468399
 30
0.0
 10
103.0816343043438
 20
269.8186942225594
 30
0.0
  0
LINE
  5
FE
330
1F
100
AcDbEntity
  8
0
  6
Continuous
 62
     7
 48
10.0
370
    15
100
AcDbLine
 10
102.0369250003
 20
279.083854469
 30
0.0
 11
101.3298182191
 21
278.6756504131
 31
0.0
  0
LINE
  5
FF
330
1F
100
AcDbEntity
  8
0
  6
Continuous
 62
     7
 48
10.0
370
    15
100
AcDbLine
 10
120.3051752013
 20
239.5464997591
 30
0.0
 11
120.3051752013
 21
241.0136626021
 31
0.0
  0
LINE
  5
100
330
1F
100
AcDbEntity
  8
0
  6
Continuous
 62
     7
 48
10.0
370
    15
100
AcDbLine
 10
120.3051752013
 20
253.8359639671
 30
0.0
 11
120.3051752013
 21
259.9600200563
 31
0.0
  0
LINE
  5
101
330
1F
100
AcDbEntity
  8
0
  6
Continuous
 62
     7
 48
10.0
370
    15
100
AcDbLine
 10
86.0551752013
 20
259.9600200563
 30
0.0
 11
86.0551752013
 21
253.8359639671
 31
0.0
  0
LINE
  5
102
330
1F
100
AcDbEntity
  8
0
  6
Continuous
 62
     7
 48
10.0
370
    15
100
AcDbLine
 10
86.0551752013
 20
241.0067454989
 30
0.0
 11
86.0551752013
 21
239.5464997591
 31
0.0
  0
LINE
  5
103
330
1F
100
AcDbEntity
  8
0
  6
Continuous
 62
     7
 48
10.0
370
    15
100
AcDbLine
 10
122.9583989918
 20
257.1162045834
 30
0.0
 11
140.115234681
 21
257.1162045834
 31
0.0
  0
LWPOLYLINE
  5
104
330
1F
100
AcDbEntity
  8
0
  6
Continuous
 62
     7
 48
10.0
370
    15
100
AcDbPolyline
 90
        9
 70
   128
 43
0.0
 10
120.8920174018
 20
255.6878473291
 10
120.8600430409
 20
255.9518615092
 10
120.9280751561
 20
256.213589889
 10
121.0928713746
 20
256.4605586396
 10
121.3465776004
 20
256.6809973679
 10
121.6771023362
 20
256.864400087
 10
122.068692957
 20
257.0020259253
 10
122.5026864719
 20
257.087315712
 10
122.9583989918
 20
257.1162045834
  0
ARC
  5
105
330
1F
100
AcDbEntity
  8
0
  6
Continuous
 62
     7
 48
100.0
370
    15
100
AcDbCircle
 10
107.8113744522
 20
275.0533165585
 30
0.0
 40
1.056172484837032
100
AcDbArc
 50
5.6947992512
 51
65.6253417064
  0
LINE
  5
106
330
1F
100
AcDbEntity
  8
0
  6
Continuous
 62
     7
 48
10.0
370
    15
100
AcDbLine
 10
104.1170916863
 20
278.3996430316
 30
0.0
 11
108.247258524
 21
276.0153484674
 31
0.0
  0
LINE
  5
107
330
1F
100
AcDbEntity
  8
0
  6
Continuous
 62
     7
 48
10.0
370
    15
100
AcDbLine
 10
104.8241984675
 20
278.8078470875
 30
0.0
 11
104.1170916863
 21
278.3996430316
 31
0.0
  0
LINE
  5
108
330
1F
100
AcDbEntity
  8
0
  6
Continuous
 62
     7
 48
10.0
370
    15
100
AcDbLine
 10
108.983654627
 20
276.4066441576
 30
0.0
 11
104.8241984675
 21
278.8078470875
 31
0.0
  0
ARC
  5
109
330
1F
100
AcDbEntity
  8
0
  6
Continuous
 62
     7
 48
100.0
370
    15
100
AcDbCircle
 10
108.360963096
 20
275.0323128592
 30
0.0
 40
1.508817835481305
100
AcDbArc
 50
5.6947992512
 51
65.6253417064
  0
LINE
  5
10A
330
1F
100
AcDbEntity
  8
0
  6
Continuous
 62
     7
 48
10.0
370
    15
100
AcDbLine
 10
109.8623342835
 20
269.0624098917
 30
0.0
 11
109.8623342835
 21
275.1820319899
 31
0.0
  0
ARC
  5
10B
330
1F
100
AcDbEntity
  8
0
  6
Continuous
 62
     7
 48
100.0
370
    15
100
AcDbCircle
 10
122.6285449096
 20
253.9618908111
 30
0.0
 40
3.737491814560058
100
AcDbArc
 50
86.7828272713
 51
128.4359030695
  0
LINE
  5
10C
330
1F
100
AcDbEntity
  8
0
  6
Continuous
 62
     7
 48
10.0
370
    15
100
AcDbLine
 10
140.1566560373
 20
257.6934922955
 30
0.0
 11
122.838295775
 21
257.6934922955
 31
0.0
  0
ARC
  5
10D
330
1F
100
AcDbEntity
  8
0
  6
Continuous
 62
     7
 48
100.0
370
    15
100
AcDbCircle
 10
140.2430870517
 20
253.3656466341
 30
0.0
 40
4.328708628304974
100
AcDbArc
 50
61.9597608846
 51
91.1440967458
  0
LINE
  5
10E
330
1F
100
AcDbEntity
  8
0
  6
Continuous
 62
     7
 48
10.0
370
    15
100
AcDbLine
 10
146.4374325403
 20
254.7850383971
 30
0.0
 11
142.2779763808
 21
257.186241327
 31
0.0
  0
LINE
  5
10F
330
1F
100
AcDbEntity
  8
0
  6
Continuous
 62
     7
 48
10.0
370
    15
100
AcDbLine
 10
145.7303257592
 20
254.3768343412
 30
0.0
 11
146.4374325403
 21
254.7850383971
 31
0.0
  0
LINE
  5
110
330
1F
100
AcDbEntity
  8
0
  6
Continuous
 62
     7
 48
10.0
370
    15
100
AcDbLine
 10
141.6001589215
 20
256.7611289054
 30
0.0
 11
145.7303257592
 21
254.3768343412
 31
0.0
  0
ARC
  5
111
330
1F
100
AcDbEntity
  8
0
  6
Continuous
 62
     7
 48
100.0
370
    15
100
AcDbCircle
 10
140.1757363911
 20
254.0867126204
 30
0.0
 40
3.030096039813465
100
AcDbArc
 50
61.9597608846
 51
91.1440967458
  0
LINE
  5
112
330
1F
100
AcDbEntity
  8
0
  6
Continuous
 62
     7
 48
10.0
370
    15
100
AcDbLine
 10
121.3690530017
 20
255.4293668708
 30
0.0
 11
121.3718596156
 21
255.419932041
 31
0.0
  0
ARC
  5
113
330
1F
100
AcDbEntity
  8
0
  6
Continuous
 62
     7
 48
100.0
370
    15
100
AcDbCircle
 10
115.4350142037
 20
253.4276033131
 30
0.0
 40
6.24450361570526
100
AcDbArc
 50
346.6722753834
 51
12.9815976599
  0
ARC
  5
114
330
1F
100
AcDbEntity
  8
0
  6
Continuous
 62
     7
 48
100.0
370
    15
100
AcDbCircle
 10
90.9233989376
 20
253.4278627856
 30
0.0
 40
6.242588088427364
100
AcDbArc
 50
166.7613636085
 51
192.5312271887
  0
ARC
  5
115
330
1F
100
AcDbEntity
  8
0
  6
Continuous
 62
     7
 48
100.0
370
    15
100
AcDbCircle
 10
90.9503027255
 20
245.1455204336
 30
0.0
 40
6.270130129797992
100
AcDbArc
 50
180.0522332375
 51
193.2786722192
  0
ARC
  5
116
330
1F
100
AcDbEntity
  8
0
  6
Continuous
 62
     7
 48
100.0
370
    15
100
AcDbCircle
 10
115.4131537238
 20
245.1453012973
 30
0.0
 40
6.267023888204977
100
AcDbArc
 50
346.9808861839
 51
359.9497443099
  0
LINE
  5
117
330
1F
100
AcDbEntity
  8
0
  6
Continuous
 62
     7
 48
10.0
370
    15
100
AcDbLine
 10
140.115234681
 20
257.1162045834
 30
0.0
 11
140.115234681
 21
256.4192903214
 31
0.0
  0
LINE
  5
118
330
1F
100
AcDbEntity
  8
0
  6
Continuous
 62
     7
 48
10.0
370
    15
100
AcDbLine
 10
140.115234681
 20
256.4192903214
 30
0.0
 11
122.9583989918
 21
256.4192903214
 31
0.0
  0
LINE
  5
119
330
1F
100
AcDbEntity
  8
0
  6
Continuous
 62
     7
 48
10.0
370
    15
100
AcDbLine
 10
122.9583989918
 20
257.1162045834
 30
0.0
 11
122.9583989918
 21
256.4192903214
 31
0.0
  0
LWPOLYLINE
  5
11A
330
1F
100
AcDbEntity
  8
0
  6
Continuous
 62
     7
 48
10.0
370
    15
100
AcDbPolyline
 90
       24
 70
   128
 43
0.0
 10
145.3767723686
 20
245.4765726667
 10
145.8654155004
 20
245.2330819149
 10
146.3449561352
 20
245.0713207828
 10
146.8064613383
 20
244.9943025741
 10
147.241334141
 20
245.0034619924
 10
147.6414736857
 20
245.098628415
 10
147.9994261299
 20
245.2780290716
 10
148.3085234968
 20
245.5383220673
 10
148.5630078872
 20
245.8746586362
 10
148.7581387385
 20
246.2807734642
 10
148.8902811322
 20
246.7491014007
 10
148.9569735053
 20
247.2709183822
 10
148.9569735053
 20
247.8365039457
 10
148.8902811322
 20
248.4353223022
 10
148.7581387385
 20
249.0562185989
 10
148.5630078872
 20
249.6876267124
 10
148.3085234968
 20
250.3177847042
 10
147.9994261299
 20
250.9349539234
 10
147.6414736857
 20
251.5276376751
 10
147.241334141
 20
252.0847953823
 10
146.8064613383
 20
252.5960482512
 10
146.3449561352
 20
253.0518726082
 10
145.8654155004
 20
253.4437773079
 10
145.3767723686
 20
253.7644619073
  0
ARC
  5
11B
330
1F
100
AcDbEntity
  8
0
  6
Continuous
 62
     7
 48
100.0
370
    15
100
AcDbCircle
 10
146.1443804193
 20
253.7295314812
 30
0.0
 40
0.7684024037858808
100
AcDbArc
 50
122.60547834
 51
177.3945215144
  0
LINE
  5
11C
330
1F
100
AcDbEntity
  8
0
  6
Continuous
 62
     7
 48
10.0
370
    15
100
AcDbLine
 10
140.115234681
 20
248.1314010808
 30
0.0
 11
140.115234681
 21
256.4192903214
 31
0.0
  0
LINE
  5
11D
330
1F
100
AcDbEntity
  8
0
  6
Continuous
 62
     7
 48
10.0
370
    15
100
AcDbLine
 10
122.9583989918
 20
248.1314010808
 30
0.0
 11
140.115234681
 21
248.1314010808
 31
0.0
  0
LINE
  5
11E
330
1F
100
AcDbEntity
  8
0
  6
Continuous
 62
     7
 48
10.0
370
    15
100
AcDbLine
 10
122.9583989918
 20
256.4192903214
 30
0.0
 11
122.9583989918
 21
248.1314010808
 31
0.0
  0
LWPOLYLINE
  5
11F
330
1F
100
AcDbEntity
  8
0
  6
Continuous
 62
     7
 48
10.0
370
    15
100
AcDbPolyline
 90
       20
 70
   128
 43
0.0
 10
146.4374325403
 20
254.7850383971
 10
146.951982493
 20
254.4490502016
 10
147.4577283534
 20
254.040921196
 10
147.9460166695
 20
253.5676345808
 10
148.4084926929
 20
253.0372884212
 10
148.8372433306
 20
252.4589570871
 10
149.2249325403
 20
251.8425359879
 10
149.5649268522
 20
251.1985722595
 10
149.8514088694
 20
250.5380842999
 10
150.0794768049
 20
249.8723732411
 10
150.2452283534
 20
249.212829584
 10
150.3458274598
 20
248.5707383034
 10
150.3795528455
 20
247.9570857591
 10
150.3458274598
 20
247.3823717163
 10
150.2452283534
 20
246.8564296916
 10
150.0794768049
 20
246.3882586989
 10
149.8514088694
 20
245.9858692736
 10
149.5649268522
 20
245.6561464104
 10
149.2249325403
 20
245.4047317589
 10
149.2247060076
 20
245.4046009631
  0
LINE
  5
120
330
1F
100
AcDbEntity
  8
0
  6
Continuous
 62
     7
 48
10.0
370
    15
100
AcDbLine
 10
145.3767723686
 20
253.7644619073
 30
0.0
 11
141.2466055309
 21
256.1487564715
 31
0.0
  0
LINE
  5
121
330
1F
100
AcDbEntity
  8
0
  6
Continuous
 62
     7
 48
10.0
370
    15
100
AcDbLine
 10
141.2466055309
 20
247.8608672309
 30
0.0
 11
145.3767723686
 21
245.4765726667
 31
0.0
  0
LINE
  5
122
330
1F
100
AcDbEntity
  8
0
  6
Continuous
 62
     7
 48
10.0
370
    15
100
AcDbLine
 10
141.2466055309
 20
256.1487564715
 30
0.0
 11
141.2466055309
 21
247.8608672309
 31
0.0
  0
LWPOLYLINE
  5
123
330
1F
100
AcDbEntity
  8
0
  6
Continuous
 62
     7
 48
10.0
370
    15
100
AcDbPolyline
 90
       22
 70
   128
 43
0.0
 10
144.9878636389
 20
249.8450295177
 10
144.9525220223
 20
250.1361963818
 10
144.8496374303
 20
250.4422963542
 10
144.6883516103
 20
250.7361311091
 10
144.4829955153
 20
250.991592139
 10
144.2518159355
 20
251.1859806104
 10
144.0153541911
 20
251.3020242544
 10
143.7946209457
 20
251.3294120842
 10
143.6092293169
 20
251.2657105708
 10
143.4756521644
 20
251.1165798732
 10
143.4057584046
 20
250.8952709084
 10
143.4057584046
 20
250.6214479491
 10
143.4756521644
 20
250.3194413668
 10
143.6092293169
 20
250.0160857719
 10
143.7946209457
 20
249.73833564
 10
144.0153541911
 20
249.5108702893
 10
144.2518159355
 20
249.3539010145
 10
144.4829955153
 20
249.2813752244
 10
144.6883516103
 20
249.2997371538
 10
144.8496374303
 20
249.4073552647
 10
144.9525220223
 20
249.5946672156
 10
144.9878636389
 20
249.8450295177
  0
ARC
  5
124
330
1F
100
AcDbEntity
  8
0
  6
Continuous
 62
     7
 48
100.0
370
    15
100
AcDbCircle
 10
142.0142135816
 20
256.1138260454
 30
0.0
 40
0.7684024037859722
100
AcDbArc
 50
122.60547834
 51
177.3945215143
  0
ARC
  5
125
330
1F
100
AcDbEntity
  8
0
  6
Continuous
 62
     7
 48
100.0
370
    15
100
AcDbCircle
 10
146.3390574926
 20
251.5435162519
 30
0.0
 40
1.903708804756805
100
AcDbArc
 50
198.6291899165
 51
221.3654335508
  0
ARC
  5
126
330
1F
100
AcDbEntity
  8
0
  6
Continuous
 62
     7
 48
100.0
370
    15
100
AcDbCircle
 10
140.1613312221
 20
254.1111059687
 30
0.0
 40
2.308644601763215
100
AcDbArc
 50
61.9597608846
 51
91.1440967458
  0
ARC
  5
127
330
1F
100
AcDbEntity
  8
0
  6
Continuous
 62
     7
 48
100.0
370
    15
100
AcDbCircle
 10
140.1613312221
 20
245.823216728
 30
0.0
 40
2.308644601762988
100
AcDbArc
 50
61.9597608846
 51
91.1440967458
  0
LINE
  5
128
330
1F
100
AcDbEntity
  8
0
  6
Continuous
 62
     7
 48
10.0
370
    15
100
AcDbLine
 10
108.3623342835
 20
269.3825661211
 30
0.0
 11
108.3623342835
 21
274.749849544
 31
0.0
  0
ARC
  5
129
330
1F
100
AcDbEntity
  8
0
  6
Continuous
 62
     7
 48
100.0
370
    15
100
AcDbCircle
 10
108.8206766457
 20
274.6988323294
 30
0.0
 40
0.4611729362794132
100
AcDbArc
 50
84.8174221345
 51
173.6486598634
  0
ARC
  5
12A
330
1F
100
AcDbEntity
  8
0
  6
Continuous
 62
     7
 48
100.0
370
    15
100
AcDbCircle
 10
107.5616029835
 20
274.669999341
 30
0.0
 40
0.804702845590084
100
AcDbArc
 50
5.6947992512
 51
65.6253417064
  0
ARC
  5
12B
330
1F
100
AcDbEntity
  8
0
  6
Continuous
 62
     7
 48
100.0
370
    15
100
AcDbCircle
 10
108.6613131841
 20
275.3680456073
 30
0.0
 40
0.7684024037859896
100
AcDbArc
 50
122.60547834
 51
177.3945215143
  0
LINE
  5
12C
330
1F
100
AcDbEntity
  8
0
  6
Continuous
 62
     7
 48
10.0
370
    15
100
AcDbLine
 10
107.8937051334
 20
275.4029760335
 30
0.0
 11
103.7635382957
 21
277.7872705977
 31
0.0
  0
ARC
  5
12D
330
1F
100
AcDbEntity
  8
0
  6
Continuous
 62
     7
 48
100.0
370
    15
100
AcDbCircle
 10
104.5311463464
 20
277.7523401716
 30
0.0
 40
0.7684024037861064
100
AcDbArc
 50
122.60547834
 51
177.3945215143
  0
LWPOLYLINE
  5
12E
330
1F
100
AcDbEntity
  8
0
  6
Continuous
 62
     7
 48
10.0
370
    15
100
AcDbPolyline
 90
       22
 70
   128
 43
0.0
 10
105.7434372831
 20
272.5003546208
 10
105.7080956665
 20
272.7915214849
 10
105.6052110745
 20
273.0976214573
 10
105.4439252545
 20
273.3914562122
 10
105.2385691595
 20
273.6469172421
 10
105.0073895797
 20
273.8413057134
 10
104.7709278352
 20
273.9573493575
 10
104.5501945898
 20
273.9847371873
 10
104.364802961
 20
273.9210356739
 10
104.2312258086
 20
273.7719049763
 10
104.1613320487
 20
273.5505960115
 10
104.1613320487
 20
273.2767730522
 10
104.2312258086
 20
272.9747664699
 10
104.364802961
 20
272.6714108749
 10
104.5501945898
 20
272.3936607431
 10
104.7709278352
 20
272.1661953924
 10
105.0073895797
 20
272.0092261176
 10
105.2385691595
 20
271.9367003275
 10
105.4439252545
 20
271.9550622569
 10
105.6052110745
 20
272.0626803678
 10
105.7080956665
 20
272.2499923187
 10
105.7434372831
 20
272.5003546208
  0
ARC
  5
12F
330
1F
100
AcDbEntity
  8
0
  6
Continuous
 62
     7
 48
100.0
370
    15
100
AcDbCircle
 10
103.1897105641
 20
276.5136039615
 30
0.0
 40
2.816931349460891
100
AcDbArc
 50
54.5327836208
 51
114.1567579501
  0
ARC
  5
130
330
1F
100
AcDbEntity
  8
0
  6
Continuous
 62
     7
 48
100.0
370
    15
100
AcDbCircle
 10
107.0946311367
 20
274.198841355
 30
0.0
 40
1.903708804757294
100
AcDbArc
 50
198.6291899164
 51
221.3654335509
  0
LWPOLYLINE
  5
131
330
1F
100
AcDbEntity
  8
0
  6
Continuous
 62
     7
 48
10.0
370
    15
100
AcDbPolyline
 90
       33
 70
   128
 43
0.0
 10
91.0709715734
 20
232.5560053016
 10
92.0097532831
 20
232.0531518369
 10
93.0110045233
 20
231.5922042134
 10
94.0691258909
 20
231.1757402371
 10
95.1781999421
 20
230.8060889435
 10
96.3320242848
 20
230.4853175727
 10
97.5241462653
 20
230.2152200082
 10
98.7478990539
 20
229.9973067452
 10
99.9964389286
 20
229.832796443
 10
101.262783548
 20
229.72260911
 10
102.5398509993
 20
229.6673609585
 10
103.8204994032
 20
229.6673609585
 10
105.0975668545
 20
229.72260911
 10
106.3639114739
 20
229.832796443
 10
107.6124513486
 20
229.9973067452
 10
108.8362041372
 20
230.2152200082
 10
110.0283261177
 20
230.4853175727
 10
111.1821504604
 20
230.8060889435
 10
112.2912245116
 20
231.1757402371
 10
113.3493458792
 20
231.5922042134
 10
114.3505971194
 20
232.0531518369
 10
115.2893788291
 20
232.5560053016
 10
116.1604409601
 20
233.097952447
 10
116.9589121798
 20
233.6759624846
 10
117.680327113
 20
234.2868029481
 10
118.320651315
 20
234.9270577696
 10
118.876303833
 20
235.5931463845
 10
119.3441772328
 20
236.2813437552
 10
119.7216549765
 20
236.9878012027
 10
120.0066260554
 20
237.7085679304
 10
120.1974967957
 20
238.4396131184
 10
120.2931997708
 20
239.1768484656
 10
120.3051752013
 20
239.5464997591
  0
LWPOLYLINE
  5
132
330
1F
100
AcDbEntity
  8
0
  6
Continuous
 62
     7
 48
10.0
370
    15
100
AcDbPolyline
 90
       12
 70
   128
 43
0.0
 10
86.0551752013
 20
239.5464997591
 10
86.0671506318
 20
239.1768484656
 10
86.1628536068
 20
238.4396131184
 10
86.3537243471
 20
237.7085679304
 10
86.6386954261
 20
236.9878012027
 10
87.0161731697
 20
236.2813437552
 10
87.4840465695
 20
235.5931463845
 10
88.0396990875
 20
234.9270577696
 10
88.6800232895
 20
234.2868029481
 10
89.4014382228
 20
233.6759624846
 10
90.1999094424
 20
233.097952447
 10
91.0709715734
 20
232.5560053016
  0
LWPOLYLINE
  5
133
330
1F
100
AcDbEntity
  8
0
  6
Continuous
 62
     7
 48
10.0
370
    15
100
AcDbPolyline
 90
       85
 70
   128
 43
0.0
 10
91.0709715734
 20
252.9695255988
 10
92.0097532831
 20
252.4666721341
 10
93.0110045233
 20
252.0057245105
 10
94.0691258909
 20
251.5892605342
 10
95.1781999421
 20
251.2196092407
 10
96.3320242848
 20
250.8988378698
 10
97.5241462653
 20
250.6287403053
 10
98.7478990539
 20
250.4108270423
 10
99.9964389286
 20
250.2463167402
 10
101.262783548
 20
250.1361294072
 10
102.5398509993
 20
250.0808812557
 10
103.8204994032
 20
250.0808812557
 10
105.0975668545
 20
250.1361294072
 10
106.3639114739
 20
250.2463167402
 10
107.6124513486
 20
250.4108270423
 10
108.8362041372
 20
250.6287403053
 10
110.0283261177
 20
250.8988378698
 10
111.1821504604
 20
251.2196092407
 10
112.2912245116
 20
251.5892605342
 10
113.3493458792
 20
252.0057245105
 10
114.3505971194
 20
252.4666721341
 10
115.2893788291
 20
252.9695255988
 10
116.1604409601
 20
253.5114727441
 10
116.9589121798
 20
254.0894827818
 10
117.680327113
 20
254.7003232452
 10
118.320651315
 20
255.3405780667
 10
118.876303833
 20
256.0066666817
 10
119.3441772328
 20
256.6948640523
 10
119.7216549765
 20
257.4013214998
 10
120.0066260554
 20
258.1220882275
 10
120.1974967957
 20
258.8531334156
 10
120.2931997708
 20
259.5903687627
 10
120.2931997708
 20
260.3296713498
 10
120.1974967957
 20
261.0669066969
 10
120.0066260554
 20
261.797951885
 10
119.7216549765
 20
262.5187186127
 10
119.3441772328
 20
263.2251760602
 10
118.876303833
 20
263.9133734308
 10
118.320651315
 20
264.5794620458
 10
117.680327113
 20
265.2197168673
 10
116.9589121798
 20
265.8305573307
 10
116.1604409601
 20
266.4085673684
 10
115.2893788291
 20
266.9505145137
 10
114.3505971194
 20
267.4533679785
 10
113.3493458792
 20
267.914315602
 10
112.2912245116
 20
268.3307795783
 10
111.1821504604
 20
268.7004308719
 10
110.0283261177
 20
269.0212022427
 10
108.8362041372
 20
269.2912998072
 10
107.6124513486
 20
269.5092130702
 10
106.3639114739
 20
269.6737233724
 10
105.0975668545
 20
269.7839107053
 10
103.8204994032
 20
269.8391588569
 10
102.5398509993
 20
269.8391588569
 10
101.262783548
 20
269.7839107053
 10
99.9964389286
 20
269.6737233724
 10
98.7478990539
 20
269.5092130702
 10
97.5241462653
 20
269.2912998072
 10
96.3320242848
 20
269.0212022427
 10
95.1781999421
 20
268.7004308719
 10
94.0691258909
 20
268.3307795783
 10
93.0110045233
 20
267.914315602
 10
92.0097532831
 20
267.4533679785
 10
91.0709715734
 20
266.9505145137
 10
90.1999094424
 20
266.4085673684
 10
89.4014382228
 20
265.8305573307
 10
88.6800232895
 20
265.2197168673
 10
88.0396990875
 20
264.5794620458
 10
87.4840465695
 20
263.9133734308
 10
87.0161731697
 20
263.2251760602
 10
86.6386954261
 20
262.5187186127
 10
86.3537243471
 20
261.797951885
 10
86.1628536068
 20
261.0669066969
 10
86.0671506318
 20
260.3296713498
 10
86.0671506318
 20
259.5903687627
 10
86.1628536068
 20
258.8531334156
 10
86.3537243471
 20
258.1220882275
 10
86.6386954261
 20
257.4013214998
 10
87.0161731697
 20
256.6948640523
 10
87.4840465695
 20
256.0066666817
 10
88.0396990875
 20
255.3405780667
 10
88.6800232895
 20
254.7003232452
 10
89.4014382228
 20
254.0894827818
 10
90.1999094424
 20
253.5114727441
 10
91.0709715734
 20
252.9695255988
  0
LWPOLYLINE
  5
134
330
1F
100
AcDbEntity
  8
0
  6
Continuous
 62
     7
 48
10.0
370
    15
100
AcDbPolyline
 90
       83
 70
   128
 43
0.0
 10
114.6777314634
 20
253.3226221071
 10
115.5241246887
 20
253.8501854061
 10
116.2980787101
 20
254.4136036443
 10
116.9950516576
 20
255.0095704594
 10
117.6109534168
 20
255.6345884813
 10
118.1421696313
 20
256.2849898555
 10
118.5855829131
 20
256.9569577683
 10
118.9385911367
 20
257.6465488446
 10
119.1991227096
 20
258.34971629
 10
119.3656487288
 20
259.0623336382
 10
119.4371919536
 20
259.7802189672
 10
119.4133325397
 20
260.4991594405
 10
119.2942105037
 20
261.2149360295
 10
119.0805249011
 20
261.9233482726
 10
118.7735297239
 20
262.6202389251
 10
118.375026542
 20
263.3015183554
 10
117.8873539305
 20
263.963188545
 10
117.3133737461
 20
264.6013665502
 10
116.6564543328
 20
265.2123072885
 10
115.920450755
 20
265.7924255169
 10
115.1096821743
 20
266.338316871
 10
114.2289065031
 20
266.846777843
 10
113.2832924833
 20
267.314824582
 10
112.278389354
 20
267.7397104035
 10
111.2200942862
 20
268.1189419086
 10
110.1146177764
 20
268.4502936161
 10
108.9684472001
 20
268.7318210222
 10
107.7883087422
 20
268.9618720124
 10
106.5811279243
 20
269.1390965558
 10
105.3539889635
 20
269.2624546285
 10
104.1140931991
 20
269.3312223161
 10
102.8687168326
 20
269.3449960625
 10
101.6251682276
 20
269.303695038
 10
100.3907450219
 20
269.2075616134
 10
99.1726913017
 20
269.0571599377
 10
97.9781550904
 20
268.8533726279
 10
96.8141464017
 20
268.597395589
 10
95.6874961013
 20
268.2907309959
 10
94.6048158212
 20
267.9351784785
 10
93.5724591598
 20
267.5328245602
 10
92.5964843965
 20
267.086030414
 10
91.6826189392
 20
266.5974180054
 10
90.8362257138
 20
266.0698547064
 10
90.0622716924
 20
265.5064364682
 10
89.365298745
 20
264.9104696531
 10
88.7493969858
 20
264.2854516313
 10
88.2181807713
 20
263.635050257
 10
87.7747674895
 20
262.9630823443
 10
87.4217592658
 20
262.2734912679
 10
87.1612276929
 20
261.5703238225
 10
86.9947016737
 20
260.8577064743
 10
86.923158449
 20
260.1398211453
 10
86.9470178629
 20
259.420880672
 10
87.0661398989
 20
258.705104083
 10
87.2798255015
 20
257.9966918399
 10
87.5868206786
 20
257.2998011874
 10
87.9853238605
 20
256.6185217571
 10
88.4729964721
 20
255.9568515675
 10
89.0469766564
 20
255.3186735623
 10
89.7038960697
 20
254.707732824
 10
90.4398996475
 20
254.1276145956
 10
91.2506682282
 20
253.5817232416
 10
92.1314438994
 20
253.0732622695
 10
93.0770579192
 20
252.6052155305
 10
94.0819610486
 20
252.180329709
 10
95.1402561163
 20
251.8010982039
 10
96.2457326261
 20
251.4697464965
 10
97.3919032024
 20
251.1882190903
 10
98.5720416603
 20
250.9581681001
 10
99.7792224782
 20
250.7809435567
 10
101.0063614391
 20
250.6575854841
 10
102.2462572034
 20
250.5888177965
 10
103.4916335699
 20
250.57504405
 10
104.7351821749
 20
250.6163450745
 10
105.9696053806
 20
250.7124784992
 10
107.1876591009
 20
250.8628801748
 10
108.3821953121
 20
251.0666674846
 10
109.5462040008
 20
251.3226445235
 10
110.6728543012
 20
251.6293091166
 10
111.7555345813
 20
251.9848616341
 10
112.7878912427
 20
252.3872155523
 10
113.7638660061
 20
252.8340096986
 10
114.6777314634
 20
253.3226221071
  0
LWPOLYLINE
  5
135
330
1F
100
AcDbEntity
  8
0
  6
Continuous
 62
     8
 48
10.0
370
    15
100
AcDbPolyline
 90
       53
 70
   128
 43
0.0
 10
86.0551752013
 20
257.0363657697
 10
85.9904517377
 20
256.9185618222
 10
85.6490611787
 20
256.1922626906
 10
85.3996235742
 20
255.4536044683
 10
85.2434472568
 20
254.7064615129
 10
85.1813513912
 20
253.9547526856
 10
85.2136616783
 20
253.2024207962
 10
85.3402086466
 20
252.4534119224
 10
85.5603285408
 20
251.7116547124
 10
85.8728668037
 20
250.9810397785
 10
86.2761841318
 20
250.2653992902
 10
86.7681650737
 20
249.5684868743
 10
87.3462291258
 20
248.8939579262
 10
88.0073442677
 20
248.2453504374
 10
88.7480428651
 20
247.6260664376
 10
89.5644398583
 20
247.0393541516
 10
90.4522531399
 20
246.4882909607
 10
91.4068260146
 20
245.9757672626
 10
92.4231516245
 20
245.5044713102
 10
93.4958992108
 20
245.0768751116
 10
94.6194420738
 20
244.6952214639
 10
95.7878870865
 20
244.3615121898
 10
96.995105604
 20
244.0774976375
 10
98.2347656093
 20
243.8446674999
 10
99.5003649259
 20
243.6642430012
 10
100.7852653221
 20
243.5371704911
 10
102.0827273296
 20
243.4641164813
 10
103.3859455927
 20
243.4454641496
 10
104.6880845636
 20
243.4813113297
 10
105.9823143554
 20
243.5714699987
 10
107.2618465658
 20
243.7154672627
 10
108.5199698834
 20
243.9125478375
 10
109.750085289
 20
244.1616780099
 10
110.9457406687
 20
244.4615510602
 10
112.1006646558
 20
244.8105941155
 10
113.2087995249
 20
245.2069763999
 10
114.2643329658
 20
245.6486188373
 10
115.2617285693
 20
246.133204956
 10
116.1957548669
 20
246.6581930395
 10
117.0615127701
 20
247.2208294573
 10
117.8544612671
 20
247.818163109
 10
118.5704412407
 20
248.4470609025
 10
119.2056972836
 20
249.1042241878
 10
119.7568973959
 20
249.7862060586
 10
120.2211504618
 20
250.489429432
 10
120.5960214143
 20
251.2102058108
 10
120.8795440067
 20
251.9447546298
 10
121.0702311265
 20
252.6892230858
 10
121.1670825951
 20
253.4397063456
 10
121.1695904142
 20
254.1922680278
 10
121.0777414298
 20
254.9429608492
 10
120.8920174018
 20
255.6878473291
 10
120.8920174018
 20
255.6878473291
  0
LINE
  5
136
330
1F
100
AcDbEntity
  8
0
  6
Continuous
 62
     8
 48
10.0
370
    15
100
AcDbLine
 10
108.8623342835
 20
275.1581199499
 30
0.0
 11
108.8623342835
 21
269.2860077798
 31
0.0
  0
ARC
  5
137
330
1F
100
AcDbEntity
  8
0
  6
Continuous
 62
     8
 48
100.0
370
    15
100
AcDbCircle
 10
120.9765676122
 20
255.274454008
 30
0.0
 40
0.4219511536078179
100
AcDbArc
 50
21.5390080571
 51
101.5591311377
  0
LWPOLYLINE
  5
138
330
1F
100
AcDbEntity
  8
0
  6
Continuous
 62
     8
 48
10.0
370
    15
100
AcDbPolyline
 90
       42
 70
   128
 43
0.0
 10
121.5113373576
 20
251.9881164823
 10
121.3881327304
 20
251.5375472165
 10
121.1080765851
 20
250.7923038982
 10
120.7366153618
 20
250.0604970661
 10
120.2756429488
 20
249.3458578238
 10
119.7275096055
 20
248.6520297466
 10
119.0950099799
 20
247.9825503041
 10
118.3813688596
 20
247.3408328251
 10
117.590224731
 20
246.7301490945
 10
116.7256112278
 20
246.1536126721
 10
115.7919365663
 20
245.6141630183
 10
114.7939610698
 20
245.1145505074
 10
113.7367728979
 20
244.6573224046
 10
112.6257621054
 20
244.244809879
 10
111.4665931605
 20
243.8791161183
 10
110.2651760649
 20
243.5621056054
 10
109.0276362217
 20
243.2953946125
 10
107.7602832052
 20
243.080342961
 10
106.4695785917
 20
242.9180470875
 10
105.162103015
 20
242.8093344548
 10
103.8445226155
 20
242.7547593322
 10
102.5235550529
 20
242.7545999699
 10
101.2059352561
 20
242.8088571804
 10
99.8983810857
 20
242.9172543345
 10
98.6075590826
 20
243.079238771
 10
97.3400504794
 20
243.2939846154
 10
96.1023176454
 20
243.5603969899
 10
94.900671139
 20
243.8771175959
 10
93.7412375329
 20
244.242531639
 10
92.6299281783
 20
244.6547760626
 10
91.5724090655
 20
245.1117490459
 10
90.5740719364
 20
245.6111207205
 10
89.6400067948
 20
246.1503450491
 10
88.7749759546
 20
246.7266728062
 10
87.9833897598
 20
247.3371655953
 10
87.2692840982
 20
247.9787108301
 10
86.6362998245
 20
248.6480376039
 10
86.0876641973
 20
249.3417333663
 10
85.6261744256
 20
250.0562613222
 10
85.2541834063
 20
250.7879784638
 10
84.9735877291
 20
251.5331541447
 10
84.8295224144
 20
252.0733979608
  0
LWPOLYLINE
  5
139
330
1F
100
AcDbEntity
  8
0
  6
Continuous
 62
     8
 48
10.0
370
    15
100
AcDbPolyline
 90
       42
 70
   128
 43
0.0
 10
84.8478080419
 20
243.7053501378
 10
84.9735877291
 20
243.245264904
 10
85.2541834063
 20
242.5000892232
 10
85.6261744256
 20
241.7683720815
 10
86.0876641973
 20
241.0538441256
 10
86.6362998245
 20
240.3601483632
 10
87.2692840982
 20
239.6908215895
 10
87.9833897598
 20
239.0492763547
 10
88.7749759546
 20
238.4387835656
 10
89.6400067948
 20
237.8624558085
 10
90.5740719364
 20
237.3232314799
 10
91.5724090655
 20
236.8238598053
 10
92.6299281783
 20
236.366886822
 10
93.7412375329
 20
235.9546423984
 10
94.900671139
 20
235.5892283552
 10
96.1023176454
 20
235.2725077493
 10
97.3400504794
 20
235.0060953748
 10
98.6075590826
 20
234.7913495304
 10
99.8983810857
 20
234.6293650938
 10
101.2059352561
 20
234.5209679398
 10
102.5235550529
 20
234.4667107292
 10
103.8445226155
 20
234.4668700915
 10
105.162103015
 20
234.5214452142
 10
106.4695785917
 20
234.6301578469
 10
107.7602832052
 20
234.7924537203
 10
109.0276362217
 20
235.0075053719
 10
110.2651760649
 20
235.2742163647
 10
111.4665931605
 20
235.5912268777
 10
112.6257621054
 20
235.9569206384
 10
113.7367728979
 20
236.369433164
 10
114.7939610698
 20
236.8266612668
 10
115.7919365663
 20
237.3262737777
 10
116.7256112278
 20
237.8657234315
 10
117.590224731
 20
238.4422598539
 10
118.3813688596
 20
239.0529435845
 10
119.0950099799
 20
239.6946610635
 10
119.7275096055
 20
240.3641405059
 10
120.2756429488
 20
241.0579685832
 10
120.7366153618
 20
241.7726078255
 10
121.1080765851
 20
242.5044146576
 10
121.3881327304
 20
243.2496579758
 10
121.5190835569
 20
243.7334906553
  0
LWPOLYLINE
  5
13A
330
1F
100
AcDbEntity
  8
0
  6
Continuous
 62
     8
 48
10.0
370
    15
100
AcDbPolyline
 90
       19
 70
   128
 43
0.0
 10
145.7303257592
 20
254.3768343412
 10
146.2448757119
 20
254.0408461456
 10
146.7506215722
 20
253.6327171401
 10
147.2389098883
 20
253.1594305249
 10
147.7013859117
 20
252.6290843653
 10
148.1301365494
 20
252.0507530312
 10
148.5178257592
 20
251.434331932
 10
148.8578200711
 20
250.7903682036
 10
149.1443020882
 20
250.129880244
 10
149.3723700238
 20
249.4641691852
 10
149.5381215722
 20
248.8046255281
 10
149.6387206786
 20
248.1625342475
 10
149.6724460643
 20
247.5488817032
 10
149.6387206786
 20
246.9741676604
 10
149.5381215722
 20
246.4482256357
 10
149.3723700238
 20
245.980054643
 10
149.1443020882
 20
245.5776652177
 10
148.8578200711
 20
245.2479423545
 10
148.5227740459
 20
244.9993953783
  0
ARC
  5
13B
330
1F
100
AcDbEntity
  8
0
  6
Continuous
 62
     8
 48
100.0
370
    15
100
AcDbCircle
 10
145.6271145267
 20
245.4519399549
 30
0.0
 40
0.2515511212925416
100
AcDbArc
 50
174.3804036026
 51
234.2929805067
  0
LWPOLYLINE
  5
13C
330
1F
100
AcDbEntity
  8
0
  6
Continuous
 62
     8
 48
10.0
370
    15
100
AcDbPolyline
 90
        9
 70
   128
 43
0.0
 10
122.9583989918
 20
256.4192903214
 10
122.6111894529
 20
256.3972797527
 10
122.2805277272
 20
256.3322970581
 10
121.9821729685
 20
256.2274392765
 10
121.7303445984
 20
256.0877038715
 10
121.5370446168
 20
255.9197505547
 10
121.4114855931
 20
255.7315838876
 10
121.3596516006
 20
255.5321717887
 10
121.3583993396
 20
255.496238953
  0
ARC
  5
13D
330
1F
100
AcDbEntity
  8
0
  6
Continuous
 62
     8
 48
100.0
370
    15
100
AcDbCircle
 10
122.8746319083
 20
246.018919478
 30
0.0
 40
2.114141775393125
100
AcDbArc
 50
87.7292170748
 51
124.4011943787
  0
LINE
  5
13E
330
1F
100
AcDbEntity
  8
0
  6
Continuous
 62
     8
 48
10.0
370
    15
100
AcDbLine
 10
122.9583989918
 20
247.9200449368
 30
0.0
 11
122.9583989918
 21
248.1314010808
 31
0.0
  0
LINE
  5
13F
330
1F
100
AcDbEntity
  8
0
  6
Continuous
 62
     8
 48
10.0
370
    15
100
AcDbLine
 10
140.115234681
 20
247.9200449368
 30
0.0
 11
140.115234681
 21
248.1314010808
 31
0.0
  0
ARC
  5
140
330
1F
100
AcDbEntity
  8
0
  6
Continuous
 62
     8
 48
100.0
370
    15
100
AcDbCircle
 10
141.4916064821
 20
247.8338238622
 30
0.0
 40
0.2464889649765648
100
AcDbArc
 50
173.7011524782
 51
234.9866671284
  0
LINE
  5
141
330
1F
100
AcDbEntity
  8
0
  6
Continuous
 62
     8
 48
10.0
370
    15
100
AcDbLine
 10
107.8937051334
 20
269.4642213461
 30
0.0
 11
107.8937051334
 21
275.4029760335
 31
0.0
  0
LWPOLYLINE
  5
142
330
1F
100
AcDbEntity
  8
0
  6
Continuous
 62
     8
 48
10.0
370
    15
100
AcDbPolyline
 90
       23
 70
   128
 43
0.0
 10
103.7635382957
 20
277.7872705977
 10
103.2748951639
 20
278.0307613495
 10
102.7953545291
 20
278.1925224816
 10
102.333849326
 20
278.2695406903
 10
101.8989765233
 20
278.260381272
 10
101.4988369786
 20
278.1652148493
 10
101.1408845344
 20
277.9858141928
 10
100.8317871675
 20
277.7255211971
 10
100.5773027771
 20
277.3891846282
 10
100.3821719258
 20
276.9830698001
 10
100.2500295321
 20
276.5147418637
 10
100.183337159
 20
275.9929248822
 10
100.183337159
 20
275.4273393187
 10
100.2500295321
 20
274.8285209621
 10
100.3821719258
 20
274.2076246655
 10
100.5773027771
 20
273.576216552
 10
100.8317871675
 20
272.9460585601
 10
101.1408845344
 20
272.3288893409
 10
101.4988369786
 20
271.7362055893
 10
101.8989765233
 20
271.179047882
 10
102.333849326
 20
270.6677950131
 10
102.7953545291
 20
270.2119706562
 10
103.2399181658
 20
269.8460119659
  0
ARC
  5
143
330
1F
100
AcDbEntity
  8
0
  6
Continuous
 62
     8
 48
100.0
370
    15
100
AcDbCircle
 10
102.4834440986
 20
276.1076820945
 30
0.0
 40
2.814585116492193
100
AcDbArc
 50
54.5197590219
 51
114.3124752693
  0
ARC
  5
144
330
1F
100
AcDbEntity
  8
0
  6
Continuous
 62
     7
 48
100.0
370
    15
100
AcDbCircle
 10
194.6703145031
 20
193.1311339226
 30
0.0
 40
1.0
100
AcDbArc
 50
360.0
 51
90.0
  0
LINE
  5
145
330
1F
100
AcDbEntity
  8
0
  6
Continuous
 62
     7
 48
10.0
370
    15
100
AcDbLine
 10
194.6703145031
 20
194.1311339226
 30
0.0
 11
174.3703145031
 21
194.1311339226
 31
0.0
  0
ARC
  5
146
330
1F
100
AcDbEntity
  8
0
  6
Continuous
 62
     7
 48
100.0
370
    15
100
AcDbCircle
 10
174.3703145031
 20
193.1311339226
 30
0.0
 40
1.0
100
AcDbArc
 50
90.0
 51
180.0
  0
LINE
  5
147
330
1F
100
AcDbEntity
  8
0
  6
Continuous
 62
     7
 48
10.0
370
    15
100
AcDbLine
 10
195.6703145031
 20
95.6311339226
 30
0.0
 11
173.3703145031
 21
95.6311339226
 31
0.0
  0
ARC
  5
148
330
1F
100
AcDbEntity
  8
0
  6
Continuous
 62
     7
 48
100.0
370
    15
100
AcDbCircle
 10
174.3703145031
 20
95.6311339226
 30
0.0
 40
1.0
100
AcDbArc
 50
90.0
 51
180.0
  0
LINE
  5
149
330
1F
100
AcDbEntity
  8
0
  6
Continuous
 62
     7
 48
10.0
370
    15
100
AcDbLine
 10
174.3703145031
 20
96.6311339226
 30
0.0
 11
194.6703145031
 21
96.6311339226
 31
0.0
  0
ARC
  5
14A
330
1F
100
AcDbEntity
  8
0
  6
Continuous
 62
     7
 48
100.0
370
    15
100
AcDbCircle
 10
194.6703145031
 20
95.6311339226
 30
0.0
 40
1.0
100
AcDbArc
 50
0.0
 51
90.0
  0
LINE
  5
14B
330
1F
100
AcDbEntity
  8
0
  6
Continuous
 62
     7
 48
10.0
370
    15
100
AcDbLine
 10
195.6703145031
 20
93.6311339226
 30
0.0
 11
173.3703145031
 21
93.6311339226
 31
0.0
  0
LINE
  5
14C
330
1F
100
AcDbEntity
  8
0
  6
Continuous
 62
     7
 48
10.0
370
    15
100
AcDbLine
 10
173.3703145031
 20
93.6311339226
 30
0.0
 11
173.3703145031
 21
95.6311339226
 31
0.0
  0
LINE
  5
14D
330
1F
100
AcDbEntity
  8
0
  6
Continuous
 62
     7
 48
10.0
370
    15
100
AcDbLine
 10
195.6703145031
 20
95.6311339226
 30
0.0
 11
195.6703145031
 21
93.6311339226
 31
0.0
  0
LINE
  5
14E
330
1F
100
AcDbEntity
  8
0
  6
Continuous
 62
     7
 48
10.0
370
    15
100
AcDbLine
 10
194.6703145031
 20
96.6311339226
 30
0.0
 11
194.6703145031
 21
97.5683922228
 31
0.0
  0
ARC
  5
14F
330
1F
100
AcDbEntity
  8
0
  6
Continuous
 62
     7
 48
100.0
370
    15
100
AcDbCircle
 10
194.7953145031
 20
96.6845087463
 30
0.0
 40
0.8926785535678774
100
AcDbArc
 50
11.421753659
 51
98.0494669755
  0
LINE
  5
150
330
1F
100
AcDbEntity
  8
0
  6
Continuous
 62
     7
 48
10.0
370
    15
100
AcDbLine
 10
195.6703145031
 20
96.8612854416
 30
0.0
 11
195.6703145031
 21
95.6311339226
 31
0.0
  0
LINE
  5
151
330
1F
100
AcDbEntity
  8
0
  6
Continuous
 62
     7
 48
10.0
370
    15
100
AcDbLine
 10
174.3703145031
 20
97.5683922228
 30
0.0
 11
174.3703145031
 21
96.6311339226
 31
0.0
  0
LINE
  5
152
330
1F
100
AcDbEntity
  8
0
  6
Continuous
 62
     7
 48
10.0
370
    15
100
AcDbLine
 10
174.3703145031
 20
97.5683922228
 30
0.0
 11
194.6703145031
 21
97.5683922228
 31
0.0
  0
ARC
  5
153
330
1F
100
AcDbEntity
  8
0
  6
Continuous
 62
     7
 48
100.0
370
    15
100
AcDbCircle
 10
174.2453145031
 20
96.6845087463
 30
0.0
 40
0.8926785535678774
100
AcDbArc
 50
81.9505330245
 51
168.578246341
  0
LINE
  5
154
330
1F
100
AcDbEntity
  8
0
  6
Continuous
 62
     7
 48
10.0
370
    15
100
AcDbLine
 10
173.3703145031
 20
95.6311339226
 30
0.0
 11
173.3703145031
 21
96.8612854416
 31
0.0
  0
LINE
  5
155
330
1F
100
AcDbEntity
  8
0
  6
Continuous
 62
     7
 48
10.0
370
    15
100
AcDbLine
 10
194.6703145031
 20
97.5683922228
 30
0.0
 11
194.6703145031
 21
121.8318219419
 31
0.0
  0
ARC
  5
156
330
1F
100
AcDbEntity
  8
0
  6
Continuous
 62
     7
 48
100.0
370
    15
100
AcDbCircle
 10
194.7953145031
 20
120.9479384654
 30
0.0
 40
0.8926785535678532
100
AcDbArc
 50
11.421753659
 51
98.0494669755
  0
LINE
  5
157
330
1F
100
AcDbEntity
  8
0
  6
Continuous
 62
     7
 48
10.0
370
    15
100
AcDbLine
 10
195.6703145031
 20
121.1247151607
 30
0.0
 11
195.6703145031
 21
96.8612854416
 31
0.0
  0
LINE
  5
158
330
1F
100
AcDbEntity
  8
0
  6
Continuous
 62
     7
 48
10.0
370
    15
100
AcDbLine
 10
174.3703145031
 20
121.8318219419
 30
0.0
 11
174.3703145031
 21
97.5683922228
 31
0.0
  0
LINE
  5
159
330
1F
100
AcDbEntity
  8
0
  6
Continuous
 62
     7
 48
10.0
370
    15
100
AcDbLine
 10
194.6703145031
 20
121.8318219419
 30
0.0
 11
174.3703145031
 21
121.8318219419
 31
0.0
  0
ARC
  5
15A
330
1F
100
AcDbEntity
  8
0
  6
Continuous
 62
     7
 48
100.0
370
    15
100
AcDbCircle
 10
174.2453145031
 20
120.9479384654
 30
0.0
 40
0.8926785535678565
100
AcDbArc
 50
81.9505330245
 51
168.578246341
  0
LINE
  5
15B
330
1F
100
AcDbEntity
  8
0
  6
Continuous
 62
     7
 48
10.0
370
    15
100
AcDbLine
 10
173.3703145031
 20
96.8612854416
 30
0.0
 11
173.3703145031
 21
121.1247151607
 31
0.0
  0
ARC
  5
15C
330
1F
100
AcDbEntity
  8
0
  6
Continuous
 62
     7
 48
100.0
370
    15
100
AcDbCircle
 10
194.7514735437
 20
127.6449026374
 30
0.0
 40
0.9241329227012515
100
AcDbArc
 50
264.9616893448
 51
353.8653995001
  0
LINE
  5
15D
330
1F
100
AcDbEntity
  8
0
  6
Continuous
 62
     7
 48
10.0
370
    15
100
AcDbLine
 10
195.6703145031
 20
193.1311339226
 30
0.0
 11
195.6703145031
 21
127.5461456113
 31
0.0
  0
LINE
  5
15E
330
1F
100
AcDbEntity
  8
0
  6
Continuous
 62
     7
 48
10.0
370
    15
100
AcDbLine
 10
174.3703145031
 20
126.7243403804
 30
0.0
 11
194.6703145031
 21
126.7243403804
 31
0.0
  0
ARC
  5
15F
330
1F
100
AcDbEntity
  8
0
  6
Continuous
 62
     7
 48
100.0
370
    15
100
AcDbCircle
 10
174.2891554625
 20
127.6449026374
 30
0.0
 40
0.9241329227011955
100
AcDbArc
 50
186.1346004999
 51
275.0383106552
  0
LINE
  5
160
330
1F
100
AcDbEntity
  8
0
  6
Continuous
 62
     7
 48
10.0
370
    15
100
AcDbLine
 10
173.3703145031
 20
127.5461456113
 30
0.0
 11
173.3703145031
 21
193.1311339226
 31
0.0
  0
LINE
  5
161
330
1F
100
AcDbEntity
  8
0
  6
Continuous
 62
     7
 48
10.0
370
    15
100
AcDbLine
 10
194.6703145031
 20
121.8318219419
 30
0.0
 11
194.6703145031
 21
126.7243403804
 31
0.0
  0
LINE
  5
162
330
1F
100
AcDbEntity
  8
0
  6
Continuous
 62
     7
 48
10.0
370
    15
100
AcDbLine
 10
195.6703145031
 20
127.5461456113
 30
0.0
 11
195.6703145031
 21
121.1247151607
 31
0.0
  0
LINE
  5
163
330
1F
100
AcDbEntity
  8
0
  6
Continuous
 62
     7
 48
10.0
370
    15
100
AcDbLine
 10
174.3703145031
 20
126.7243403804
 30
0.0
 11
174.3703145031
 21
121.8318219419
 31
0.0
  0
LINE
  5
164
330
1F
100
AcDbEntity
  8
0
  6
Continuous
 62
     7
 48
10.0
370
    15
100
AcDbLine
 10
173.3703145031
 20
121.1247151607
 30
0.0
 11
173.3703145031
 21
127.5461456113
 31
0.0
  0
LINE
  5
165
330
1F
100
AcDbEntity
  8
0
  6
Continuous
 62
     8
 48
10.0
370
    15
100
AcDbLine
 10
194.6703145031
 20
126.7243403804
 30
0.0
 11
194.6703145031
 21
194.1311339226
 31
0.0
  0
LINE
  5
166
330
1F
100
AcDbEntity
  8
0
  6
Continuous
 62
     8
 48
10.0
370
    15
100
AcDbLine
 10
174.3703145031
 20
194.1311339226
 30
0.0
 11
174.3703145031
 21
126.7243403804
 31
0.0
  0
DIMENSION
  5
167
330
1F
100
AcDbEntity
  8
SLD-0
 48
10.0
100
AcDbDimension
  2
*D7
 10
173.3703145031
 20
83.6311339226
 30
0.0
 11
184.7027132113
 21
83.6311339226
 31
0.0
 70
   160
 71
     2
 42
-1.0
 73
     0
 74
     0
 75
     0
  3
SLDDIMSTYLE1
100
AcDbAlignedDimension
 13
195.6703145031
 23
96.8612854416
 33
0.0
 14
173.3703145031
 24
96.8612854416
 34
0.0
 50
0.0
100
AcDbRotatedDimension
  0
ENDSEC
  0
SECTION
  2
OBJECTS
  0
DICTIONARY
  5
C
330
0
100
AcDbDictionary
281
     1
  3
ACAD_GROUP
350
D
  3
ACAD_IMAGE_DICT
350
73
  3
ACAD_IMAGE_VARS
350
195
  3
ACAD_LAYOUT
350
1A
  3
ACAD_MATERIAL
350
3B
  3
ACAD_MLEADERSTYLE
350
194
  3
ACAD_MLINESTYLE
350
17
  3
ACAD_PLOTSETTINGS
350
19
  3
ACAD_PLOTSTYLENAME
350
E
  3
ACAD_SCALELIST
350
4A
  3
ACAD_TABLESTYLE
350
193
  3
ACAD_VISUALSTYLE
350
2A
  3
AcDbVariableDictionary
350
171
  0
IMAGEDEF_REACTOR
  5
76
330
75
100
AcDbRasterImageDefReactor
 90
        2
330
75
  0
DICTIONARY
  5
D
102
{ACAD_REACTORS
330
C
102
}
330
C
100
AcDbDictionary
281
     1
  0
DICTIONARY
  5
73
102
{ACAD_REACTORS
330
C
102
}
330
C
100
AcDbDictionary
281
     1
  3
S:\MWDesign CLIENT L -Z\Marley NZ\RAINWATER PRODUCTS\12-501 illustration of rainwater products\12-501 Illustration\dxf6B6.bmp
350
74
  0
RASTERVARIABLES
  5
195
102
{ACAD_REACTORS
330
C
102
}
330
C
100
AcDbRasterVariables
 90
        0
 70
     1
 71
     1
 72
     1
  0
DICTIONARY
  5
1A
102
{ACAD_REACTORS
330
C
102
}
330
C
100
AcDbDictionary
281
     1
  3
Layout1
350
1E
  3
Layout2
350
26
  3
Model
350
22
  0
DICTIONARY
  5
3B
102
{ACAD_REACTORS
330
C
102
}
330
C
100
AcDbDictionary
281
     1
  3
ByBlock
350
3D
  3
ByLayer
350
3C
  3
Global
350
3E
  0
DICTIONARY
  5
194
102
{ACAD_REACTORS
330
C
102
}
330
C
100
AcDbDictionary
281
     1
  0
DICTIONARY
  5
17
102
{ACAD_REACTORS
330
C
102
}
330
C
100
AcDbDictionary
281
     1
  3
Standard
350
18
  0
DICTIONARY
  5
19
102
{ACAD_REACTORS
330
C
102
}
330
C
100
AcDbDictionary
281
     1
  0
ACDBDICTIONARYWDFLT
  5
E
102
{ACAD_REACTORS
330
C
102
}
330
C
100
AcDbDictionary
281
     1
  3
Normal
350
F
100
AcDbDictionaryWithDefault
340
F
  0
DICTIONARY
  5
4A
102
{ACAD_REACTORS
330
C
102
}
330
C
100
AcDbDictionary
281
     1
  3
A0
350
4B
  3
A1
350
4C
  3
A2
350
4D
  3
A3
350
4E
  3
A4
350
4F
  3
A5
350
50
  3
A6
350
51
  3
A7
350
52
  3
A8
350
53
  3
A9
350
54
  3
B0
350
55
  3
B1
350
56
  3
B2
350
57
  3
B3
350
58
  3
B4
350
59
  3
B5
350
5A
  3
B6
350
5B
  3
B7
350
5C
  3
B8
350
5D
  3
B9
350
5E
  3
C0
350
5F
  3
C1
350
60
  3
C2
350
61
  3
C3
350
62
  3
C4
350
63
  3
C5
350
64
  3
C6
350
65
  3
C7
350
66
  3
C8
350
67
  3
C9
350
68
  3
D0
350
69
  3
D1
350
6A
  3
D2
350
6B
  0
DICTIONARY
  5
193
102
{ACAD_REACTORS
330
C
102
}
330
C
100
AcDbDictionary
281
     1
  0
DICTIONARY
  5
2A
102
{ACAD_REACTORS
330
C
102
}
330
C
100
AcDbDictionary
281
     1
  3
2dWireframe
350
2F
  3
3D Hidden
350
31
  3
3dWireframe
350
30
  3
Basic
350
32
  3
Brighten
350
36
  3
ColorChange
350
3A
  3
Conceptual
350
34
  3
Dim
350
35
  3
Facepattern
350
39
  3
Flat
350
2B
  3
FlatWithEdges
350
2C
  3
Gouraud
350
2D
  3
GouraudWithEdges
350
2E
  3
Linepattern
350
38
  3
Realistic
350
33
  3
Thicken
350
37
  0
DICTIONARY
  5
171
102
{ACAD_REACTORS
330
C
102
}
330
C
100
AcDbDictionary
281
     1
  3
CANNOSCALE
350
172
  0
IMAGEDEF
  5
74
102
{ACAD_REACTORS
330
73
330
76
102
}
330
73
100
AcDbRasterImageDef
 90
        0
  1
S:\MWDesign CLIENT L -Z\Marley NZ\RAINWATER PRODUCTS\12-501 illustration of rainwater products\12-501 Illustration\dxf6B6.bmp
 10
394.0
 20
64.0
 11
0.2645502645502645
 21
0.2645502645502645
280
     1
281
     3
  0
LAYOUT
  5
1E
102
{ACAD_REACTORS
330
1A
102
}
330
1A
100
AcDbPlotSettings
  1

  2
none_device
  4

  6

 40
0.0
 41
0.0
 42
0.0
 43
0.0
 44
0.0
 45
0.0
 46
0.0
 47
0.0
 48
0.0
 49
0.0
140
0.0
141
0.0
142
1.0
143
1.0
 70
   688
 72
     0
 73
     0
 74
     5
  7

 75
    16
 76
     0
 77
     2
 78
   300
147
1.0
148
0.0
149
0.0
100
AcDbLayout
  1
Layout1
 70
     1
 71
     1
 10
0.0
 20
0.0
 11
420.0
 21
297.0
 12
0.0
 22
0.0
 32
0.0
 14
1.0000000000E+20
 24
1.0000000000E+20
 34
1.0000000000E+20
 15
-1.0000000000E+20
 25
-1.0000000000E+20
 35
-1.0000000000E+20
146
0.0
 13
0.0
 23
0.0
 33
0.0
 16
1.0
 26
0.0
 36
0.0
 17
0.0
 27
1.0
 37
0.0
 76
     0
330
1B
  0
LAYOUT
  5
26
102
{ACAD_REACTORS
330
1A
102
}
330
1A
100
AcDbPlotSettings
  1

  2
none_device
  4

  6

 40
0.0
 41
0.0
 42
0.0
 43
0.0
 44
0.0
 45
0.0
 46
0.0
 47
0.0
 48
0.0
 49
0.0
140
0.0
141
0.0
142
1.0
143
1.0
 70
   688
 72
     0
 73
     0
 74
     5
  7

 75
    16
 76
     0
 77
     2
 78
   300
147
1.0
148
0.0
149
0.0
100
AcDbLayout
  1
Layout2
 70
     1
 71
     2
 10
0.0
 20
0.0
 11
0.0
 21
0.0
 12
0.0
 22
0.0
 32
0.0
 14
0.0
 24
0.0
 34
0.0
 15
0.0
 25
0.0
 35
0.0
146
0.0
 13
0.0
 23
0.0
 33
0.0
 16
1.0
 26
0.0
 36
0.0
 17
0.0
 27
1.0
 37
0.0
 76
     0
330
23
  0
LAYOUT
  5
22
102
{ACAD_REACTORS
330
1A
102
}
330
1A
100
AcDbPlotSettings
  1

  2
none_device
  4

  6

 40
0.0
 41
0.0
 42
0.0
 43
0.0
 44
0.0
 45
0.0
 46
0.0
 47
0.0
 48
0.0
 49
0.0
140
0.0
141
0.0
142
1.0
143
1.0
 70
  1712
 72
     0
 73
     0
 74
     0
  7

 75
     0
 76
     0
 77
     2
 78
   300
147
1.0
148
0.0
149
0.0
100
AcDbLayout
  1
Model
 70
     1
 71
     0
 10
0.0
 20
0.0
 11
210.0
 21
297.0
 12
0.0
 22
0.0
 32
0.0
 14
0.0
 24
0.0
 34
0.0
 15
210.0
 25
297.0
 35
0.0
146
0.0
 13
0.0
 23
0.0
 33
0.0
 16
1.0
 26
0.0
 36
0.0
 17
0.0
 27
1.0
 37
0.0
 76
     0
330
1F
331
29
  0
MATERIAL
  5
3D
102
{ACAD_REACTORS
330
3B
102
}
330
3B
100
AcDbMaterial
  1
ByBlock
 72
     1
 94
      127
  0
MATERIAL
  5
3C
102
{ACAD_REACTORS
330
3B
102
}
330
3B
100
AcDbMaterial
  1
ByLayer
 72
     1
 94
      127
  0
MATERIAL
  5
3E
102
{ACAD_REACTORS
330
3B
102
}
330
3B
100
AcDbMaterial
  1
Global
 72
     1
 94
      127
  0
MLINESTYLE
  5
18
102
{ACAD_REACTORS
330
17
102
}
330
17
100
AcDbMlineStyle
  2
Standard
 70
     0
  3

 62
   256
 51
90.0
 52
90.0
 71
     2
 49
0.5
 62
   256
  6
BYLAYER
 49
-0.5
 62
   256
  6
BYLAYER
  0
ACDBPLACEHOLDER
  5
F
102
{ACAD_REACTORS
330
E
102
}
330
E
  0
SCALE
  5
4B
102
{ACAD_REACTORS
330
4A
102
}
330
4A
100
AcDbScale
 70
     0
300
1:1
140
1.0
141
1.0
290
     1
  0
SCALE
  5
4C
102
{ACAD_REACTORS
330
4A
102
}
330
4A
100
AcDbScale
 70
     0
300
1:2
140
1.0
141
2.0
290
     0
  0
SCALE
  5
4D
102
{ACAD_REACTORS
330
4A
102
}
330
4A
100
AcDbScale
 70
     0
300
1:4
140
1.0
141
4.0
290
     0
  0
SCALE
  5
4E
102
{ACAD_REACTORS
330
4A
102
}
330
4A
100
AcDbScale
 70
     0
300
1:5
140
1.0
141
5.0
290
     0
  0
SCALE
  5
4F
102
{ACAD_REACTORS
330
4A
102
}
330
4A
100
AcDbScale
 70
     0
300
1:8
140
1.0
141
8.0
290
     0
  0
SCALE
  5
50
102
{ACAD_REACTORS
330
4A
102
}
330
4A
100
AcDbScale
 70
     0
300
1:10
140
1.0
141
10.0
290
     0
  0
SCALE
  5
51
102
{ACAD_REACTORS
330
4A
102
}
330
4A
100
AcDbScale
 70
     0
300
1:16
140
1.0
141
16.0
290
     0
  0
SCALE
  5
52
102
{ACAD_REACTORS
330
4A
102
}
330
4A
100
AcDbScale
 70
     0
300
1:20
140
1.0
141
20.0
290
     0
  0
SCALE
  5
53
102
{ACAD_REACTORS
330
4A
102
}
330
4A
100
AcDbScale
 70
     0
300
1:30
140
1.0
141
30.0
290
     0
  0
SCALE
  5
54
102
{ACAD_REACTORS
330
4A
102
}
330
4A
100
AcDbScale
 70
     0
300
1:40
140
1.0
141
40.0
290
     0
  0
SCALE
  5
55
102
{ACAD_REACTORS
330
4A
102
}
330
4A
100
AcDbScale
 70
     0
300
1:50
140
1.0
141
50.0
290
     0
  0
SCALE
  5
56
102
{ACAD_REACTORS
330
4A
102
}
330
4A
100
AcDbScale
 70
     0
300
1:100
140
1.0
141
100.0
290
     0
  0
SCALE
  5
57
102
{ACAD_REACTORS
330
4A
102
}
330
4A
100
AcDbScale
 70
     0
300
2:1
140
2.0
141
1.0
290
     0
  0
SCALE
  5
58
102
{ACAD_REACTORS
330
4A
102
}
330
4A
100
AcDbScale
 70
     0
300
4:1
140
4.0
141
1.0
290
     0
  0
SCALE
  5
59
102
{ACAD_REACTORS
330
4A
102
}
330
4A
100
AcDbScale
 70
     0
300
8:1
140
8.0
141
1.0
290
     0
  0
SCALE
  5
5A
102
{ACAD_REACTORS
330
4A
102
}
330
4A
100
AcDbScale
 70
     0
300
10:1
140
10.0
141
1.0
290
     0
  0
SCALE
  5
5B
102
{ACAD_REACTORS
330
4A
102
}
330
4A
100
AcDbScale
 70
     0
300
100:1
140
100.0
141
1.0
290
     0
  0
SCALE
  5
5C
102
{ACAD_REACTORS
330
4A
102
}
330
4A
100
AcDbScale
 70
     0
300
1/128" = 1'-0"
140
0.0078125
141
12.0
290
     0
  0
SCALE
  5
5D
102
{ACAD_REACTORS
330
4A
102
}
330
4A
100
AcDbScale
 70
     0
300
1/64" = 1'-0"
140
0.015625
141
12.0
290
     0
  0
SCALE
  5
5E
102
{ACAD_REACTORS
330
4A
102
}
330
4A
100
AcDbScale
 70
     0
300
1/32" = 1'-0"
140
0.03125
141
12.0
290
     0
  0
SCALE
  5
5F
102
{ACAD_REACTORS
330
4A
102
}
330
4A
100
AcDbScale
 70
     0
300
1/16" = 1'-0"
140
0.0625
141
12.0
290
     0
  0
SCALE
  5
60
102
{ACAD_REACTORS
330
4A
102
}
330
4A
100
AcDbScale
 70
     0
300
3/32" = 1'-0"
140
0.09375
141
12.0
290
     0
  0
SCALE
  5
61
102
{ACAD_REACTORS
330
4A
102
}
330
4A
100
AcDbScale
 70
     0
300
1/8" = 1'-0"
140
0.125
141
12.0
290
     0
  0
SCALE
  5
62
102
{ACAD_REACTORS
330
4A
102
}
330
4A
100
AcDbScale
 70
     0
300
3/16" = 1'-0"
140
0.1875
141
12.0
290
     0
  0
SCALE
  5
63
102
{ACAD_REACTORS
330
4A
102
}
330
4A
100
AcDbScale
 70
     0
300
1/4" = 1'-0"
140
0.25
141
12.0
290
     0
  0
SCALE
  5
64
102
{ACAD_REACTORS
330
4A
102
}
330
4A
100
AcDbScale
 70
     0
300
3/8" = 1'-0"
140
0.375
141
12.0
290
     0
  0
SCALE
  5
65
102
{ACAD_REACTORS
330
4A
102
}
330
4A
100
AcDbScale
 70
     0
300
1/2" = 1'-0"
140
0.5
141
12.0
290
     0
  0
SCALE
  5
66
102
{ACAD_REACTORS
330
4A
102
}
330
4A
100
AcDbScale
 70
     0
300
3/4" = 1'-0"
140
0.75
141
12.0
290
     0
  0
SCALE
  5
67
102
{ACAD_REACTORS
330
4A
102
}
330
4A
100
AcDbScale
 70
     0
300
1" = 1'-0"
140
1.0
141
12.0
290
     0
  0
SCALE
  5
68
102
{ACAD_REACTORS
330
4A
102
}
330
4A
100
AcDbScale
 70
     0
300
1-1/2" = 1'-0"
140
1.5
141
12.0
290
     0
  0
SCALE
  5
69
102
{ACAD_REACTORS
330
4A
102
}
330
4A
100
AcDbScale
 70
     0
300
3" = 1'-0"
140
3.0
141
12.0
290
     0
  0
SCALE
  5
6A
102
{ACAD_REACTORS
330
4A
102
}
330
4A
100
AcDbScale
 70
     0
300
6" = 1'-0"
140
6.0
141
12.0
290
     0
  0
SCALE
  5
6B
102
{ACAD_REACTORS
330
4A
102
}
330
4A
100
AcDbScale
 70
     0
300
1'-0" = 1'-0"
140
12.0
141
12.0
290
     0
  0
VISUALSTYLE
  5
2F
102
{ACAD_REACTORS
330
2A
102
}
102
{ACAD_XDICTIONARY
360
17B
102
}
330
2A
100
AcDbVisualStyle
  2
2dWireframe
 70
     4
 71
     0
 72
     2
 73
     0
 90
        0
 40
-0.6
 41
-30.0
 62
     5
 63
     7
421
 16777215
 74
     1
 91
        4
 64
     7
 65
   257
 75
     1
175
     1
 42
1.0
 92
        0
 66
   257
 43
1.0
 76
     1
 77
     6
 78
     2
 67
     7
 79
     5
170
     0
171
     0
290
     0
174
     0
 93
        1
 44
0.0
173
     0
291
     0
 45
0.0
  0
VISUALSTYLE
  5
31
102
{ACAD_REACTORS
330
2A
102
}
102
{ACAD_XDICTIONARY
360
17F
102
}
330
2A
100
AcDbVisualStyle
  2
3D Hidden
 70
     6
 71
     1
 72
     2
 73
     2
 90
        0
 40
-0.6
 41
-30.0
 62
     5
 63
     7
421
 16777215
 74
     2
 91
        2
 64
     7
 65
   257
 75
     2
175
     1
 42
40.0
 92
        0
 66
   257
 43
1.0
 76
     1
 77
     6
 78
     2
 67
     7
 79
     3
170
     0
171
     0
290
     0
174
     0
 93
        1
 44
0.0
173
     0
291
     0
 45
0.0
  0
VISUALSTYLE
  5
30
102
{ACAD_REACTORS
330
2A
102
}
102
{ACAD_XDICTIONARY
360
17D
102
}
330
2A
100
AcDbVisualStyle
  2
3dWireframe
 70
     5
 71
     0
 72
     2
 73
     0
 90
        0
 40
-0.6
 41
-30.0
 62
     5
 63
     7
421
 16777215
 74
     1
 91
        4
 64
     7
 65
   257
 75
     1
175
     1
 42
1.0
 92
        0
 66
   257
 43
1.0
 76
     1
 77
     6
 78
     2
 67
     7
 79
     5
170
     0
171
     0
290
     0
174
     0
 93
        1
 44
0.0
173
     0
291
     0
 45
0.0
  0
VISUALSTYLE
  5
32
102
{ACAD_REACTORS
330
2A
102
}
102
{ACAD_XDICTIONARY
360
181
102
}
330
2A
100
AcDbVisualStyle
  2
Basic
 70
     7
 71
     1
 72
     0
 73
     1
 90
        0
 40
-0.6
 41
-30.0
 62
     5
 63
     7
421
 16777215
 74
     0
 91
        4
 64
     7
 65
   257
 75
     1
175
     1
 42
1.0
 92
        8
 66
     7
 43
1.0
 76
     1
 77
     6
 78
     2
 67
     7
 79
     5
170
     0
171
     0
290
     0
174
     0
 93
        1
 44
0.0
173
     0
291
     1
 45
0.0
  0
VISUALSTYLE
  5
36
102
{ACAD_REACTORS
330
2A
102
}
102
{ACAD_XDICTIONARY
360
189
102
}
330
2A
100
AcDbVisualStyle
  2
Brighten
 70
    12
 71
     2
 72
     2
 73
     0
 90
        0
 40
-0.6
 41
-30.0
 62
     5
 63
     7
421
 16777215
 74
     1
 91
        4
 64
     7
 65
   257
 75
     1
175
     1
 42
1.0
 92
        8
 66
     7
 43
1.0
 76
     1
 77
     6
 78
     2
 67
     7
 79
     5
170
     0
171
     0
290
     0
174
     0
 93
        1
 44
50.0
173
     0
291
     1
 45
0.0
  0
VISUALSTYLE
  5
3A
102
{ACAD_REACTORS
330
2A
102
}
102
{ACAD_XDICTIONARY
360
191
102
}
330
2A
100
AcDbVisualStyle
  2
ColorChange
 70
    16
 71
     2
 72
     2
 73
     3
 90
        0
 40
-0.6
 41
-30.0
 62
     5
 63
     8
421
  8421504
 74
     1
 91
        4
 64
     7
 65
   257
 75
     1
175
     1
 42
1.0
 92
        8
 66
     8
424
  8421504
 43
1.0
 76
     1
 77
     6
 78
     2
 67
     7
 79
     5
170
     0
171
     0
290
     0
174
     0
 93
        1
 44
0.0
173
     0
291
     1
 45
0.0
  0
VISUALSTYLE
  5
34
102
{ACAD_REACTORS
330
2A
102
}
102
{ACAD_XDICTIONARY
360
185
102
}
330
2A
100
AcDbVisualStyle
  2
Conceptual
 70
     9
 71
     3
 72
     2
 73
     0
 90
        0
 40
-0.6
 41
-30.0
 62
     5
 63
     7
421
 16777215
 74
     2
 91
        2
 64
     7
 65
   257
 75
     1
175
     1
 42
40.0
 92
        8
 66
     7
 43
1.0
 76
     1
 77
     6
 78
     2
 67
     7
 79
     3
170
     0
171
     0
290
     0
174
     0
 93
        1
 44
0.0
173
     0
291
     0
 45
0.0
  0
VISUALSTYLE
  5
35
102
{ACAD_REACTORS
330
2A
102
}
102
{ACAD_XDICTIONARY
360
187
102
}
330
2A
100
AcDbVisualStyle
  2
Dim
 70
    11
 71
     2
 72
     2
 73
     0
 90
        0
 40
-0.6
 41
-30.0
 62
     5
 63
     7
421
 16777215
 74
     1
 91
        4
 64
     7
 65
   257
 75
     1
175
     1
 42
1.0
 92
        8
 66
     7
 43
1.0
 76
     1
 77
     6
 78
     2
 67
     7
 79
     5
170
     0
171
     0
290
     0
174
     0
 93
        1
 44
-50.0
173
     0
291
     1
 45
0.0
  0
VISUALSTYLE
  5
39
102
{ACAD_REACTORS
330
2A
102
}
102
{ACAD_XDICTIONARY
360
18F
102
}
330
2A
100
AcDbVisualStyle
  2
Facepattern
 70
    15
 71
     2
 72
     2
 73
     0
 90
        0
 40
-0.6
 41
-30.0
 62
     5
 63
     7
421
 16777215
 74
     1
 91
        4
 64
     7
 65
   257
 75
     1
175
     1
 42
1.0
 92
        8
 66
     7
 43
1.0
 76
     1
 77
     6
 78
     2
 67
     7
 79
     5
170
     0
171
     0
290
     0
174
     0
 93
        1
 44
0.0
173
     0
291
     1
 45
0.0
  0
VISUALSTYLE
  5
2B
102
{ACAD_REACTORS
330
2A
102
}
102
{ACAD_XDICTIONARY
360
173
102
}
330
2A
100
AcDbVisualStyle
  2
Flat
 70
     0
 71
     2
 72
     1
 73
     1
 90
        2
 40
-0.6
 41
30.0
 62
     5
 63
     7
421
 16777215
 74
     0
 91
        4
 64
     7
 65
   257
 75
     1
175
     1
 42
1.0
 92
        8
 66
     7
 43
1.0
 76
     1
 77
     6
 78
     2
 67
     7
 79
     5
170
     0
171
     0
290
     0
174
     0
 93
       13
 44
0.0
173
     0
291
     1
 45
0.0
  0
VISUALSTYLE
  5
2C
102
{ACAD_REACTORS
330
2A
102
}
102
{ACAD_XDICTIONARY
360
175
102
}
330
2A
100
AcDbVisualStyle
  2
FlatWithEdges
 70
     1
 71
     2
 72
     1
 73
     1
 90
        2
 40
-0.6
 41
30.0
 62
     5
 63
     7
421
 16777215
 74
     1
 91
        4
 64
     7
 65
   257
 75
     1
175
     1
 42
1.0
 92
        0
 66
   257
 43
1.0
 76
     1
 77
     6
 78
     2
 67
     7
 79
     5
170
     0
171
     0
290
     0
174
     0
 93
       13
 44
0.0
173
     0
291
     1
 45
0.0
  0
VISUALSTYLE
  5
2D
102
{ACAD_REACTORS
330
2A
102
}
102
{ACAD_XDICTIONARY
360
177
102
}
330
2A
100
AcDbVisualStyle
  2
Gouraud
 70
     2
 71
     2
 72
     2
 73
     1
 90
        2
 40
-0.6
 41
30.0
 62
     5
 63
     7
421
 16777215
 74
     0
 91
        4
 64
     7
 65
   257
 75
     1
175
     1
 42
1.0
 92
        0
 66
     7
 43
1.0
 76
     1
 77
     6
 78
     2
 67
     7
 79
     5
170
     0
171
     0
290
     0
174
     0
 93
       13
 44
0.0
173
     0
291
     1
 45
0.0
  0
VISUALSTYLE
  5
2E
102
{ACAD_REACTORS
330
2A
102
}
102
{ACAD_XDICTIONARY
360
179
102
}
330
2A
100
AcDbVisualStyle
  2
GouraudWithEdges
 70
     3
 71
     2
 72
     2
 73
     1
 90
        2
 40
-0.6
 41
30.0
 62
     5
 63
     7
421
 16777215
 74
     1
 91
        4
 64
     7
 65
   257
 75
     1
175
     1
 42
1.0
 92
        0
 66
   257
 43
1.0
 76
     1
 77
     6
 78
     2
 67
     7
 79
     5
170
     0
171
     0
290
     0
174
     0
 93
       13
 44
0.0
173
     0
291
     1
 45
0.0
  0
VISUALSTYLE
  5
38
102
{ACAD_REACTORS
330
2A
102
}
102
{ACAD_XDICTIONARY
360
18D
102
}
330
2A
100
AcDbVisualStyle
  2
Linepattern
 70
    14
 71
     2
 72
     2
 73
     0
 90
        0
 40
-0.6
 41
-30.0
 62
     5
 63
     7
421
 16777215
 74
     1
 91
        4
 64
     7
 65
   257
 75
     7
175
     7
 42
1.0
 92
        8
 66
     7
 43
1.0
 76
     1
 77
     6
 78
     2
 67
     7
 79
     5
170
     0
171
     0
290
     0
174
     0
 93
        1
 44
0.0
173
     0
291
     1
 45
0.0
  0
VISUALSTYLE
  5
33
102
{ACAD_REACTORS
330
2A
102
}
102
{ACAD_XDICTIONARY
360
183
102
}
330
2A
100
AcDbVisualStyle
  2
Realistic
 70
     8
 71
     2
 72
     2
 73
     0
 90
        0
 40
-0.6
 41
-30.0
 62
     5
 63
     7
421
 16777215
 74
     1
 91
        0
 64
     7
 65
   257
 75
     1
175
     1
 42
1.0
 92
        8
 66
     8
424
  7895160
 43
1.0
 76
     1
 77
     6
 78
     2
 67
     7
 79
     5
170
     0
171
     0
290
     0
174
     0
 93
       13
 44
0.0
173
     0
291
     0
 45
0.0
  0
VISUALSTYLE
  5
37
102
{ACAD_REACTORS
330
2A
102
}
102
{ACAD_XDICTIONARY
360
18B
102
}
330
2A
100
AcDbVisualStyle
  2
Thicken
 70
    13
 71
     2
 72
     2
 73
     0
 90
        0
 40
-0.6
 41
-30.0
 62
     5
 63
     7
421
 16777215
 74
     1
 91
        4
 64
     7
 65
   257
 75
     1
175
     1
 42
1.0
 92
       12
 66
     7
 43
1.0
 76
     1
 77
     6
 78
     2
 67
     7
 79
     5
170
     0
171
     0
290
     0
174
     0
 93
        1
 44
0.0
173
     0
291
     1
 45
0.0
  0
DICTIONARYVAR
  5
172
102
{ACAD_REACTORS
330
171
102
}
330
171
100
DictionaryVariables
280
     0
  1
1:1
  0
DICTIONARY
  5
17B
330
2F
100
AcDbDictionary
280
     1
281
     1
  3
ACAD_XREC_ROUNDTRIP
360
17C
  0
DICTIONARY
  5
17F
330
31
100
AcDbDictionary
280
     1
281
     1
  3
ACAD_XREC_ROUNDTRIP
360
180
  0
DICTIONARY
  5
17D
330
30
100
AcDbDictionary
280
     1
281
     1
  3
ACAD_XREC_ROUNDTRIP
360
17E
  0
DICTIONARY
  5
181
330
32
100
AcDbDictionary
280
     1
281
     1
  3
ACAD_XREC_ROUNDTRIP
360
182
  0
DICTIONARY
  5
189
330
36
100
AcDbDictionary
280
     1
281
     1
  3
ACAD_XREC_ROUNDTRIP
360
18A
  0
DICTIONARY
  5
191
330
3A
100
AcDbDictionary
280
     1
281
     1
  3
ACAD_XREC_ROUNDTRIP
360
192
  0
DICTIONARY
  5
185
330
34
100
AcDbDictionary
280
     1
281
     1
  3
ACAD_XREC_ROUNDTRIP
360
186
  0
DICTIONARY
  5
187
330
35
100
AcDbDictionary
280
     1
281
     1
  3
ACAD_XREC_ROUNDTRIP
360
188
  0
DICTIONARY
  5
18F
330
39
100
AcDbDictionary
280
     1
281
     1
  3
ACAD_XREC_ROUNDTRIP
360
190
  0
DICTIONARY
  5
173
330
2B
100
AcDbDictionary
280
     1
281
     1
  3
ACAD_XREC_ROUNDTRIP
360
174
  0
DICTIONARY
  5
175
330
2C
100
AcDbDictionary
280
     1
281
     1
  3
ACAD_XREC_ROUNDTRIP
360
176
  0
DICTIONARY
  5
177
330
2D
100
AcDbDictionary
280
     1
281
     1
  3
ACAD_XREC_ROUNDTRIP
360
178
  0
DICTIONARY
  5
179
330
2E
100
AcDbDictionary
280
     1
281
     1
  3
ACAD_XREC_ROUNDTRIP
360
17A
  0
DICTIONARY
  5
18D
330
38
100
AcDbDictionary
280
     1
281
     1
  3
ACAD_XREC_ROUNDTRIP
360
18E
  0
DICTIONARY
  5
183
330
33
100
AcDbDictionary
280
     1
281
     1
  3
ACAD_XREC_ROUNDTRIP
360
184
  0
DICTIONARY
  5
18B
330
37
100
AcDbDictionary
280
     1
281
     1
  3
ACAD_XREC_ROUNDTRIP
360
18C
  0
XRECORD
  5
17C
102
{ACAD_REACTORS
330
17B
102
}
330
17B
100
AcDbXrecord
280
     1
102
RTVSPropertyOp0
 70
     1
102
RTVSPropertyOp1
 70
     1
102
RTVSPropertyOp2
 70
     1
102
RTVSPropertyOp3
 70
     1
102
RTVSPropertyOp4
 70
     1
102
RTVSPropertyOp5
 70
     1
102
RTVSPropertyOp6
 70
     1
102
RTVSPropertyOp7
 70
     1
102
RTVSPropertyOp8
 70
     1
102
RTVSPropertyOp9
 70
     1
102
RTVSPropertyOp10
 70
     1
102
RTVSPropertyOp11
 70
     1
102
RTVSPropertyOp12
 70
     1
102
RTVSPropertyOp13
 70
     1
102
RTVSPropertyOp14
 70
     1
102
RTVSPropertyOp15
 70
     1
102
RTVSPropertyOp16
 70
     1
102
RTVSPropertyOp17
 70
     1
102
RTVSPropertyOp18
 70
     1
102
RTVSPropertyOp19
 70
     1
102
RTVSPropertyOp20
 70
     1
102
RTVSPropertyOp21
 70
     1
102
RTVSPropertyOp22
 70
     1
102
RTVSPropertyOp23
 70
     1
102
RTVSPropertyOp24
 70
     1
102
RTVSPropertyOp25
 70
     1
102
RTVSPropertyOp26
 70
     1
102
RTVSPropertyOp27
 70
     1
  0
XRECORD
  5
180
102
{ACAD_REACTORS
330
17F
102
}
330
17F
100
AcDbXrecord
280
     1
102
RTVSPropertyOp0
 70
     1
102
RTVSPropertyOp1
 70
     1
102
RTVSPropertyOp2
 70
     1
102
RTVSPropertyOp3
 70
     1
102
RTVSPropertyOp4
 70
     1
102
RTVSPropertyOp5
 70
     1
102
RTVSPropertyOp6
 70
     1
102
RTVSPropertyOp7
 70
     1
102
RTVSPropertyOp8
 70
     1
102
RTVSPropertyOp9
 70
     1
102
RTVSPropertyOp10
 70
     1
102
RTVSPropertyOp11
 70
     1
102
RTVSPropertyOp12
 70
     1
102
RTVSPropertyOp13
 70
     1
102
RTVSPropertyOp14
 70
     1
102
RTVSPropertyOp15
 70
     1
102
RTVSPropertyOp16
 70
     1
102
RTVSPropertyOp17
 70
     1
102
RTVSPropertyOp18
 70
     1
102
RTVSPropertyOp19
 70
     1
102
RTVSPropertyOp20
 70
     1
102
RTVSPropertyOp21
 70
     1
102
RTVSPropertyOp22
 70
     1
102
RTVSPropertyOp23
 70
     1
102
RTVSPropertyOp24
 70
     1
102
RTVSPropertyOp25
 70
     1
102
RTVSPropertyOp26
 70
     1
102
RTVSPropertyOp27
 70
     1
  0
XRECORD
  5
17E
102
{ACAD_REACTORS
330
17D
102
}
330
17D
100
AcDbXrecord
280
     1
102
RTVSPropertyOp0
 70
     1
102
RTVSPropertyOp1
 70
     1
102
RTVSPropertyOp2
 70
     1
102
RTVSPropertyOp3
 70
     1
102
RTVSPropertyOp4
 70
     1
102
RTVSPropertyOp5
 70
     1
102
RTVSPropertyOp6
 70
     1
102
RTVSPropertyOp7
 70
     1
102
RTVSPropertyOp8
 70
     1
102
RTVSPropertyOp9
 70
     1
102
RTVSPropertyOp10
 70
     1
102
RTVSPropertyOp11
 70
     1
102
RTVSPropertyOp12
 70
     1
102
RTVSPropertyOp13
 70
     1
102
RTVSPropertyOp14
 70
     1
102
RTVSPropertyOp15
 70
     1
102
RTVSPropertyOp16
 70
     1
102
RTVSPropertyOp17
 70
     1
102
RTVSPropertyOp18
 70
     1
102
RTVSPropertyOp19
 70
     1
102
RTVSPropertyOp20
 70
     1
102
RTVSPropertyOp21
 70
     1
102
RTVSPropertyOp22
 70
     1
102
RTVSPropertyOp23
 70
     1
102
RTVSPropertyOp24
 70
     1
102
RTVSPropertyOp25
 70
     1
102
RTVSPropertyOp26
 70
     1
102
RTVSPropertyOp27
 70
     1
  0
XRECORD
  5
182
102
{ACAD_REACTORS
330
181
102
}
330
181
100
AcDbXrecord
280
     1
102
RTVSPropertyOp0
 70
     1
102
RTVSPropertyOp1
 70
     1
102
RTVSPropertyOp2
 70
     1
102
RTVSPropertyOp3
 70
     1
102
RTVSPropertyOp4
 70
     1
102
RTVSPropertyOp5
 70
     1
102
RTVSPropertyOp6
 70
     1
102
RTVSPropertyOp7
 70
     1
102
RTVSPropertyOp8
 70
     1
102
RTVSPropertyOp9
 70
     1
102
RTVSPropertyOp10
 70
     1
102
RTVSPropertyOp11
 70
     1
102
RTVSPropertyOp12
 70
     1
102
RTVSPropertyOp13
 70
     1
102
RTVSPropertyOp14
 70
     1
102
RTVSPropertyOp15
 70
     1
102
RTVSPropertyOp16
 70
     1
102
RTVSPropertyOp17
 70
     1
102
RTVSPropertyOp18
 70
     1
102
RTVSPropertyOp19
 70
     1
102
RTVSPropertyOp20
 70
     1
102
RTVSPropertyOp21
 70
     1
102
RTVSPropertyOp22
 70
     1
102
RTVSPropertyOp23
 70
     1
102
RTVSPropertyOp24
 70
     1
102
RTVSPropertyOp25
 70
     1
102
RTVSPropertyOp26
 70
     1
102
RTVSPropertyOp27
 70
     1
  0
XRECORD
  5
18A
102
{ACAD_REACTORS
330
189
102
}
330
189
100
AcDbXrecord
280
     1
102
RTVSPropertyOp0
 70
     1
102
RTVSPropertyOp1
 70
     1
102
RTVSPropertyOp2
 70
     1
102
RTVSPropertyOp3
 70
     1
102
RTVSPropertyOp4
 70
     1
102
RTVSPropertyOp5
 70
     1
102
RTVSPropertyOp6
 70
     1
102
RTVSPropertyOp7
 70
     1
102
RTVSPropertyOp8
 70
     1
102
RTVSPropertyOp9
 70
     1
102
RTVSPropertyOp10
 70
     1
102
RTVSPropertyOp11
 70
     1
102
RTVSPropertyOp12
 70
     1
102
RTVSPropertyOp13
 70
     1
102
RTVSPropertyOp14
 70
     1
102
RTVSPropertyOp15
 70
     1
102
RTVSPropertyOp16
 70
     1
102
RTVSPropertyOp17
 70
     1
102
RTVSPropertyOp18
 70
     1
102
RTVSPropertyOp19
 70
     1
102
RTVSPropertyOp20
 70
     1
102
RTVSPropertyOp21
 70
     1
102
RTVSPropertyOp22
 70
     1
102
RTVSPropertyOp23
 70
     1
102
RTVSPropertyOp24
 70
     1
102
RTVSPropertyOp25
 70
     1
102
RTVSPropertyOp26
 70
     1
102
RTVSPropertyOp27
 70
     1
  0
XRECORD
  5
192
102
{ACAD_REACTORS
330
191
102
}
330
191
100
AcDbXrecord
280
     1
102
RTVSPropertyOp0
 70
     1
102
RTVSPropertyOp1
 70
     1
102
RTVSPropertyOp2
 70
     1
102
RTVSPropertyOp3
 70
     1
102
RTVSPropertyOp4
 70
     1
102
RTVSPropertyOp5
 70
     1
102
RTVSPropertyOp6
 70
     1
102
RTVSPropertyOp7
 70
     1
102
RTVSPropertyOp8
 70
     1
102
RTVSPropertyOp9
 70
     1
102
RTVSPropertyOp10
 70
     1
102
RTVSPropertyOp11
 70
     1
102
RTVSPropertyOp12
 70
     1
102
RTVSPropertyOp13
 70
     1
102
RTVSPropertyOp14
 70
     1
102
RTVSPropertyOp15
 70
     1
102
RTVSPropertyOp16
 70
     1
102
RTVSPropertyOp17
 70
     1
102
RTVSPropertyOp18
 70
     1
102
RTVSPropertyOp19
 70
     1
102
RTVSPropertyOp20
 70
     1
102
RTVSPropertyOp21
 70
     1
102
RTVSPropertyOp22
 70
     1
102
RTVSPropertyOp23
 70
     1
102
RTVSPropertyOp24
 70
     1
102
RTVSPropertyOp25
 70
     1
102
RTVSPropertyOp26
 70
     1
102
RTVSPropertyOp27
 70
     1
  0
XRECORD
  5
186
102
{ACAD_REACTORS
330
185
102
}
330
185
100
AcDbXrecord
280
     1
102
RTVSPropertyOp0
 70
     1
102
RTVSPropertyOp1
 70
     1
102
RTVSPropertyOp2
 70
     1
102
RTVSPropertyOp3
 70
     1
102
RTVSPropertyOp4
 70
     1
102
RTVSPropertyOp5
 70
     1
102
RTVSPropertyOp6
 70
     1
102
RTVSPropertyOp7
 70
     1
102
RTVSPropertyOp8
 70
     1
102
RTVSPropertyOp9
 70
     1
102
RTVSPropertyOp10
 70
     1
102
RTVSPropertyOp11
 70
     1
102
RTVSPropertyOp12
 70
     1
102
RTVSPropertyOp13
 70
     1
102
RTVSPropertyOp14
 70
     1
102
RTVSPropertyOp15
 70
     1
102
RTVSPropertyOp16
 70
     1
102
RTVSPropertyOp17
 70
     1
102
RTVSPropertyOp18
 70
     1
102
RTVSPropertyOp19
 70
     1
102
RTVSPropertyOp20
 70
     1
102
RTVSPropertyOp21
 70
     1
102
RTVSPropertyOp22
 70
     1
102
RTVSPropertyOp23
 70
     1
102
RTVSPropertyOp24
 70
     1
102
RTVSPropertyOp25
 70
     1
102
RTVSPropertyOp26
 70
     1
102
RTVSPropertyOp27
 70
     1
  0
XRECORD
  5
188
102
{ACAD_REACTORS
330
187
102
}
330
187
100
AcDbXrecord
280
     1
102
RTVSPropertyOp0
 70
     1
102
RTVSPropertyOp1
 70
     1
102
RTVSPropertyOp2
 70
     1
102
RTVSPropertyOp3
 70
     1
102
RTVSPropertyOp4
 70
     1
102
RTVSPropertyOp5
 70
     1
102
RTVSPropertyOp6
 70
     1
102
RTVSPropertyOp7
 70
     1
102
RTVSPropertyOp8
 70
     1
102
RTVSPropertyOp9
 70
     1
102
RTVSPropertyOp10
 70
     1
102
RTVSPropertyOp11
 70
     1
102
RTVSPropertyOp12
 70
     1
102
RTVSPropertyOp13
 70
     1
102
RTVSPropertyOp14
 70
     1
102
RTVSPropertyOp15
 70
     1
102
RTVSPropertyOp16
 70
     1
102
RTVSPropertyOp17
 70
     1
102
RTVSPropertyOp18
 70
     1
102
RTVSPropertyOp19
 70
     1
102
RTVSPropertyOp20
 70
     1
102
RTVSPropertyOp21
 70
     1
102
RTVSPropertyOp22
 70
     1
102
RTVSPropertyOp23
 70
     1
102
RTVSPropertyOp24
 70
     1
102
RTVSPropertyOp25
 70
     1
102
RTVSPropertyOp26
 70
     1
102
RTVSPropertyOp27
 70
     1
  0
XRECORD
  5
190
102
{ACAD_REACTORS
330
18F
102
}
330
18F
100
AcDbXrecord
280
     1
102
RTVSPropertyOp0
 70
     1
102
RTVSPropertyOp1
 70
     1
102
RTVSPropertyOp2
 70
     1
102
RTVSPropertyOp3
 70
     1
102
RTVSPropertyOp4
 70
     1
102
RTVSPropertyOp5
 70
     1
102
RTVSPropertyOp6
 70
     1
102
RTVSPropertyOp7
 70
     1
102
RTVSPropertyOp8
 70
     1
102
RTVSPropertyOp9
 70
     1
102
RTVSPropertyOp10
 70
     1
102
RTVSPropertyOp11
 70
     1
102
RTVSPropertyOp12
 70
     1
102
RTVSPropertyOp13
 70
     1
102
RTVSPropertyOp14
 70
     1
102
RTVSPropertyOp15
 70
     1
102
RTVSPropertyOp16
 70
     1
102
RTVSPropertyOp17
 70
     1
102
RTVSPropertyOp18
 70
     1
102
RTVSPropertyOp19
 70
     1
102
RTVSPropertyOp20
 70
     1
102
RTVSPropertyOp21
 70
     1
102
RTVSPropertyOp22
 70
     1
102
RTVSPropertyOp23
 70
     1
102
RTVSPropertyOp24
 70
     1
102
RTVSPropertyOp25
 70
     1
102
RTVSPropertyOp26
 70
     1
102
RTVSPropertyOp27
 70
     1
  0
XRECORD
  5
174
102
{ACAD_REACTORS
330
173
102
}
330
173
100
AcDbXrecord
280
     1
102
RTVSPropertyOp0
 70
     1
102
RTVSPropertyOp1
 70
     1
102
RTVSPropertyOp2
 70
     1
102
RTVSPropertyOp3
 70
     1
102
RTVSPropertyOp4
 70
     1
102
RTVSPropertyOp5
 70
     1
102
RTVSPropertyOp6
 70
     1
102
RTVSPropertyOp7
 70
     1
102
RTVSPropertyOp8
 70
     1
102
RTVSPropertyOp9
 70
     1
102
RTVSPropertyOp10
 70
     1
102
RTVSPropertyOp11
 70
     1
102
RTVSPropertyOp12
 70
     1
102
RTVSPropertyOp13
 70
     1
102
RTVSPropertyOp14
 70
     1
102
RTVSPropertyOp15
 70
     1
102
RTVSPropertyOp16
 70
     1
102
RTVSPropertyOp17
 70
     1
102
RTVSPropertyOp18
 70
     1
102
RTVSPropertyOp19
 70
     1
102
RTVSPropertyOp20
 70
     1
102
RTVSPropertyOp21
 70
     1
102
RTVSPropertyOp22
 70
     1
102
RTVSPropertyOp23
 70
     1
102
RTVSPropertyOp24
 70
     1
102
RTVSPropertyOp25
 70
     1
102
RTVSPropertyOp26
 70
     1
102
RTVSPropertyOp27
 70
     1
  0
XRECORD
  5
176
102
{ACAD_REACTORS
330
175
102
}
330
175
100
AcDbXrecord
280
     1
102
RTVSPropertyOp0
 70
     1
102
RTVSPropertyOp1
 70
     1
102
RTVSPropertyOp2
 70
     1
102
RTVSPropertyOp3
 70
     1
102
RTVSPropertyOp4
 70
     1
102
RTVSPropertyOp5
 70
     1
102
RTVSPropertyOp6
 70
     1
102
RTVSPropertyOp7
 70
     1
102
RTVSPropertyOp8
 70
     1
102
RTVSPropertyOp9
 70
     1
102
RTVSPropertyOp10
 70
     1
102
RTVSPropertyOp11
 70
     1
102
RTVSPropertyOp12
 70
     1
102
RTVSPropertyOp13
 70
     1
102
RTVSPropertyOp14
 70
     1
102
RTVSPropertyOp15
 70
     1
102
RTVSPropertyOp16
 70
     1
102
RTVSPropertyOp17
 70
     1
102
RTVSPropertyOp18
 70
     1
102
RTVSPropertyOp19
 70
     1
102
RTVSPropertyOp20
 70
     1
102
RTVSPropertyOp21
 70
     1
102
RTVSPropertyOp22
 70
     1
102
RTVSPropertyOp23
 70
     1
102
RTVSPropertyOp24
 70
     1
102
RTVSPropertyOp25
 70
     1
102
RTVSPropertyOp26
 70
     1
102
RTVSPropertyOp27
 70
     1
  0
XRECORD
  5
178
102
{ACAD_REACTORS
330
177
102
}
330
177
100
AcDbXrecord
280
     1
102
RTVSPropertyOp0
 70
     1
102
RTVSPropertyOp1
 70
     1
102
RTVSPropertyOp2
 70
     1
102
RTVSPropertyOp3
 70
     1
102
RTVSPropertyOp4
 70
     1
102
RTVSPropertyOp5
 70
     1
102
RTVSPropertyOp6
 70
     1
102
RTVSPropertyOp7
 70
     1
102
RTVSPropertyOp8
 70
     1
102
RTVSPropertyOp9
 70
     1
102
RTVSPropertyOp10
 70
     1
102
RTVSPropertyOp11
 70
     1
102
RTVSPropertyOp12
 70
     1
102
RTVSPropertyOp13
 70
     1
102
RTVSPropertyOp14
 70
     1
102
RTVSPropertyOp15
 70
     1
102
RTVSPropertyOp16
 70
     1
102
RTVSPropertyOp17
 70
     1
102
RTVSPropertyOp18
 70
     1
102
RTVSPropertyOp19
 70
     1
102
RTVSPropertyOp20
 70
     1
102
RTVSPropertyOp21
 70
     1
102
RTVSPropertyOp22
 70
     1
102
RTVSPropertyOp23
 70
     1
102
RTVSPropertyOp24
 70
     1
102
RTVSPropertyOp25
 70
     1
102
RTVSPropertyOp26
 70
     1
102
RTVSPropertyOp27
 70
     1
  0
XRECORD
  5
17A
102
{ACAD_REACTORS
330
179
102
}
330
179
100
AcDbXrecord
280
     1
102
RTVSPropertyOp0
 70
     1
102
RTVSPropertyOp1
 70
     1
102
RTVSPropertyOp2
 70
     1
102
RTVSPropertyOp3
 70
     1
102
RTVSPropertyOp4
 70
     1
102
RTVSPropertyOp5
 70
     1
102
RTVSPropertyOp6
 70
     1
102
RTVSPropertyOp7
 70
     1
102
RTVSPropertyOp8
 70
     1
102
RTVSPropertyOp9
 70
     1
102
RTVSPropertyOp10
 70
     1
102
RTVSPropertyOp11
 70
     1
102
RTVSPropertyOp12
 70
     1
102
RTVSPropertyOp13
 70
     1
102
RTVSPropertyOp14
 70
     1
102
RTVSPropertyOp15
 70
     1
102
RTVSPropertyOp16
 70
     1
102
RTVSPropertyOp17
 70
     1
102
RTVSPropertyOp18
 70
     1
102
RTVSPropertyOp19
 70
     1
102
RTVSPropertyOp20
 70
     1
102
RTVSPropertyOp21
 70
     1
102
RTVSPropertyOp22
 70
     1
102
RTVSPropertyOp23
 70
     1
102
RTVSPropertyOp24
 70
     1
102
RTVSPropertyOp25
 70
     1
102
RTVSPropertyOp26
 70
     1
102
RTVSPropertyOp27
 70
     1
  0
XRECORD
  5
18E
102
{ACAD_REACTORS
330
18D
102
}
330
18D
100
AcDbXrecord
280
     1
102
RTVSPropertyOp0
 70
     1
102
RTVSPropertyOp1
 70
     1
102
RTVSPropertyOp2
 70
     1
102
RTVSPropertyOp3
 70
     1
102
RTVSPropertyOp4
 70
     1
102
RTVSPropertyOp5
 70
     1
102
RTVSPropertyOp6
 70
     1
102
RTVSPropertyOp7
 70
     1
102
RTVSPropertyOp8
 70
     1
102
RTVSPropertyOp9
 70
     1
102
RTVSPropertyOp10
 70
     1
102
RTVSPropertyOp11
 70
     1
102
RTVSPropertyOp12
 70
     1
102
RTVSPropertyOp13
 70
     1
102
RTVSPropertyOp14
 70
     1
102
RTVSPropertyOp15
 70
     1
102
RTVSPropertyOp16
 70
     1
102
RTVSPropertyOp17
 70
     1
102
RTVSPropertyOp18
 70
     1
102
RTVSPropertyOp19
 70
     1
102
RTVSPropertyOp20
 70
     1
102
RTVSPropertyOp21
 70
     1
102
RTVSPropertyOp22
 70
     1
102
RTVSPropertyOp23
 70
     1
102
RTVSPropertyOp24
 70
     1
102
RTVSPropertyOp25
 70
     1
102
RTVSPropertyOp26
 70
     1
102
RTVSPropertyOp27
 70
     1
  0
XRECORD
  5
184
102
{ACAD_REACTORS
330
183
102
}
330
183
100
AcDbXrecord
280
     1
102
RTVSPropertyOp0
 70
     1
102
RTVSPropertyOp1
 70
     1
102
RTVSPropertyOp2
 70
     1
102
RTVSPropertyOp3
 70
     1
102
RTVSPropertyOp4
 70
     1
102
RTVSPropertyOp5
 70
     1
102
RTVSPropertyOp6
 70
     1
102
RTVSPropertyOp7
 70
     1
102
RTVSPropertyOp8
 70
     1
102
RTVSPropertyOp9
 70
     1
102
RTVSPropertyOp10
 70
     1
102
RTVSPropertyOp11
 70
     1
102
RTVSPropertyOp12
 70
     1
102
RTVSPropertyOp13
 70
     1
102
RTVSPropertyOp14
 70
     1
102
RTVSPropertyOp15
 70
     1
102
RTVSPropertyOp16
 70
     1
102
RTVSPropertyOp17
 70
     1
102
RTVSPropertyOp18
 70
     1
102
RTVSPropertyOp19
 70
     1
102
RTVSPropertyOp20
 70
     1
102
RTVSPropertyOp21
 70
     1
102
RTVSPropertyOp22
 70
     1
102
RTVSPropertyOp23
 70
     1
102
RTVSPropertyOp24
 70
     1
102
RTVSPropertyOp25
 70
     1
102
RTVSPropertyOp26
 70
     1
102
RTVSPropertyOp27
 70
     1
  0
XRECORD
  5
18C
102
{ACAD_REACTORS
330
18B
102
}
330
18B
100
AcDbXrecord
280
     1
102
RTVSPropertyOp0
 70
     1
102
RTVSPropertyOp1
 70
     1
102
RTVSPropertyOp2
 70
     1
102
RTVSPropertyOp3
 70
     1
102
RTVSPropertyOp4
 70
     1
102
RTVSPropertyOp5
 70
     1
102
RTVSPropertyOp6
 70
     1
102
RTVSPropertyOp7
 70
     1
102
RTVSPropertyOp8
 70
     1
102
RTVSPropertyOp9
 70
     1
102
RTVSPropertyOp10
 70
     1
102
RTVSPropertyOp11
 70
     1
102
RTVSPropertyOp12
 70
     1
102
RTVSPropertyOp13
 70
     1
102
RTVSPropertyOp14
 70
     1
102
RTVSPropertyOp15
 70
     1
102
RTVSPropertyOp16
 70
     1
102
RTVSPropertyOp17
 70
     1
102
RTVSPropertyOp18
 70
     1
102
RTVSPropertyOp19
 70
     1
102
RTVSPropertyOp20
 70
     1
102
RTVSPropertyOp21
 70
     1
102
RTVSPropertyOp22
 70
     1
102
RTVSPropertyOp23
 70
     1
102
RTVSPropertyOp24
 70
     1
102
RTVSPropertyOp25
 70
     1
102
RTVSPropertyOp26
 70
     1
102
RTVSPropertyOp27
 70
     1
  0
ENDSEC
  0
EOF
