  0
SECTION
  2
HEADER
  9
$ACADVER
  1
AC1021
  9
$ACADMAINTVER
 70
    25
  9
$DWGCODEPAGE
  3
ANSI_1252
  9
$INSBASE
 10
0.0
 20
0.0
 30
0.0
  9
$EXTMIN
 10
0.0
 20
0.0
 30
0.0
  9
$EXTMAX
 10
420.0
 20
594.0
 30
0.0
  9
$LIMMIN
 10
0.0
 20
0.0
  9
$LIMMAX
 10
420.0
 20
594.0
  9
$ORTHOMODE
 70
     0
  9
$REGENMODE
 70
     1
  9
$FILLMODE
 70
     1
  9
$QTEXTMODE
 70
     0
  9
$MIRRTEXT
 70
     1
  9
$LTSCALE
 40
10.0
  9
$ATTMODE
 70
     1
  9
$TEXTSIZE
 40
7.0
  9
$TRACEWID
 40
1.0
  9
$TEXTSTYLE
  7
Standard
  9
$CLAYER
  8
0
  9
$CELTYPE
  6
ByLayer
  9
$CECOLOR
 62
   256
  9
$CELTSCALE
 40
1.0
  9
$DISPSILH
 70
     0
  9
$DIMSCALE
 40
1.0
  9
$DIMASZ
 40
6.604
  9
$DIMEXO
 40
2.0
  9
$DIMDLI
 40
3.75
  9
$DIMRND
 40
0.0
  9
$DIMDLE
 40
0.0
  9
$DIMEXE
 40
2.0
  9
$DIMTP
 40
0.0
  9
$DIMTM
 40
0.0
  9
$DIMTXT
 40
7.0
  9
$DIMCEN
 40
2.5
  9
$DIMTSZ
 40
0.0
  9
$DIMTOL
 70
     0
  9
$DIMLIM
 70
     0
  9
$DIMTIH
 70
     1
  9
$DIMTOH
 70
     1
  9
$DIMSE1
 70
     0
  9
$DIMSE2
 70
     0
  9
$DIMTAD
 70
     1
  9
$DIMZIN
 70
     1
  9
$DIMBLK
  1

  9
$DIMASO
 70
     1
  9
$DIMSHO
 70
     1
  9
$DIMPOST
  1

  9
$DIMAPOST
  1

  9
$DIMALT
 70
     0
  9
$DIMALTD
 70
     3
  9
$DIMALTF
 40
0.0393700787
  9
$DIMLFAC
 40
1.0
  9
$DIMTOFL
 70
     1
  9
$DIMTVP
 40
0.0
  9
$DIMTIX
 70
     0
  9
$DIMSOXD
 70
     0
  9
$DIMSAH
 70
     0
  9
$DIMBLK1
  1

  9
$DIMBLK2
  1

  9
$DIMSTYLE
  2
ISO-25
  9
$DIMCLRD
 70
     0
  9
$DIMCLRE
 70
     0
  9
$DIMCLRT
 70
     0
  9
$DIMTFAC
 40
1.0
  9
$DIMGAP
 40
3.048
  9
$DIMJUST
 70
     0
  9
$DIMSD1
 70
     0
  9
$DIMSD2
 70
     0
  9
$DIMTOLJ
 70
     0
  9
$DIMTZIN
 70
     1
  9
$DIMALTZ
 70
     0
  9
$DIMALTTZ
 70
     0
  9
$DIMUPT
 70
     0
  9
$DIMDEC
 70
     2
  9
$DIMTDEC
 70
     2
  9
$DIMALTU
 70
     2
  9
$DIMALTTD
 70
     3
  9
$DIMTXSTY
  7
Standard
  9
$DIMAUNIT
 70
     0
  9
$DIMADEC
 70
     2
  9
$DIMALTRND
 40
0.0
  9
$DIMAZIN
 70
     0
  9
$DIMDSEP
 70
    44
  9
$DIMATFIT
 70
     3
  9
$DIMFRAC
 70
     0
  9
$DIMLDRBLK
  1

  9
$DIMLUNIT
 70
     2
  9
$DIMLWD
 70
    -2
  9
$DIMLWE
 70
    -2
  9
$DIMTMOVE
 70
     0
  9
$DIMFXL
 40
1.0
  9
$DIMFXLON
 70
     0
  9
$DIMJOGANG
 40
0.7853981634
  9
$DIMTFILL
 70
     0
  9
$DIMTFILLCLR
 70
     0
  9
$DIMARCSYM
 70
     0
  9
$DIMLTYPE
  6

  9
$DIMLTEX1
  6

  9
$DIMLTEX2
  6

  9
$LUNITS
 70
     2
  9
$LUPREC
 70
     2
  9
$SKETCHINC
 40
1.0
  9
$FILLETRAD
 40
10.0
  9
$AUNITS
 70
     0
  9
$AUPREC
 70
     2
  9
$MENU
  1
.
  9
$ELEVATION
 40
0.0
  9
$PELEVATION
 40
0.0
  9
$THICKNESS
 40
0.0
  9
$LIMCHECK
 70
     0
  9
$CHAMFERA
 40
10.0
  9
$CHAMFERB
 40
10.0
  9
$CHAMFERC
 40
20.0
  9
$CHAMFERD
 40
0.0
  9
$SKPOLY
 70
     0
  9
$TDCREATE
 40
2456078.652983577
  9
$TDUCREATE
 40
2456078.152983577
  9
$TDUPDATE
 40
2456078.652983588
  9
$TDUUPDATE
 40
2456078.152983588
  9
$TDINDWG
 40
0.0000000116
  9
$TDUSRTIMER
 40
0.0000000116
  9
$USRTIMER
 70
     1
  9
$ANGBASE
 50
0.0
  9
$ANGDIR
 70
     0
  9
$PDMODE
 70
     0
  9
$PDSIZE
 40
-1.0
  9
$PLINEWID
 40
0.0
  9
$SPLFRAME
 70
     0
  9
$SPLINETYPE
 70
     6
  9
$SPLINESEGS
 70
     8
  9
$HANDSEED
  5
349
  9
$SURFTAB1
 70
     6
  9
$SURFTAB2
 70
     6
  9
$SURFTYPE
 70
     6
  9
$SURFU
 70
     6
  9
$SURFV
 70
     6
  9
$UCSBASE
  2

  9
$UCSNAME
  2

  9
$UCSORG
 10
0.0
 20
0.0
 30
0.0
  9
$UCSXDIR
 10
1.0
 20
0.0
 30
0.0
  9
$UCSYDIR
 10
0.0
 20
1.0
 30
0.0
  9
$UCSORTHOREF
  2

  9
$UCSORTHOVIEW
 70
     0
  9
$UCSORGTOP
 10
0.0
 20
0.0
 30
0.0
  9
$UCSORGBOTTOM
 10
0.0
 20
0.0
 30
0.0
  9
$UCSORGLEFT
 10
0.0
 20
0.0
 30
0.0
  9
$UCSORGRIGHT
 10
0.0
 20
0.0
 30
0.0
  9
$UCSORGFRONT
 10
0.0
 20
0.0
 30
0.0
  9
$UCSORGBACK
 10
0.0
 20
0.0
 30
0.0
  9
$PUCSBASE
  2

  9
$PUCSNAME
  2

  9
$PUCSORG
 10
0.0
 20
0.0
 30
0.0
  9
$PUCSXDIR
 10
1.0
 20
0.0
 30
0.0
  9
$PUCSYDIR
 10
0.0
 20
1.0
 30
0.0
  9
$PUCSORTHOREF
  2

  9
$PUCSORTHOVIEW
 70
     0
  9
$PUCSORGTOP
 10
0.0
 20
0.0
 30
0.0
  9
$PUCSORGBOTTOM
 10
0.0
 20
0.0
 30
0.0
  9
$PUCSORGLEFT
 10
0.0
 20
0.0
 30
0.0
  9
$PUCSORGRIGHT
 10
0.0
 20
0.0
 30
0.0
  9
$PUCSORGFRONT
 10
0.0
 20
0.0
 30
0.0
  9
$PUCSORGBACK
 10
0.0
 20
0.0
 30
0.0
  9
$USERI1
 70
     0
  9
$USERI2
 70
     0
  9
$USERI3
 70
     0
  9
$USERI4
 70
     0
  9
$USERI5
 70
     0
  9
$USERR1
 40
0.0
  9
$USERR2
 40
0.0
  9
$USERR3
 40
0.0
  9
$USERR4
 40
0.0
  9
$USERR5
 40
0.0
  9
$WORLDVIEW
 70
     1
  9
$SHADEDGE
 70
     3
  9
$SHADEDIF
 70
    70
  9
$TILEMODE
 70
     1
  9
$MAXACTVP
 70
    64
  9
$PINSBASE
 10
0.0
 20
0.0
 30
0.0
  9
$PLIMCHECK
 70
     0
  9
$PEXTMIN
 10
1.0000000000E+20
 20
1.0000000000E+20
 30
1.0000000000E+20
  9
$PEXTMAX
 10
-1.0000000000E+20
 20
-1.0000000000E+20
 30
-1.0000000000E+20
  9
$PLIMMIN
 10
0.0
 20
0.0
  9
$PLIMMAX
 10
420.0
 20
297.0
  9
$UNITMODE
 70
     0
  9
$VISRETAIN
 70
     1
  9
$PLINEGEN
 70
     0
  9
$PSLTSCALE
 70
     1
  9
$TREEDEPTH
 70
  3020
  9
$CMLSTYLE
  2
Standard
  9
$CMLJUST
 70
     0
  9
$CMLSCALE
 40
20.0
  9
$PROXYGRAPHICS
 70
     1
  9
$MEASUREMENT
 70
     1
  9
$CELWEIGHT
370
    -1
  9
$ENDCAPS
280
     0
  9
$JOINSTYLE
280
     0
  9
$LWDISPLAY
290
     1
  9
$INSUNITS
 70
     4
  9
$HYPERLINKBASE
  1

  9
$STYLESHEET
  1

  9
$XEDIT
290
     1
  9
$CEPSNTYPE
380
     0
  9
$PSTYLEMODE
290
     1
  9
$FINGERPRINTGUID
  2
{FE479326-982F-4C7E-840A-B32DD01045E2}
  9
$VERSIONGUID
  2
{FAEB1C32-E019-11D5-929B-00C0DF256EC4}
  9
$EXTNAMES
290
     1
  9
$PSVPSCALE
 40
0.0
  9
$OLESTARTUP
290
     0
  9
$SORTENTS
280
   127
  9
$INDEXCTL
280
     0
  9
$HIDETEXT
280
     1
  9
$XCLIPFRAME
290
     0
  9
$HALOGAP
280
     0
  9
$OBSCOLOR
 70
   257
  9
$OBSLTYPE
280
     0
  9
$INTERSECTIONDISPLAY
280
     0
  9
$INTERSECTIONCOLOR
 70
   257
  9
$DIMASSOC
280
     2
  9
$PROJECTNAME
  1

  9
$CAMERADISPLAY
290
     0
  9
$LENSLENGTH
 40
50.0
  9
$CAMERAHEIGHT
 40
0.0
  9
$STEPSPERSEC
 40
2.0
  9
$STEPSIZE
 40
6.0
  9
$3DDWFPREC
 40
2.0
  9
$PSOLWIDTH
 40
5.0
  9
$PSOLHEIGHT
 40
80.0
  9
$LOFTANG1
 40
1.5707963268
  9
$LOFTANG2
 40
1.5707963268
  9
$LOFTMAG1
 40
0.0
  9
$LOFTMAG2
 40
0.0
  9
$LOFTPARAM
 70
     7
  9
$LOFTNORMALS
280
     1
  9
$LATITUDE
 40
37.795
  9
$LONGITUDE
 40
-122.394
  9
$NORTHDIRECTION
 40
0.0
  9
$TIMEZONE
 70
 -8000
  9
$LIGHTGLYPHDISPLAY
280
     1
  9
$TILEMODELIGHTSYNCH
280
     1
  9
$SOLIDHIST
280
     1
  9
$SHOWHIST
280
     1
  9
$DWFFRAME
280
     2
  9
$DGNFRAME
280
     2
  9
$REALWORLDSCALE
290
     1
  9
$INTERFERECOLOR
 62
   256
  9
$CSHADOW
280
     0
  9
$SHADOWPLANELOCATION
 40
0.0
  0
ENDSEC
  0
SECTION
  2
CLASSES
  0
CLASS
  1
ACDBDICTIONARYWDFLT
  2
AcDbDictionaryWithDefault
  3
ObjectDBX Classes
 90
        0
 91
        4
280
     0
281
     0
  0
CLASS
  1
VISUALSTYLE
  2
AcDbVisualStyle
  3
ObjectDBX Classes
 90
     4095
 91
        4
280
     0
281
     0
  0
CLASS
  1
MATERIAL
  2
AcDbMaterial
  3
ObjectDBX Classes
 90
     1153
 91
        4
280
     0
281
     0
  0
CLASS
  1
SCALE
  2
AcDbScale
  3
ObjectDBX Classes
 90
     1153
 91
        4
280
     0
281
     0
  0
CLASS
  1
IMAGEDEF
  2
AcDbRasterImageDef
  3
ISM
 90
        0
 91
        4
280
     0
281
     0
  0
CLASS
  1
IMAGE
  2
AcDbRasterImage
  3
ISM
 90
      127
 91
        5
280
     0
281
     1
  0
CLASS
  1
IMAGEDEF_REACTOR
  2
AcDbRasterImageDefReactor
  3
ISM
 90
        1
 91
        4
280
     0
281
     0
  0
CLASS
  1
DICTIONARYVAR
  2
AcDbDictionaryVar
  3
ObjectDBX Classes
 90
        0
 91
        4
280
     0
281
     0
  0
ENDSEC
  0
SECTION
  2
TABLES
  0
TABLE
  2
VPORT
  5
8
330
0
100
AcDbSymbolTable
 70
     1
  0
VPORT
  5
29
330
8
100
AcDbSymbolTableRecord
100
AcDbViewportTableRecord
  2
*Active
 70
     0
 10
0.0
 20
0.0
 11
1.0
 21
1.0
 12
210.0
 22
297.0
 13
0.0
 23
0.0
 14
10.0
 24
10.0
 15
10.0
 25
10.0
 16
0.0
 26
0.0
 36
1.0
 17
0.0
 27
0.0
 37
0.0
 40
594.0
 41
0.7070707071
 42
50.0
 43
0.0
 44
0.0
 50
0.0
 51
0.0
 71
     0
 72
  2000
 73
     1
 74
     3
 75
     0
 76
     0
 77
     0
 78
     0
281
     0
 65
     1
110
0.0
120
0.0
130
0.0
111
1.0
121
0.0
131
0.0
112
0.0
122
1.0
132
0.0
 79
     0
146
0.0
 60
     3
 61
     5
292
     1
282
     1
141
0.0
142
0.0
 63
   250
  0
ENDTAB
  0
TABLE
  2
LTYPE
  5
5
330
0
100
AcDbSymbolTable
 70
     6
  0
LTYPE
  5
14
330
5
100
AcDbSymbolTableRecord
100
AcDbLinetypeTableRecord
  2
ByBlock
 70
     0
  3

 72
    65
 73
     0
 40
0.0
  0
LTYPE
  5
15
330
5
100
AcDbSymbolTableRecord
100
AcDbLinetypeTableRecord
  2
ByLayer
 70
     0
  3

 72
    65
 73
     0
 40
0.0
  0
LTYPE
  5
16
330
5
100
AcDbSymbolTableRecord
100
AcDbLinetypeTableRecord
  2
Continuous
 70
     0
  3
Solid line
 72
    65
 73
     0
 40
0.0
  0
LTYPE
  5
3F
330
5
100
AcDbSymbolTableRecord
100
AcDbLinetypeTableRecord
  2
HIDDEN
 70
     0
  3
Hidden __ __ __ __ __ __ __ __ __ __ __ __ __ __
 72
    65
 73
     2
 40
1.905
 49
1.27
 74
     0
 49
-0.635
 74
     0
  0
LTYPE
  5
40
330
5
100
AcDbSymbolTableRecord
100
AcDbLinetypeTableRecord
  2
PHANTOM
 70
     0
  3
Phantom ______  __  __  ______  __  __  ______
 72
    65
 73
     6
 40
12.7
 49
6.35
 74
     0
 49
-1.27
 74
     0
 49
1.27
 74
     0
 49
-1.27
 74
     0
 49
1.27
 74
     0
 49
-1.27
 74
     0
  0
LTYPE
  5
41
330
5
100
AcDbSymbolTableRecord
100
AcDbLinetypeTableRecord
  2
CENTER
 70
     0
  3
Center ____ _ ____ _ ____ _ ____ _ ____ _ ____
 72
    65
 73
     4
 40
10.16
 49
6.35
 74
     0
 49
-1.27
 74
     0
 49
1.27
 74
     0
 49
-1.27
 74
     0
  0
LTYPE
  5
42
330
5
100
AcDbSymbolTableRecord
100
AcDbLinetypeTableRecord
  2
CENTERX2
 70
     0
  3
Center (2x) ________  __  ________  __  _____
 72
    65
 73
     4
 40
20.32
 49
12.7
 74
     0
 49
-2.54
 74
     0
 49
2.54
 74
     0
 49
-2.54
 74
     0
  0
LTYPE
  5
43
330
5
100
AcDbSymbolTableRecord
100
AcDbLinetypeTableRecord
  2
DOT2
 70
     0
  3
Dot (.5x) ........................................
 72
    65
 73
     2
 40
0.635
 49
0.0
 74
     0
 49
-0.635
 74
     0
  0
ENDTAB
  0
TABLE
  2
LAYER
  5
2
330
0
100
AcDbSymbolTable
 70
     3
  0
LAYER
  5
10
330
2
100
AcDbSymbolTableRecord
100
AcDbLayerTableRecord
  2
0
 70
     0
 62
     7
  6
Continuous
370
    -3
390
F
347
3E
  0
LAYER
  5
44
330
2
100
AcDbSymbolTableRecord
100
AcDbLayerTableRecord
  2
SLD-0
 70
     0
 62
   179
  6
Continuous
370
    -3
390
F
347
3E
  0
LAYER
  5
45
330
2
100
AcDbSymbolTableRecord
100
AcDbLayerTableRecord
  2
FORMAT
 70
     0
 62
   179
  6
Continuous
370
    -3
390
F
347
3E
  0
ENDTAB
  0
TABLE
  2
STYLE
  5
3
330
0
100
AcDbSymbolTable
 70
     5
  0
STYLE
  5
11
330
3
100
AcDbSymbolTableRecord
100
AcDbTextStyleTableRecord
  2
Standard
 70
     0
 40
0.0
 41
1.0
 50
0.0
 71
     0
 42
2.5
  3
txt
  4

  0
STYLE
  5
49
330
3
100
AcDbSymbolTableRecord
100
AcDbTextStyleTableRecord
  2
SLDTEXTSTYLE0
 70
     0
 40
0.0
 41
0.4457894737
 50
0.0
 71
     0
 42
0.2
  3
TXT
  4

  0
STYLE
  5
8E
330
3
100
AcDbSymbolTableRecord
100
AcDbTextStyleTableRecord
  2
SLDTEXTSTYLE1
 70
     0
 40
0.0
 41
0.5526315789
 50
0.0
 71
     0
 42
0.2
  3
TXT
  4

  0
STYLE
  5
90
330
3
100
AcDbSymbolTableRecord
100
AcDbTextStyleTableRecord
  2
SLDTEXTSTYLE2
 70
     0
 40
0.0
 41
0.5065789474
 50
0.0
 71
     0
 42
0.2
  3
TXT
  4

  0
STYLE
  5
A0
330
3
100
AcDbSymbolTableRecord
100
AcDbTextStyleTableRecord
  2
SLDTEXTSTYLE3
 70
     0
 40
0.0
 41
0.75
 50
0.0
 71
     0
 42
0.2
  3
TXT
  4

  0
ENDTAB
  0
TABLE
  2
VIEW
  5
6
330
0
100
AcDbSymbolTable
 70
     0
  0
ENDTAB
  0
TABLE
  2
UCS
  5
7
330
0
100
AcDbSymbolTable
 70
     0
  0
ENDTAB
  0
TABLE
  2
APPID
  5
9
330
0
100
AcDbSymbolTable
 70
     1
  0
APPID
  5
12
330
9
100
AcDbSymbolTableRecord
100
AcDbRegAppTableRecord
  2
ACAD
 70
     0
  0
ENDTAB
  0
TABLE
  2
DIMSTYLE
  5
A
330
0
100
AcDbSymbolTable
 70
     3
100
AcDbDimStyleTable
  0
DIMSTYLE
105
27
330
A
100
AcDbSymbolTableRecord
100
AcDbDimStyleTableRecord
  2
ISO-25
 70
     0
 41
2.5
 42
0.625
 43
3.75
 44
1.25
 73
     0
 74
     0
 77
     1
 78
     8
140
2.5
141
2.5
143
0.0393700787
147
0.625
171
     3
172
     1
271
     2
272
     2
274
     3
278
    44
283
     0
284
     8
340
11
  0
DIMSTYLE
105
128
102
{ACAD_REACTORS
330
127
330
132
330
13C
330
199
330
1A3
330
2C3
330
2CD
330
2D7
330
2EB
102
}
330
A
100
AcDbSymbolTableRecord
100
AcDbDimStyleTableRecord
  2
SLDDIMSTYLE0
 70
     0
 41
6.604
 44
0.0
 45
0.000000001
 73
     0
 77
     1
 78
    12
140
7.0
147
1.75
173
     1
271
     0
272
     2
284
    12
340
A0
  0
DIMSTYLE
105
2E2
102
{ACAD_REACTORS
330
2E1
102
}
330
A
100
AcDbSymbolTableRecord
100
AcDbDimStyleTableRecord
  2
SLDDIMSTYLE1
 70
     0
 41
6.604
 44
0.0
 45
0.000000001
 73
     0
 77
     1
 78
    12
140
7.0
147
1.75
172
     1
173
     1
271
     0
272
     2
284
    12
340
A0
  0
ENDTAB
  0
TABLE
  2
BLOCK_RECORD
  5
1
330
0
100
AcDbSymbolTable
 70
    20
  0
BLOCK_RECORD
  5
1F
330
1
100
AcDbSymbolTableRecord
100
AcDbBlockTableRecord
  2
*Model_Space
340
22
 70
     0
280
     1
281
     0
  0
BLOCK_RECORD
  5
1B
330
1
100
AcDbSymbolTableRecord
100
AcDbBlockTableRecord
  2
*Paper_Space
340
1E
 70
     0
280
     1
281
     0
  0
BLOCK_RECORD
  5
23
330
1
100
AcDbSymbolTableRecord
100
AcDbBlockTableRecord
  2
*Paper_Space0
340
26
 70
     0
280
     1
281
     0
  0
BLOCK_RECORD
  5
46
330
1
100
AcDbSymbolTableRecord
100
AcDbBlockTableRecord
  2
SW_NOTE_0
340
0
102
{BLKREFS
331
8B
102
}
 70
     0
280
     1
281
     0
  0
BLOCK_RECORD
  5
6E
330
1
100
AcDbSymbolTableRecord
100
AcDbBlockTableRecord
  2
SW_NOTE_1
340
0
102
{BLKREFS
331
8C
102
}
 70
     0
280
     1
281
     0
  0
BLOCK_RECORD
  5
96
330
1
100
AcDbSymbolTableRecord
100
AcDbBlockTableRecord
  2
SW_NOTE_0_1
340
0
102
{BLKREFS
331
9B
102
}
 70
     0
280
     1
281
     0
  0
BLOCK_RECORD
  5
9D
330
1
100
AcDbSymbolTableRecord
100
AcDbBlockTableRecord
  2
SW_NOTE_1_1
340
0
102
{BLKREFS
331
A9
102
}
 70
     0
280
     1
281
     0
  0
BLOCK_RECORD
  5
129
330
1
100
AcDbSymbolTableRecord
100
AcDbBlockTableRecord
  2
*D5
340
0
 70
     0
280
     1
281
     0
  0
BLOCK_RECORD
  5
133
330
1
100
AcDbSymbolTableRecord
100
AcDbBlockTableRecord
  2
*D6
340
0
 70
     0
280
     1
281
     0
  0
BLOCK_RECORD
  5
13D
330
1
100
AcDbSymbolTableRecord
100
AcDbBlockTableRecord
  2
*D7
340
0
 70
     0
280
     1
281
     0
  0
BLOCK_RECORD
  5
19A
330
1
100
AcDbSymbolTableRecord
100
AcDbBlockTableRecord
  2
*D8
340
0
 70
     0
280
     1
281
     0
  0
BLOCK_RECORD
  5
1A4
330
1
100
AcDbSymbolTableRecord
100
AcDbBlockTableRecord
  2
*D9
340
0
 70
     0
280
     1
281
     0
  0
BLOCK_RECORD
  5
1AD
330
1
100
AcDbSymbolTableRecord
100
AcDbBlockTableRecord
  2
SW_CENTERMARKSYMBOL_0
340
0
102
{BLKREFS
331
1B8
102
}
 70
     0
280
     1
281
     0
  0
BLOCK_RECORD
  5
2C4
330
1
100
AcDbSymbolTableRecord
100
AcDbBlockTableRecord
  2
*D11
340
0
 70
     0
280
     1
281
     0
  0
BLOCK_RECORD
  5
2CE
330
1
100
AcDbSymbolTableRecord
100
AcDbBlockTableRecord
  2
*D12
340
0
 70
     0
280
     1
281
     0
  0
BLOCK_RECORD
  5
2D8
330
1
100
AcDbSymbolTableRecord
100
AcDbBlockTableRecord
  2
*D13
340
0
 70
     0
280
     1
281
     0
  0
BLOCK_RECORD
  5
2E3
330
1
100
AcDbSymbolTableRecord
100
AcDbBlockTableRecord
  2
*D14
340
0
 70
     0
280
     1
281
     0
  0
BLOCK_RECORD
  5
2EC
330
1
100
AcDbSymbolTableRecord
100
AcDbBlockTableRecord
  2
*D15
340
0
 70
     0
280
     1
281
     0
  0
BLOCK_RECORD
  5
2F5
330
1
100
AcDbSymbolTableRecord
100
AcDbBlockTableRecord
  2
SW_CENTERMARKSYMBOL_1
340
0
102
{BLKREFS
331
300
102
}
 70
     0
280
     1
281
     0
  0
BLOCK_RECORD
  5
301
330
1
100
AcDbSymbolTableRecord
100
AcDbBlockTableRecord
  2
SW_CENTERMARKSYMBOL_2
340
0
102
{BLKREFS
331
30C
102
}
 70
     0
280
     1
281
     0
  0
BLOCK_RECORD
  5
30D
330
1
100
AcDbSymbolTableRecord
100
AcDbBlockTableRecord
  2
SW_CENTERMARKSYMBOL_3
340
0
102
{BLKREFS
331
318
102
}
 70
     0
280
     1
281
     0
  0
BLOCK_RECORD
  5
319
330
1
100
AcDbSymbolTableRecord
100
AcDbBlockTableRecord
  2
SW_CENTERMARKSYMBOL_4
340
0
102
{BLKREFS
331
324
102
}
 70
     0
280
     1
281
     0
  0
ENDTAB
  0
ENDSEC
  0
SECTION
  2
BLOCKS
  0
BLOCK
  5
20
330
1F
100
AcDbEntity
  8
0
100
AcDbBlockBegin
  2
*Model_Space
 70
     0
 10
0.0
 20
0.0
 30
0.0
  3
*Model_Space
  1

  0
ENDBLK
  5
21
330
1F
100
AcDbEntity
  8
0
100
AcDbBlockEnd
  0
BLOCK
  5
1C
330
1B
100
AcDbEntity
 67
     1
  8
0
100
AcDbBlockBegin
  2
*Paper_Space
 70
     0
 10
0.0
 20
0.0
 30
0.0
  3
*Paper_Space
  1

  0
ENDBLK
  5
1D
330
1B
100
AcDbEntity
 67
     1
  8
0
100
AcDbBlockEnd
  0
BLOCK
  5
24
330
23
100
AcDbEntity
  8
0
100
AcDbBlockBegin
  2
*Paper_Space0
 70
     0
 10
0.0
 20
0.0
 30
0.0
  3
*Paper_Space0
  1

  0
ENDBLK
  5
25
330
23
100
AcDbEntity
  8
0
100
AcDbBlockEnd
  0
BLOCK
  5
47
330
46
100
AcDbEntity
  8
0
100
AcDbBlockBegin
  2
SW_NOTE_0
 70
     0
 10
0.0
 20
0.0
 30
0.0
  3
SW_NOTE_0
  1

  0
MTEXT
  5
6C
330
46
100
AcDbEntity
  8
SLD-0
 48
10.0
100
AcDbMText
 10
0.0
 20
32.010732005
 30
0.0
 40
30.0
 41
0.0
 46
0.0
 71
     1
 72
     1
  1
Disclaimer: This information is intended solely as a guide for use fo Marley NZ products. Before using you should ensure that the product is suitable for use in the specific application. 
  7
SLDTEXTSTYLE0
 73
     1
 44
1.0
  0
MTEXT
  5
6D
330
46
100
AcDbEntity
  8
SLD-0
 48
10.0
100
AcDbMText
 10
0.0
 20
-17.989266879
 30
0.0
 40
30.0
 41
0.0
 46
0.0
 71
     1
 72
     1
  1
Marley NZ makes no warranty regarding the use of this information with non-Marley NZ products. This drawing is the property of Marley NZ Ltd.
  7
SLDTEXTSTYLE0
 73
     1
 44
1.0
  0
ENDBLK
  5
48
330
46
100
AcDbEntity
  8
0
100
AcDbBlockEnd
  0
BLOCK
  5
6F
330
6E
100
AcDbEntity
  8
0
100
AcDbBlockBegin
  2
SW_NOTE_1
 70
     0
 10
0.0
 20
0.0
 30
0.0
  3
SW_NOTE_1
  1

  0
MTEXT
  5
71
330
6E
100
AcDbEntity
  8
SLD-0
 48
10.0
100
AcDbMText
 10
0.0
 20
50.8170336217
 30
0.0
 40
47.625
 41
0.0
 46
0.0
 71
     1
 72
     1
  1
0800 MARLEY
  7
SLDTEXTSTYLE0
 73
     1
 44
1.0
  0
MTEXT
  5
72
330
6E
100
AcDbEntity
  8
SLD-0
 48
10.0
100
AcDbMText
 10
-41.947476566
 20
-12.6829656103
 30
0.0
 40
47.625
 41
0.0
 46
0.0
 71
     1
 72
     1
  1
www.marley.co.nz
  7
SLDTEXTSTYLE0
 73
     1
 44
1.0
  0
ENDBLK
  5
70
330
6E
100
AcDbEntity
  8
0
100
AcDbBlockEnd
  0
BLOCK
  5
97
330
96
100
AcDbEntity
  8
0
100
AcDbBlockBegin
  2
SW_NOTE_0_1
 70
     0
 10
0.0
 20
0.0
 30
0.0
  3
SW_NOTE_0_1
  1

  0
MTEXT
  5
99
330
96
100
AcDbEntity
  8
SLD-0
 62
     0
 48
10.0
100
AcDbMText
 10
0.0
 20
8.1855801476
 30
0.0
 40
6.35
 41
0.0
 46
0.0
 71
     1
 72
     1
  1
FL2
  7
SLDTEXTSTYLE0
 73
     1
 44
1.0
  0
MTEXT
  5
9A
330
96
100
AcDbEntity
  8
SLD-0
 62
     0
 48
10.0
100
AcDbMText
 10
11.9856260717
 20
7.3622375766
 30
0.0
 40
5.29166
 41
0.0
 46
0.0
 71
     1
 72
     1
  1
 Internal Bracket with Spouting Profile
  7
SLDTEXTSTYLE0
 73
     1
 44
1.0
  0
ENDBLK
  5
98
330
96
100
AcDbEntity
  8
0
100
AcDbBlockEnd
  0
BLOCK
  5
9E
330
9D
100
AcDbEntity
  8
0
100
AcDbBlockBegin
  2
SW_NOTE_1_1
 70
     0
 10
0.0
 20
0.0
 30
0.0
  3
SW_NOTE_1_1
  1

  0
MTEXT
  5
A1
330
9D
100
AcDbEntity
  8
SLD-0
 62
     0
 48
10.0
100
AcDbMText
 10
0.0
 20
8.1855801476
 30
0.0
 40
6.35
 41
0.0
 46
0.0
 71
     1
 72
     1
  1
NOTE: Fixing recommendations.
  7
SLDTEXTSTYLE3
 73
     1
 44
1.0
  0
MTEXT
  5
A2
330
9D
100
AcDbEntity
  8
SLD-0
 62
     0
 48
10.0
100
AcDbMText
 10
0.0
 20
-0.2342387971
 30
0.0
 40
5.2916666667
 41
0.0
 46
0.0
 71
     1
 72
     1
  1
1. Screw fixings with timber fascia. 
  7
SLDTEXTSTYLE3
 73
     1
 44
1.0
  0
MTEXT
  5
A3
330
9D
100
AcDbEntity
  8
SLD-0
 62
     0
 48
10.0
100
AcDbMText
 10
0.0
 20
-7.2897942674
 30
0.0
 40
5.2916666667
 41
0.0
 46
0.0
 71
     1
 72
     1
  1
-Stainless Steel, grade 304 self tapping screws 6g x 20mm 
  7
SLDTEXTSTYLE3
 73
     1
 44
1.0
  0
MTEXT
  5
A4
330
9D
100
AcDbEntity
  8
SLD-0
 62
     0
 48
10.0
100
AcDbMText
 10
0.0
 20
-14.3453497377
 30
0.0
 40
5.2916666667
 41
0.0
 46
0.0
 71
     1
 72
     1
  1
pan head or wafer head.
  7
SLDTEXTSTYLE3
 73
     1
 44
1.0
  0
MTEXT
  5
A5
330
9D
100
AcDbEntity
  8
SLD-0
 62
     0
 48
10.0
100
AcDbMText
 10
0.0
 20
-21.4009052079
 30
0.0
 40
5.2916666667
 41
0.0
 46
0.0
 71
     1
 72
     1
  1
2. Nail fixing with timber fascia.
  7
SLDTEXTSTYLE3
 73
     1
 44
1.0
  0
MTEXT
  5
A6
330
9D
100
AcDbEntity
  8
SLD-0
 62
     0
 48
10.0
100
AcDbMText
 10
0.0
 20
-28.4564606782
 30
0.0
 40
5.2916666667
 41
0.0
 46
0.0
 71
     1
 72
     1
  1
-Marley galvanised nails. [mcnails]
  7
SLDTEXTSTYLE3
 73
     1
 44
1.0
  0
MTEXT
  5
A7
330
9D
100
AcDbEntity
  8
SLD-0
 62
     0
 48
10.0
100
AcDbMText
 10
0.0
 20
-35.5120161485
 30
0.0
 40
5.2916666667
 41
0.0
 46
0.0
 71
     1
 72
     1
  1
3. Screw fixing with metal fascia.
  7
SLDTEXTSTYLE3
 73
     1
 44
1.0
  0
MTEXT
  5
A8
330
9D
100
AcDbEntity
  8
SLD-0
 62
     0
 48
10.0
100
AcDbMText
 10
0.0
 20
-42.5675716188
 30
0.0
 40
5.2916666667
 41
0.0
 46
0.0
 71
     1
 72
     1
  1
- Self drilling tek-screws. 6g pan head or wafer head.
  7
SLDTEXTSTYLE3
 73
     1
 44
1.0
  0
ENDBLK
  5
9F
330
9D
100
AcDbEntity
  8
0
100
AcDbBlockEnd
  0
BLOCK
  5
12A
330
129
100
AcDbEntity
  8
0
100
AcDbBlockBegin
  2
*D5
 70
     1
 10
0.0
 20
0.0
 30
0.0
  3
*D5
  1

  0
SOLID
  5
12C
330
129
100
AcDbEntity
  8
SLD-0
 48
10.0
100
AcDbTrace
 10
136.4319788151
 20
442.6766970121
 30
0.0
 11
137.4479788151
 21
449.2806970121
 31
0.0
 12
135.4159788151
 22
449.2806970121
 32
0.0
 13
135.4159788151
 23
449.2806970121
 33
0.0
  0
SOLID
  5
12D
330
129
100
AcDbEntity
  8
SLD-0
 48
10.0
100
AcDbTrace
 10
136.4319788151
 20
512.1671428424
 30
0.0
 11
135.4159788151
 21
505.5631428424
 31
0.0
 12
137.4479788151
 22
505.5631428424
 32
0.0
 13
137.4479788151
 23
505.5631428424
 33
0.0
  0
LINE
  5
12E
330
129
100
AcDbEntity
  8
SLD-0
 48
10.0
100
AcDbLine
 10
218.0373989406
 20
442.6766970121
 30
0.0
 11
134.4319788151
 21
442.6766970121
 31
0.0
  0
LINE
  5
12F
330
129
100
AcDbEntity
  8
SLD-0
 48
10.0
100
AcDbLine
 10
154.8390550636
 20
512.1671428424
 30
0.0
 11
134.4319788151
 21
512.1671428424
 31
0.0
  0
LINE
  5
130
330
129
100
AcDbEntity
  8
SLD-0
 48
10.0
100
AcDbLine
 10
136.4319788151
 20
442.6766970121
 30
0.0
 11
136.4319788151
 21
512.1671428424
 31
0.0
  0
MTEXT
  5
131
330
129
100
AcDbEntity
  8
SLD-0
 48
10.0
100
AcDbMText
 10
127.408504986
 20
485.6759521095
 30
0.0
 40
7.0
 41
0.0
 46
0.0
 71
     1
 72
     1
  1
69
  7
SLDTEXTSTYLE3
 11
6.123233995736766E-17
 21
1.0
 31
0.0
 73
     1
 44
1.0
  0
ENDBLK
  5
12B
330
129
100
AcDbEntity
  8
0
100
AcDbBlockEnd
  0
BLOCK
  5
134
330
133
100
AcDbEntity
  8
0
100
AcDbBlockBegin
  2
*D6
 70
     1
 10
0.0
 20
0.0
 30
0.0
  3
*D6
  1

  0
SOLID
  5
136
330
133
100
AcDbEntity
  8
SLD-0
 48
10.0
100
AcDbTrace
 10
156.8480204106
 20
422.6766975999
 30
0.0
 11
163.4520204106
 21
421.6606975999
 31
0.0
 12
163.4520204106
 22
423.6926975999
 32
0.0
 13
163.4520204106
 23
423.6926975999
 33
0.0
  0
SOLID
  5
137
330
133
100
AcDbEntity
  8
SLD-0
 48
10.0
100
AcDbTrace
 10
295.0373989406
 20
422.6766975999
 30
0.0
 11
288.4333989406
 21
423.6926975999
 31
0.0
 12
288.4333989406
 22
421.6606975999
 32
0.0
 13
288.4333989406
 23
421.6606975999
 33
0.0
  0
LINE
  5
138
330
133
100
AcDbEntity
  8
SLD-0
 48
10.0
100
AcDbLine
 10
156.8480204106
 20
509.8285361184
 30
0.0
 11
156.8480204106
 21
420.6766975999
 31
0.0
  0
LINE
  5
139
330
133
100
AcDbEntity
  8
SLD-0
 48
10.0
100
AcDbLine
 10
295.0373989406
 20
520.4766975262
 30
0.0
 11
295.0373989406
 21
420.6766975999
 31
0.0
  0
LINE
  5
13A
330
133
100
AcDbEntity
  8
SLD-0
 48
10.0
100
AcDbLine
 10
156.8480204106
 20
422.6766975999
 30
0.0
 11
295.0373989406
 21
422.6766975999
 31
0.0
  0
MTEXT
  5
13B
330
133
100
AcDbEntity
  8
SLD-0
 48
10.0
100
AcDbMText
 10
220.3544715479
 20
431.700171429
 30
0.0
 40
7.0
 41
0.0
 46
0.0
 71
     1
 72
     1
  1
138
  7
SLDTEXTSTYLE3
 73
     1
 44
1.0
  0
ENDBLK
  5
135
330
133
100
AcDbEntity
  8
0
100
AcDbBlockEnd
  0
BLOCK
  5
13E
330
13D
100
AcDbEntity
  8
0
100
AcDbBlockBegin
  2
*D7
 70
     1
 10
0.0
 20
0.0
 30
0.0
  3
*D7
  1

  0
SOLID
  5
140
330
13D
100
AcDbEntity
  8
SLD-0
 48
10.0
100
AcDbTrace
 10
315.0375020182
 20
442.6766970121
 30
0.0
 11
316.0535020182
 21
449.2806970121
 31
0.0
 12
314.0215020182
 22
449.2806970121
 32
0.0
 13
314.0215020182
 23
449.2806970121
 33
0.0
  0
SOLID
  5
141
330
13D
100
AcDbEntity
  8
SLD-0
 48
10.0
100
AcDbTrace
 10
315.0375020182
 20
537.3766975262
 30
0.0
 11
314.0215020182
 21
530.7726975262
 31
0.0
 12
316.0535020182
 22
530.7726975262
 32
0.0
 13
316.0535020182
 23
530.7726975262
 33
0.0
  0
LINE
  5
142
330
13D
100
AcDbEntity
  8
SLD-0
 48
10.0
100
AcDbLine
 10
222.0373989406
 20
442.6766970121
 30
0.0
 11
317.0375020182
 21
442.6766970121
 31
0.0
  0
LINE
  5
143
330
13D
100
AcDbEntity
  8
SLD-0
 48
10.0
100
AcDbLine
 10
295.0373989406
 20
537.3766975262
 30
0.0
 11
317.0375020182
 21
537.3766975262
 31
0.0
  0
LINE
  5
144
330
13D
100
AcDbEntity
  8
SLD-0
 48
10.0
100
AcDbLine
 10
315.0375020182
 20
442.6766970121
 30
0.0
 11
315.0375020182
 21
537.3766975262
 31
0.0
  0
MTEXT
  5
145
330
13D
100
AcDbEntity
  8
SLD-0
 48
10.0
100
AcDbMText
 10
306.0140281891
 20
493.0023596916
 30
0.0
 40
7.0
 41
0.0
 46
0.0
 71
     1
 72
     1
  1
95
  7
SLDTEXTSTYLE3
 11
6.123233995736766E-17
 21
1.0
 31
0.0
 73
     1
 44
1.0
  0
ENDBLK
  5
13F
330
13D
100
AcDbEntity
  8
0
100
AcDbBlockEnd
  0
BLOCK
  5
19B
330
19A
100
AcDbEntity
  8
0
100
AcDbBlockBegin
  2
*D8
 70
     1
 10
0.0
 20
0.0
 30
0.0
  3
*D8
  1

  0
SOLID
  5
19D
330
19A
100
AcDbEntity
  8
SLD-0
 48
10.0
100
AcDbTrace
 10
213.8322460851
 20
310.0353761013
 30
0.0
 11
212.8162460851
 21
303.4313761013
 31
0.0
 12
214.8482460851
 22
303.4313761013
 32
0.0
 13
214.8482460851
 23
303.4313761013
 33
0.0
  0
SOLID
  5
19E
330
19A
100
AcDbEntity
  8
SLD-0
 48
10.0
100
AcDbTrace
 10
213.8322460851
 20
253.0353761013
 30
0.0
 11
214.8482460851
 21
259.6393761013
 31
0.0
 12
212.8162460851
 22
259.6393761013
 32
0.0
 13
212.8162460851
 23
259.6393761013
 33
0.0
  0
LINE
  5
19F
330
19A
100
AcDbEntity
  8
SLD-0
 48
10.0
100
AcDbLine
 10
231.8322710851
 20
310.0353761013
 30
0.0
 11
211.8322460851
 21
310.0353761013
 31
0.0
  0
LINE
  5
1A0
330
19A
100
AcDbEntity
  8
SLD-0
 48
10.0
100
AcDbLine
 10
231.8322710851
 20
253.0353761013
 30
0.0
 11
211.8322460851
 21
253.0353761013
 31
0.0
  0
LINE
  5
1A1
330
19A
100
AcDbEntity
  8
SLD-0
 48
10.0
100
AcDbLine
 10
213.8322460851
 20
310.0353761013
 30
0.0
 11
213.8322460851
 21
253.0353761013
 31
0.0
  0
MTEXT
  5
1A2
330
19A
100
AcDbEntity
  8
SLD-0
 48
10.0
100
AcDbMText
 10
204.808772256
 20
270.2968212715
 30
0.0
 40
7.0
 41
0.0
 46
0.0
 71
     1
 72
     1
  1
57
  7
SLDTEXTSTYLE3
 11
-6.156016597943509E-15
 21
1.0
 31
0.0
 73
     1
 44
1.0
  0
ENDBLK
  5
19C
330
19A
100
AcDbEntity
  8
0
100
AcDbBlockEnd
  0
BLOCK
  5
1A5
330
1A4
100
AcDbEntity
  8
0
100
AcDbBlockBegin
  2
*D9
 70
     1
 10
0.0
 20
0.0
 30
0.0
  3
*D9
  1

  0
SOLID
  5
1A7
330
1A4
100
AcDbEntity
  8
SLD-0
 48
10.0
100
AcDbTrace
 10
233.8322710851
 20
233.0350377809
 30
0.0
 11
240.4362710851
 21
232.0190377809
 31
0.0
 12
240.4362710851
 22
234.0510377809
 32
0.0
 13
240.4362710851
 23
234.0510377809
 33
0.0
  0
SOLID
  5
1A8
330
1A4
100
AcDbEntity
  8
SLD-0
 48
10.0
100
AcDbTrace
 10
369.7322710851
 20
233.0350377809
 30
0.0
 11
363.1282710851
 21
234.0510377809
 31
0.0
 12
363.1282710851
 22
232.0190377809
 32
0.0
 13
363.1282710851
 23
232.0190377809
 33
0.0
  0
LINE
  5
1A9
330
1A4
100
AcDbEntity
  8
SLD-0
 48
10.0
100
AcDbLine
 10
233.8322710851
 20
296.0272880137
 30
0.0
 11
233.8322710851
 21
231.0350377809
 31
0.0
  0
LINE
  5
1AA
330
1A4
100
AcDbEntity
  8
SLD-0
 48
10.0
100
AcDbLine
 10
369.7322710851
 20
317.1353761013
 30
0.0
 11
369.7322710851
 21
231.0350377809
 31
0.0
  0
LINE
  5
1AB
330
1A4
100
AcDbEntity
  8
SLD-0
 48
10.0
100
AcDbLine
 10
233.8322710851
 20
233.0350377809
 30
0.0
 11
369.7322710851
 21
233.0350377809
 31
0.0
  0
MTEXT
  5
1AC
330
1A4
100
AcDbEntity
  8
SLD-0
 48
10.0
100
AcDbMText
 10
295.8938913747
 20
242.05851161
 30
0.0
 40
7.0
 41
0.0
 46
0.0
 71
     1
 72
     1
  1
136
  7
SLDTEXTSTYLE3
 73
     1
 44
1.0
  0
ENDBLK
  5
1A6
330
1A4
100
AcDbEntity
  8
0
100
AcDbBlockEnd
  0
BLOCK
  5
1AE
330
1AD
100
AcDbEntity
  8
0
100
AcDbBlockBegin
  2
SW_CENTERMARKSYMBOL_0
 70
     0
 10
0.0
 20
0.0
 30
0.0
  3
SW_CENTERMARKSYMBOL_0
  1

  0
LINE
  5
1B0
330
1AD
100
AcDbEntity
  8
0
  6
Continuous
 62
     0
 48
10.0
370
     0
100
AcDbLine
 10
0.0
 20
0.0
 30
0.0
 11
0.0
 21
2.5
 31
0.0
  0
LINE
  5
1B1
330
1AD
100
AcDbEntity
  8
0
  6
Continuous
 62
     0
 48
10.0
370
     0
100
AcDbLine
 10
0.0
 20
0.0
 30
0.0
 11
-2.5
 21
0.0
 31
0.0
  0
LINE
  5
1B2
330
1AD
100
AcDbEntity
  8
0
  6
Continuous
 62
     0
 48
10.0
370
     0
100
AcDbLine
 10
0.0
 20
0.0
 30
0.0
 11
0.0
 21
-2.5
 31
0.0
  0
LINE
  5
1B3
330
1AD
100
AcDbEntity
  8
0
  6
Continuous
 62
     0
 48
10.0
370
     0
100
AcDbLine
 10
0.0
 20
0.0
 30
0.0
 11
2.5
 21
0.0
 31
0.0
  0
LINE
  5
1B4
330
1AD
100
AcDbEntity
  8
0
  6
Continuous
 62
     0
 48
10.0
370
     0
100
AcDbLine
 10
0.0
 20
5.0
 30
0.0
 11
0.0
 21
5.5
 31
0.0
  0
LINE
  5
1B5
330
1AD
100
AcDbEntity
  8
0
  6
Continuous
 62
     0
 48
10.0
370
     0
100
AcDbLine
 10
-5.0
 20
0.0
 30
0.0
 11
-5.5
 21
0.0
 31
0.0
  0
LINE
  5
1B6
330
1AD
100
AcDbEntity
  8
0
  6
Continuous
 62
     0
 48
10.0
370
     0
100
AcDbLine
 10
0.0
 20
-5.0
 30
0.0
 11
0.0
 21
-5.5
 31
0.0
  0
LINE
  5
1B7
330
1AD
100
AcDbEntity
  8
0
  6
Continuous
 62
     0
 48
10.0
370
     0
100
AcDbLine
 10
5.0
 20
0.0
 30
0.0
 11
5.5
 21
0.0
 31
0.0
  0
ENDBLK
  5
1AF
330
1AD
100
AcDbEntity
  8
0
100
AcDbBlockEnd
  0
BLOCK
  5
2C5
330
2C4
100
AcDbEntity
  8
0
100
AcDbBlockBegin
  2
*D11
 70
     1
 10
0.0
 20
0.0
 30
0.0
  3
*D11
  1

  0
SOLID
  5
2C7
330
2C4
100
AcDbEntity
  8
SLD-0
 48
10.0
100
AcDbTrace
 10
138.1776075706
 20
341.3148455675
 30
0.0
 11
131.5736075706
 21
342.3308455675
 31
0.0
 12
131.5736075706
 22
340.2988455675
 32
0.0
 13
131.5736075706
 23
340.2988455675
 33
0.0
  0
SOLID
  5
2C8
330
2C4
100
AcDbEntity
  8
SLD-0
 48
10.0
100
AcDbTrace
 10
88.1776075706
 20
341.3148455675
 30
0.0
 11
94.7816075706
 21
340.2988455675
 31
0.0
 12
94.7816075706
 22
342.3308455675
 32
0.0
 13
94.7816075706
 23
342.3308455675
 33
0.0
  0
LINE
  5
2C9
330
2C4
100
AcDbEntity
  8
SLD-0
 48
10.0
100
AcDbLine
 10
138.1776075706
 20
296.0353761013
 30
0.0
 11
138.1776075706
 21
343.3148455675
 31
0.0
  0
LINE
  5
2CA
330
2C4
100
AcDbEntity
  8
SLD-0
 48
10.0
100
AcDbLine
 10
88.1776075706
 20
296.0353761013
 30
0.0
 11
88.1776075706
 21
343.3148455675
 31
0.0
  0
LINE
  5
2CB
330
2C4
100
AcDbEntity
  8
SLD-0
 48
10.0
100
AcDbLine
 10
138.1776075706
 20
341.3148455675
 30
0.0
 11
88.1776075706
 21
341.3148455675
 31
0.0
  0
MTEXT
  5
2CC
330
2C4
100
AcDbEntity
  8
SLD-0
 48
10.0
100
AcDbMText
 10
106.0499157467
 20
350.3383193967
 30
0.0
 40
7.0
 41
0.0
 46
0.0
 71
     1
 72
     1
  1
50
  7
SLDTEXTSTYLE3
 73
     1
 44
1.0
  0
ENDBLK
  5
2C6
330
2C4
100
AcDbEntity
  8
0
100
AcDbBlockEnd
  0
BLOCK
  5
2CF
330
2CE
100
AcDbEntity
  8
0
100
AcDbBlockBegin
  2
*D12
 70
     1
 10
0.0
 20
0.0
 30
0.0
  3
*D12
  1

  0
SOLID
  5
2D1
330
2CE
100
AcDbEntity
  8
SLD-0
 48
10.0
100
AcDbTrace
 10
92.1776075706
 20
328.5004464715
 30
0.0
 11
98.7816075706
 21
327.4844464715
 31
0.0
 12
98.7816075706
 22
329.5164464715
 32
0.0
 13
98.7816075706
 23
329.5164464715
 33
0.0
  0
SOLID
  5
2D2
330
2CE
100
AcDbEntity
  8
SLD-0
 48
10.0
100
AcDbTrace
 10
134.1776075706
 20
328.5004464715
 30
0.0
 11
127.5736075706
 21
329.5164464715
 31
0.0
 12
127.5736075706
 22
327.4844464715
 32
0.0
 13
127.5736075706
 23
327.4844464715
 33
0.0
  0
LINE
  5
2D3
330
2CE
100
AcDbEntity
  8
SLD-0
 48
10.0
100
AcDbLine
 10
92.1776075706
 20
282.0353761013
 30
0.0
 11
92.1776075706
 21
330.5004464715
 31
0.0
  0
LINE
  5
2D4
330
2CE
100
AcDbEntity
  8
SLD-0
 48
10.0
100
AcDbLine
 10
134.1776075706
 20
282.0353761013
 30
0.0
 11
134.1776075706
 21
330.5004464715
 31
0.0
  0
LINE
  5
2D5
330
2CE
100
AcDbEntity
  8
SLD-0
 48
10.0
100
AcDbLine
 10
92.1776075706
 20
328.5004464715
 30
0.0
 11
134.1776075706
 21
328.5004464715
 31
0.0
  0
MTEXT
  5
2D6
330
2CE
100
AcDbEntity
  8
SLD-0
 48
10.0
100
AcDbMText
 10
106.0499157467
 20
337.5239203006
 30
0.0
 40
7.0
 41
0.0
 46
0.0
 71
     1
 72
     1
  1
42
  7
SLDTEXTSTYLE3
 73
     1
 44
1.0
  0
ENDBLK
  5
2D0
330
2CE
100
AcDbEntity
  8
0
100
AcDbBlockEnd
  0
BLOCK
  5
2D9
330
2D8
100
AcDbEntity
  8
0
100
AcDbBlockBegin
  2
*D13
 70
     1
 10
0.0
 20
0.0
 30
0.0
  3
*D13
  1

  0
SOLID
  5
2DB
330
2D8
100
AcDbEntity
  8
SLD-0
 48
10.0
100
AcDbTrace
 10
97.1852791218
 20
233.0350377809
 30
0.0
 11
103.7892791218
 21
232.0190377809
 31
0.0
 12
103.7892791218
 22
234.0510377809
 32
0.0
 13
103.7892791218
 23
234.0510377809
 33
0.0
  0
SOLID
  5
2DC
330
2D8
100
AcDbEntity
  8
SLD-0
 48
10.0
100
AcDbTrace
 10
129.1699360194
 20
233.0350377809
 30
0.0
 11
122.5659360194
 21
234.0510377809
 31
0.0
 12
122.5659360194
 22
232.0190377809
 32
0.0
 13
122.5659360194
 23
232.0190377809
 33
0.0
  0
LINE
  5
2DD
330
2D8
100
AcDbEntity
  8
SLD-0
 48
10.0
100
AcDbLine
 10
97.1852791218
 20
255.5353761013
 30
0.0
 11
97.1852791218
 21
231.0350377809
 31
0.0
  0
LINE
  5
2DE
330
2D8
100
AcDbEntity
  8
SLD-0
 48
10.0
100
AcDbLine
 10
129.1699360194
 20
255.5353761013
 30
0.0
 11
129.1699360194
 21
231.0350377809
 31
0.0
  0
LINE
  5
2DF
330
2D8
100
AcDbEntity
  8
SLD-0
 48
10.0
100
AcDbLine
 10
97.1852791218
 20
233.0350377809
 30
0.0
 11
129.1699360194
 21
233.0350377809
 31
0.0
  0
MTEXT
  5
2E0
330
2D8
100
AcDbEntity
  8
SLD-0
 48
10.0
100
AcDbMText
 10
106.0499157467
 20
242.05851161
 30
0.0
 40
7.0
 41
0.0
 46
0.0
 71
     1
 72
     1
  1
32
  7
SLDTEXTSTYLE3
 73
     1
 44
1.0
  0
ENDBLK
  5
2DA
330
2D8
100
AcDbEntity
  8
0
100
AcDbBlockEnd
  0
BLOCK
  5
2E4
330
2E3
100
AcDbEntity
  8
0
100
AcDbBlockBegin
  2
*D14
 70
     1
 10
0.0
 20
0.0
 30
0.0
  3
*D14
  1

  0
SOLID
  5
2E6
330
2E3
100
AcDbEntity
  8
SLD-0
 48
10.0
100
AcDbTrace
 10
139.4276075706
 20
296.2004396108
 30
0.0
 11
143.6094893808
 21
301.4116713774
 31
0.0
 12
141.8497257603
 22
302.4276713774
 32
0.0
 13
141.8497257603
 23
302.4276713774
 33
0.0
  0
LINE
  5
2E7
330
2E3
100
AcDbEntity
  8
SLD-0
 48
10.0
100
AcDbLine
 10
139.4276075706
 20
296.2004396108
 30
0.0
 11
167.0578871172
 21
344.0574876129
 31
0.0
  0
LINE
  5
2E8
330
2E3
100
AcDbEntity
  8
SLD-0
 48
10.0
100
AcDbLine
 10
139.4276075706
 20
296.2004396108
 30
0.0
 11
136.9276075706
 21
291.8703125919
 31
0.0
  0
MTEXT
  5
2E9
330
2E3
100
AcDbEntity
  8
SLD-0
 48
10.0
100
AcDbMText
 10
149.8251917085
 20
332.1798674444
 30
0.0
 40
7.0
 41
0.0
 46
0.0
 71
     1
 72
     1
  1
%%c
  7
SLDTEXTSTYLE3
 11
0.4999999999999986
 21
0.8660254037844395
 31
0.0
 73
     1
 44
1.0
  0
MTEXT
  5
2EA
330
2E3
100
AcDbEntity
  8
SLD-0
 48
10.0
100
AcDbMText
 10
155.1031708567
 20
341.3215947919
 30
0.0
 40
7.0
 41
0.0
 46
0.0
 71
     1
 72
     1
  1
5
  7
SLDTEXTSTYLE3
 11
0.4999999999999986
 21
0.8660254037844395
 31
0.0
 73
     1
 44
1.0
  0
ENDBLK
  5
2E5
330
2E3
100
AcDbEntity
  8
0
100
AcDbBlockEnd
  0
BLOCK
  5
2ED
330
2EC
100
AcDbEntity
  8
0
100
AcDbBlockBegin
  2
*D15
 70
     1
 10
0.0
 20
0.0
 30
0.0
  3
*D15
  1

  0
SOLID
  5
2EF
330
2EC
100
AcDbEntity
  8
SLD-0
 48
10.0
100
AcDbTrace
 10
142.6776075706
 20
353.1776292376
 30
0.0
 11
136.0736075706
 21
354.1936292376
 31
0.0
 12
136.0736075706
 22
352.1616292376
 32
0.0
 13
136.0736075706
 23
352.1616292376
 33
0.0
  0
SOLID
  5
2F0
330
2EC
100
AcDbEntity
  8
SLD-0
 48
10.0
100
AcDbTrace
 10
83.6776075706
 20
353.1776292376
 30
0.0
 11
90.2816075706
 21
352.1616292376
 31
0.0
 12
90.2816075706
 22
354.1936292376
 32
0.0
 13
90.2816075706
 23
354.1936292376
 33
0.0
  0
LINE
  5
2F1
330
2EC
100
AcDbEntity
  8
SLD-0
 48
10.0
100
AcDbLine
 10
142.6776075706
 20
296.0353761013
 30
0.0
 11
142.6776075706
 21
355.1776292376
 31
0.0
  0
LINE
  5
2F2
330
2EC
100
AcDbEntity
  8
SLD-0
 48
10.0
100
AcDbLine
 10
83.6776075706
 20
296.0353761013
 30
0.0
 11
83.6776075706
 21
355.1776292376
 31
0.0
  0
LINE
  5
2F3
330
2EC
100
AcDbEntity
  8
SLD-0
 48
10.0
100
AcDbLine
 10
142.6776075706
 20
353.1776292376
 30
0.0
 11
83.6776075706
 21
353.1776292376
 31
0.0
  0
MTEXT
  5
2F4
330
2EC
100
AcDbEntity
  8
SLD-0
 48
10.0
100
AcDbMText
 10
109.0543020654
 20
362.2011030667
 30
0.0
 40
7.0
 41
0.0
 46
0.0
 71
     1
 72
     1
  1
59
  7
SLDTEXTSTYLE3
 73
     1
 44
1.0
  0
ENDBLK
  5
2EE
330
2EC
100
AcDbEntity
  8
0
100
AcDbBlockEnd
  0
BLOCK
  5
2F6
330
2F5
100
AcDbEntity
  8
0
100
AcDbBlockBegin
  2
SW_CENTERMARKSYMBOL_1
 70
     0
 10
0.0
 20
0.0
 30
0.0
  3
SW_CENTERMARKSYMBOL_1
  1

  0
LINE
  5
2F8
330
2F5
100
AcDbEntity
  8
0
  6
Continuous
 62
     0
 48
10.0
370
     0
100
AcDbLine
 10
0.0
 20
0.0
 30
0.0
 11
0.0
 21
2.5
 31
0.0
  0
LINE
  5
2F9
330
2F5
100
AcDbEntity
  8
0
  6
Continuous
 62
     0
 48
10.0
370
     0
100
AcDbLine
 10
0.0
 20
0.0
 30
0.0
 11
-2.5
 21
0.0
 31
0.0
  0
LINE
  5
2FA
330
2F5
100
AcDbEntity
  8
0
  6
Continuous
 62
     0
 48
10.0
370
     0
100
AcDbLine
 10
0.0
 20
0.0
 30
0.0
 11
0.0
 21
-2.5
 31
0.0
  0
LINE
  5
2FB
330
2F5
100
AcDbEntity
  8
0
  6
Continuous
 62
     0
 48
10.0
370
     0
100
AcDbLine
 10
0.0
 20
0.0
 30
0.0
 11
2.5
 21
0.0
 31
0.0
  0
LINE
  5
2FC
330
2F5
100
AcDbEntity
  8
0
  6
Continuous
 62
     0
 48
10.0
370
     0
100
AcDbLine
 10
0.0
 20
2.5
 30
0.0
 11
0.0
 21
5.0
 31
0.0
  0
LINE
  5
2FD
330
2F5
100
AcDbEntity
  8
0
  6
Continuous
 62
     0
 48
10.0
370
     0
100
AcDbLine
 10
-2.5
 20
0.0
 30
0.0
 11
-5.0
 21
0.0
 31
0.0
  0
LINE
  5
2FE
330
2F5
100
AcDbEntity
  8
0
  6
Continuous
 62
     0
 48
10.0
370
     0
100
AcDbLine
 10
0.0
 20
-2.5
 30
0.0
 11
0.0
 21
-5.0
 31
0.0
  0
LINE
  5
2FF
330
2F5
100
AcDbEntity
  8
0
  6
Continuous
 62
     0
 48
10.0
370
     0
100
AcDbLine
 10
2.5
 20
0.0
 30
0.0
 11
5.0
 21
0.0
 31
0.0
  0
ENDBLK
  5
2F7
330
2F5
100
AcDbEntity
  8
0
100
AcDbBlockEnd
  0
BLOCK
  5
302
330
301
100
AcDbEntity
  8
0
100
AcDbBlockBegin
  2
SW_CENTERMARKSYMBOL_2
 70
     0
 10
0.0
 20
0.0
 30
0.0
  3
SW_CENTERMARKSYMBOL_2
  1

  0
LINE
  5
304
330
301
100
AcDbEntity
  8
0
  6
Continuous
 62
     0
 48
10.0
370
     0
100
AcDbLine
 10
0.0
 20
0.0
 30
0.0
 11
0.0
 21
2.5
 31
0.0
  0
LINE
  5
305
330
301
100
AcDbEntity
  8
0
  6
Continuous
 62
     0
 48
10.0
370
     0
100
AcDbLine
 10
0.0
 20
0.0
 30
0.0
 11
-2.5
 21
0.0
 31
0.0
  0
LINE
  5
306
330
301
100
AcDbEntity
  8
0
  6
Continuous
 62
     0
 48
10.0
370
     0
100
AcDbLine
 10
0.0
 20
0.0
 30
0.0
 11
0.0
 21
-2.5
 31
0.0
  0
LINE
  5
307
330
301
100
AcDbEntity
  8
0
  6
Continuous
 62
     0
 48
10.0
370
     0
100
AcDbLine
 10
0.0
 20
0.0
 30
0.0
 11
2.5
 21
0.0
 31
0.0
  0
LINE
  5
308
330
301
100
AcDbEntity
  8
0
  6
Continuous
 62
     0
 48
10.0
370
     0
100
AcDbLine
 10
0.0
 20
2.5
 30
0.0
 11
0.0
 21
5.0
 31
0.0
  0
LINE
  5
309
330
301
100
AcDbEntity
  8
0
  6
Continuous
 62
     0
 48
10.0
370
     0
100
AcDbLine
 10
-2.5
 20
0.0
 30
0.0
 11
-5.0
 21
0.0
 31
0.0
  0
LINE
  5
30A
330
301
100
AcDbEntity
  8
0
  6
Continuous
 62
     0
 48
10.0
370
     0
100
AcDbLine
 10
0.0
 20
-2.5
 30
0.0
 11
0.0
 21
-5.0
 31
0.0
  0
LINE
  5
30B
330
301
100
AcDbEntity
  8
0
  6
Continuous
 62
     0
 48
10.0
370
     0
100
AcDbLine
 10
2.5
 20
0.0
 30
0.0
 11
5.0
 21
0.0
 31
0.0
  0
ENDBLK
  5
303
330
301
100
AcDbEntity
  8
0
100
AcDbBlockEnd
  0
BLOCK
  5
30E
330
30D
100
AcDbEntity
  8
0
100
AcDbBlockBegin
  2
SW_CENTERMARKSYMBOL_3
 70
     0
 10
0.0
 20
0.0
 30
0.0
  3
SW_CENTERMARKSYMBOL_3
  1

  0
LINE
  5
310
330
30D
100
AcDbEntity
  8
0
  6
Continuous
 62
     0
 48
10.0
370
     0
100
AcDbLine
 10
0.0
 20
0.0
 30
0.0
 11
0.0
 21
2.5
 31
0.0
  0
LINE
  5
311
330
30D
100
AcDbEntity
  8
0
  6
Continuous
 62
     0
 48
10.0
370
     0
100
AcDbLine
 10
0.0
 20
0.0
 30
0.0
 11
-2.5
 21
0.0
 31
0.0
  0
LINE
  5
312
330
30D
100
AcDbEntity
  8
0
  6
Continuous
 62
     0
 48
10.0
370
     0
100
AcDbLine
 10
0.0
 20
0.0
 30
0.0
 11
0.0
 21
-2.5
 31
0.0
  0
LINE
  5
313
330
30D
100
AcDbEntity
  8
0
  6
Continuous
 62
     0
 48
10.0
370
     0
100
AcDbLine
 10
0.0
 20
0.0
 30
0.0
 11
2.5
 21
0.0
 31
0.0
  0
LINE
  5
314
330
30D
100
AcDbEntity
  8
0
  6
Continuous
 62
     0
 48
10.0
370
     0
100
AcDbLine
 10
0.0
 20
2.5
 30
0.0
 11
0.0
 21
5.0
 31
0.0
  0
LINE
  5
315
330
30D
100
AcDbEntity
  8
0
  6
Continuous
 62
     0
 48
10.0
370
     0
100
AcDbLine
 10
-2.5
 20
0.0
 30
0.0
 11
-5.0
 21
0.0
 31
0.0
  0
LINE
  5
316
330
30D
100
AcDbEntity
  8
0
  6
Continuous
 62
     0
 48
10.0
370
     0
100
AcDbLine
 10
0.0
 20
-2.5
 30
0.0
 11
0.0
 21
-5.0
 31
0.0
  0
LINE
  5
317
330
30D
100
AcDbEntity
  8
0
  6
Continuous
 62
     0
 48
10.0
370
     0
100
AcDbLine
 10
2.5
 20
0.0
 30
0.0
 11
5.0
 21
0.0
 31
0.0
  0
ENDBLK
  5
30F
330
30D
100
AcDbEntity
  8
0
100
AcDbBlockEnd
  0
BLOCK
  5
31A
330
319
100
AcDbEntity
  8
0
100
AcDbBlockBegin
  2
SW_CENTERMARKSYMBOL_4
 70
     0
 10
0.0
 20
0.0
 30
0.0
  3
SW_CENTERMARKSYMBOL_4
  1

  0
LINE
  5
31C
330
319
100
AcDbEntity
  8
0
  6
Continuous
 62
     0
 48
10.0
370
     0
100
AcDbLine
 10
0.0
 20
0.0
 30
0.0
 11
0.0
 21
2.5
 31
0.0
  0
LINE
  5
31D
330
319
100
AcDbEntity
  8
0
  6
Continuous
 62
     0
 48
10.0
370
     0
100
AcDbLine
 10
0.0
 20
0.0
 30
0.0
 11
-2.5
 21
0.0
 31
0.0
  0
LINE
  5
31E
330
319
100
AcDbEntity
  8
0
  6
Continuous
 62
     0
 48
10.0
370
     0
100
AcDbLine
 10
0.0
 20
0.0
 30
0.0
 11
0.0
 21
-2.5
 31
0.0
  0
LINE
  5
31F
330
319
100
AcDbEntity
  8
0
  6
Continuous
 62
     0
 48
10.0
370
     0
100
AcDbLine
 10
0.0
 20
0.0
 30
0.0
 11
2.5
 21
0.0
 31
0.0
  0
LINE
  5
320
330
319
100
AcDbEntity
  8
0
  6
Continuous
 62
     0
 48
10.0
370
     0
100
AcDbLine
 10
0.0
 20
2.5
 30
0.0
 11
0.0
 21
5.0
 31
0.0
  0
LINE
  5
321
330
319
100
AcDbEntity
  8
0
  6
Continuous
 62
     0
 48
10.0
370
     0
100
AcDbLine
 10
-2.5
 20
0.0
 30
0.0
 11
-5.0
 21
0.0
 31
0.0
  0
LINE
  5
322
330
319
100
AcDbEntity
  8
0
  6
Continuous
 62
     0
 48
10.0
370
     0
100
AcDbLine
 10
0.0
 20
-2.5
 30
0.0
 11
0.0
 21
-5.0
 31
0.0
  0
LINE
  5
323
330
319
100
AcDbEntity
  8
0
  6
Continuous
 62
     0
 48
10.0
370
     0
100
AcDbLine
 10
2.5
 20
0.0
 30
0.0
 11
5.0
 21
0.0
 31
0.0
  0
ENDBLK
  5
31B
330
319
100
AcDbEntity
  8
0
100
AcDbBlockEnd
  0
ENDSEC
  0
SECTION
  2
ENTITIES
  0
IMAGE
  5
75
330
1F
100
AcDbEntity
  8
0
 92
      140
310
8C000000010000008400000006000000050000005EAE45DEC85D344064B34F0016DE4A400000000000000000EEEE6E3340E0634064B34F0016DE4A400000000000000000EEEE6E3340E0634086558BF95910534000000000000000005EAE45DEC85D344086558BF95910534000000000000000005EAE45DEC85D344064B34F
310
0016DE4A400000000000000000
100
AcDbRasterImage
 90
        0
 10
20.3663462563
 20
53.7350464238
 30
0.0
 11
0.3518819562666419
 21
0.0
 31
0.0
 12
0.0
 22
0.3518819562666424
 32
0.0
 13
394.0
 23
64.0
340
74
 70
     7
280
     0
281
    50
282
    50
283
     0
360
76
 71
     1
 91
        2
 14
-0.5
 24
-0.5
 14
393.5
 24
63.5
  0
LINE
  5
77
330
1F
100
AcDbEntity
  8
SLD-0
  6
Continuous
 62
   250
420
  1644836
 48
10.0
370
    40
100
AcDbLine
 10
20.1576871308
 20
10.4295603132
 30
0.0
 11
410.1576871308
 21
10.4295603132
 31
0.0
  0
LINE
  5
78
330
1F
100
AcDbEntity
  8
SLD-0
  6
Continuous
 62
   250
420
  1644836
 48
10.0
370
    40
100
AcDbLine
 10
0.1576871308
 20
0.4295603132
 30
0.0
 11
420.1576871308
 21
0.4295603132
 31
0.0
  0
LINE
  5
79
330
1F
100
AcDbEntity
  8
SLD-0
  6
Continuous
 62
   250
420
  1644836
 48
10.0
370
    40
100
AcDbLine
 10
0.1576871308
 20
0.4295603132
 30
0.0
 11
0.1576871308
 21
594.4295603132
 31
0.0
  0
LINE
  5
7A
330
1F
100
AcDbEntity
  8
SLD-0
  6
Continuous
 62
   250
420
  1644836
 48
10.0
370
    40
100
AcDbLine
 10
0.1576871308
 20
594.4295603132
 30
0.0
 11
420.1576871308
 21
594.4295603132
 31
0.0
  0
LINE
  5
7B
330
1F
100
AcDbEntity
  8
SLD-0
  6
Continuous
 62
   250
420
  1644836
 48
10.0
370
    40
100
AcDbLine
 10
420.1576871308
 20
0.4295603132
 30
0.0
 11
420.1576871308
 21
594.4295603132
 31
0.0
  0
LINE
  5
7C
330
1F
100
AcDbEntity
  8
SLD-0
  6
Continuous
 62
   250
420
  1644836
 48
10.0
370
    40
100
AcDbLine
 10
410.1576871308
 20
70.13238513
 30
0.0
 11
233.823390649
 21
70.13238513
 31
0.0
  0
LINE
  5
7D
330
1F
100
AcDbEntity
  8
SLD-0
  6
Continuous
 62
   250
420
  1644836
 48
10.0
370
    40
100
AcDbLine
 10
20.1576871308
 20
584.4295603132
 30
0.0
 11
410.1576871308
 21
584.4295603132
 31
0.0
  0
LINE
  5
7E
330
1F
100
AcDbEntity
  8
SLD-0
  6
Continuous
 62
   250
420
  1644836
 48
10.0
370
    40
100
AcDbLine
 10
410.1576871308
 20
10.4295603132
 30
0.0
 11
361.9766236968
 21
10.4295603132
 31
0.0
  0
LINE
  5
7F
330
1F
100
AcDbEntity
  8
SLD-0
  6
Continuous
 62
   250
420
  1644836
 48
10.0
370
    40
100
AcDbLine
 10
20.1576871308
 20
10.4295603132
 30
0.0
 11
20.1576871308
 21
584.4295603132
 31
0.0
  0
LINE
  5
80
330
1F
100
AcDbEntity
  8
SLD-0
  6
Continuous
 62
   250
420
  1644836
 48
10.0
370
    40
100
AcDbLine
 10
20.1576871308
 20
22.4714997202
 30
0.0
 11
410.1576871308
 21
22.4714997202
 31
0.0
  0
LINE
  5
81
330
1F
100
AcDbEntity
  8
SLD-0
  6
Continuous
 62
   250
420
  1644836
 48
10.0
370
    40
100
AcDbLine
 10
410.1576871308
 20
86.7418545154
 30
0.0
 11
20.2216418234
 21
86.7418545154
 31
0.0
  0
LINE
  5
82
330
1F
100
AcDbEntity
  8
SLD-0
  6
Continuous
 62
   250
420
  1644836
 48
10.0
370
    40
100
AcDbLine
 10
420.1576871308
 20
584.4295603132
 30
0.0
 11
420.1576871308
 21
594.4295603132
 31
0.0
  0
LINE
  5
83
330
1F
100
AcDbEntity
  8
SLD-0
  6
Continuous
 62
   250
420
  1644836
 48
10.0
370
    40
100
AcDbLine
 10
159.5108409238
 20
44.3624900698
 30
0.0
 11
159.5108409238
 21
86.7418545154
 31
0.0
  0
LINE
  5
84
330
1F
100
AcDbEntity
  8
SLD-0
  6
Continuous
 62
   250
420
  1644836
 48
10.0
370
    40
100
AcDbLine
 10
20.2216418234
 20
120.7418545154
 30
0.0
 11
20.2216418234
 21
10.2418545154
 31
0.0
  0
LINE
  5
85
330
1F
100
AcDbEntity
  8
SLD-0
  6
Continuous
 62
   250
420
  1644836
 48
10.0
370
    40
100
AcDbLine
 10
20.1576871308
 20
44.4295603132
 30
0.0
 11
410.1576871308
 21
44.2418545154
 31
0.0
  0
LINE
  5
86
330
1F
100
AcDbEntity
  8
SLD-0
  6
Continuous
 62
   250
420
  1644836
 48
10.0
370
    40
100
AcDbLine
 10
233.8161032378
 20
86.7418545154
 30
0.0
 11
233.8347128952
 21
44.3267182194
 31
0.0
  0
LINE
  5
87
330
1F
100
AcDbEntity
  8
SLD-0
  6
Continuous
 62
   250
420
  1644836
 48
10.0
370
    40
100
AcDbLine
 10
321.7576871308
 20
10.4295603132
 30
0.0
 11
321.7576871308
 21
22.4714997202
 31
0.0
  0
LINE
  5
88
330
1F
100
AcDbEntity
  8
SLD-0
  6
Continuous
 62
   250
420
  1644836
 48
10.0
370
    40
100
AcDbLine
 10
384.1576871308
 20
22.4714997202
 30
0.0
 11
384.1576871308
 21
44.4295603132
 31
0.0
  0
LINE
  5
89
330
1F
100
AcDbEntity
  8
SLD-0
  6
Continuous
 62
   250
420
  1644836
 48
10.0
370
    40
100
AcDbLine
 10
410.1576871308
 20
27.4295603132
 30
0.0
 11
384.1576871308
 21
27.4295603132
 31
0.0
  0
LINE
  5
8A
330
1F
100
AcDbEntity
  8
SLD-0
  6
Continuous
 62
   250
420
  1644836
 48
10.0
370
    40
100
AcDbLine
 10
410.1576871308
 20
10.4295603132
 30
0.0
 11
410.1576871308
 21
584.4295603132
 31
0.0
  0
INSERT
  5
8B
330
1F
100
AcDbEntity
  8
0
  6
Continuous
 62
     7
 48
10.0
100
AcDbBlockReference
  2
SW_NOTE_0
 10
24.6101203674
 20
33.6779209004
 30
0.0
 41
0.1
 42
0.1
 43
0.1
  0
INSERT
  5
8C
330
1F
100
AcDbEntity
  8
0
  6
Continuous
 62
     7
 48
10.0
100
AcDbBlockReference
  2
SW_NOTE_1
 10
174.393222364
 20
65.793871431
 30
0.0
 41
0.1
 42
0.1
 43
0.1
  0
MTEXT
  5
8D
330
1F
100
AcDbEntity
  8
SLD-0
 62
   250
420
  1644836
 48
10.0
100
AcDbMText
 10
263.973568211
 20
80.2030519812
 30
0.0
 40
6.35
 41
0.0
 46
0.0
 71
     1
 72
     1
  1
FL2 Internal Bracket
  7
SLDTEXTSTYLE0
 73
     1
 44
1.0
  0
MTEXT
  5
8F
330
1F
100
AcDbEntity
  8
SLD-0
 62
   250
420
  1644836
 48
10.0
100
AcDbMText
 10
391.9996568234
 20
37.737972039
 30
0.0
 40
5.8208333334
 41
0.0
 46
0.0
 71
     1
 72
     1
  1
A4
  7
SLDTEXTSTYLE1
 73
     1
 44
1.0
  0
MTEXT
  5
91
330
1F
100
AcDbEntity
  8
SLD-0
 62
   250
420
  1644836
 48
10.0
100
AcDbMText
 10
328.0562145392
 20
17.0826681713
 30
0.0
 40
3.0
 41
0.0
 46
0.0
 71
     1
 72
     1
  1
SHEET 1 OF 1
  7
SLDTEXTSTYLE2
 73
     1
 44
1.0
  0
MTEXT
  5
92
330
1F
100
AcDbEntity
  8
SLD-0
 62
   250
420
  1644836
 48
10.0
100
AcDbMText
 10
28.7594622712
 20
17.0826681713
 30
0.0
 40
3.0
 41
0.0
 46
0.0
 71
     1
 72
     1
  1
SCALE:
  7
SLDTEXTSTYLE1
 73
     1
 44
1.0
  0
MTEXT
  5
93
330
1F
100
AcDbEntity
  8
SLD-0
 62
   250
420
  1644836
 48
10.0
100
AcDbMText
 10
185.4072293958
 20
80.3029323193
 30
0.0
 40
3.0
 41
0.0
 46
0.0
 71
     1
 72
     1
  1
CONTACT:
  7
SLDTEXTSTYLE1
 73
     1
 44
1.0
  0
MTEXT
  5
94
330
1F
100
AcDbEntity
  8
SLD-0
 62
   250
420
  1644836
 48
10.0
100
AcDbMText
 10
47.0733942744
 20
18.0325537128
 30
0.0
 40
4.2333333334
 41
0.0
 46
0.0
 71
     1
 72
     1
  1
1:2
  7
SLDTEXTSTYLE0
 73
     1
 44
1.0
  0
MTEXT
  5
95
330
1F
100
AcDbEntity
  8
SLD-0
 62
   250
420
  1644836
 48
10.0
100
AcDbMText
 10
244.2883150776
 20
77.5943535709
 30
0.0
 40
3.0
 41
0.0
 46
0.0
 71
     1
 72
     1
  1
DWG NO.
  7
SLDTEXTSTYLE1
 73
     1
 44
1.0
  0
INSERT
  5
9B
330
1F
100
AcDbEntity
  8
SLD-0
 62
   250
420
  1644836
 48
10.0
100
AcDbBlockReference
  2
SW_NOTE_0_1
 10
243.2533295608
 20
51.2971817136
 30
0.0
  0
MTEXT
  5
9C
330
1F
100
AcDbEntity
  8
SLD-0
 62
   250
420
  1644836
 48
10.0
100
AcDbMText
 10
257.9750245986
 20
16.9829951985
 30
0.0
 40
3.0
 41
0.0
 46
0.0
 71
     1
 72
     1
  1
DATE: 30/04/12
  7
SLDTEXTSTYLE1
 73
     1
 44
1.0
  0
INSERT
  5
A9
330
1F
100
AcDbEntity
  8
SLD-0
 48
10.0
100
AcDbBlockReference
  2
SW_NOTE_1_1
 10
28.7594622712
 20
148.5333511912
 30
0.0
  0
ARC
  5
AA
330
1F
100
AcDbEntity
  8
0
  6
Continuous
 62
     7
 48
100.0
370
    15
100
AcDbCircle
 10
469.3373989406
 20
499.9766975262
 30
0.0
 40
301.8000935944588
100
AcDbArc
 50
180.0821941808
 51
188.5404561189
  0
LINE
  5
AB
330
1F
100
AcDbEntity
  8
0
  6
Continuous
 62
     7
 48
10.0
370
    15
100
AcDbLine
 10
167.5376166107
 20
499.543747611
 30
0.0
 11
169.0373986465
 21
499.7408910675
 31
0.0
  0
ARC
  5
AC
330
1F
100
AcDbEntity
  8
0
  6
Continuous
 62
     7
 48
100.0
370
    15
100
AcDbCircle
 10
469.3373989406
 20
499.9766975262
 30
0.0
 40
300.3000928760094
100
AcDbArc
 50
180.0449907162
 51
180.5723947538
  0
LINE
  5
AD
330
1F
100
AcDbEntity
  8
0
  6
Continuous
 62
     7
 48
10.0
370
    15
100
AcDbLine
 10
169.0522914488
 20
496.9766975262
 30
0.0
 11
172.3373989406
 21
496.9766975262
 31
0.0
  0
ARC
  5
AE
330
1F
100
AcDbEntity
  8
0
  6
Continuous
 62
     7
 48
100.0
370
    15
100
AcDbCircle
 10
172.3373989406
 20
495.4766975262
 30
0.0
 40
1.5
100
AcDbArc
 50
221.8103148958
 51
90.0
  0
LINE
  5
AF
330
1F
100
AcDbEntity
  8
0
  6
Continuous
 62
     7
 48
10.0
370
    15
100
AcDbLine
 10
171.2193649518
 20
494.4766975262
 30
0.0
 11
169.0876765738
 21
494.4766975262
 31
0.0
  0
ARC
  5
B0
330
1F
100
AcDbEntity
  8
0
  6
Continuous
 62
     7
 48
100.0
370
    15
100
AcDbCircle
 10
469.3373989406
 20
499.9766975262
 30
0.0
 40
300.3000935944588
100
AcDbArc
 50
181.0494316024
 51
188.5404561175
  0
ARC
  5
B1
330
1F
100
AcDbEntity
  8
0
  6
Continuous
 62
     7
 48
100.0
370
    15
100
AcDbCircle
 10
182.5530439406
 20
456.9094475262
 30
0.0
 40
10.30000019061725
100
AcDbArc
 50
188.5404564099
 51
262.5733826396
  0
ARC
  5
B2
330
1F
100
AcDbEntity
  8
0
  6
Continuous
 62
     7
 48
100.0
370
    15
100
AcDbCircle
 10
220.0373989406
 20
744.4766975262
 30
0.0
 40
300.3000005141503
100
AcDbArc
 50
262.5733758069
 51
277.4178578109
  0
ARC
  5
B3
330
1F
100
AcDbEntity
  8
0
  6
Continuous
 62
     7
 48
100.0
370
    15
100
AcDbCircle
 10
257.4777539406
 20
456.9037155262
 30
0.0
 40
10.30000059669576
100
AcDbArc
 50
277.4178573392
 51
333.6818543099
  0
ARC
  5
B4
330
1F
100
AcDbEntity
  8
0
  6
Continuous
 62
     7
 48
100.0
370
    15
100
AcDbCircle
 10
-2.4626010594
 20
585.4766975262
 30
0.0
 40
300.3000003516929
100
AcDbArc
 50
333.6818528876
 51
347.7978990469
  0
ARC
  5
B5
330
1F
100
AcDbEntity
  8
0
  6
Continuous
 62
     7
 48
100.0
370
    15
100
AcDbCircle
 10
293.4965849406
 20
521.4766975262
 30
0.0
 40
2.499999724032091
100
AcDbArc
 50
119.3272092101
 51
167.7979160703
  0
ARC
  5
B6
330
1F
100
AcDbEntity
  8
0
  6
Continuous
 62
     7
 48
100.0
370
    15
100
AcDbCircle
 10
291.5373989406
 20
524.9640443701
 30
0.0
 40
1.499999999999943
100
AcDbArc
 50
299.3272092101
 51
0.0
  0
LINE
  5
B7
330
1F
100
AcDbEntity
  8
0
  6
Continuous
 62
     7
 48
10.0
370
    15
100
AcDbLine
 10
293.0373989406
 20
524.9640443701
 30
0.0
 11
293.0373989406
 21
527.8708762243
 31
0.0
  0
ARC
  5
B8
330
1F
100
AcDbEntity
  8
0
  6
Continuous
 62
     7
 48
100.0
370
    15
100
AcDbCircle
 10
288.4397540216
 20
527.8708762243
 30
0.0
 40
4.59764491896334
100
AcDbArc
 50
0.0
 51
59.9028564265
  0
ARC
  5
B9
330
1F
100
AcDbEntity
  8
0
  6
Continuous
 62
     7
 48
100.0
370
    15
100
AcDbCircle
 10
288.0373989406
 20
527.1766975262
 30
0.0
 40
5.399999999999985
100
AcDbArc
 50
59.9028564265
 51
90.0
  0
LINE
  5
BA
330
1F
100
AcDbEntity
  8
0
  6
Continuous
 62
     7
 48
10.0
370
    15
100
AcDbLine
 10
288.0373989406
 20
532.5766975262
 30
0.0
 11
285.3373989406
 21
532.5766975262
 31
0.0
  0
ARC
  5
BB
330
1F
100
AcDbEntity
  8
0
  6
Continuous
 62
     7
 48
100.0
370
    15
100
AcDbCircle
 10
285.3373989406
 20
531.1766975262
 30
0.0
 40
1.399999999999977
100
AcDbArc
 50
90.0
 51
180.0
  0
LINE
  5
BC
330
1F
100
AcDbEntity
  8
0
  6
Continuous
 62
     7
 48
10.0
370
    15
100
AcDbLine
 10
283.9373989406
 20
531.1766975262
 30
0.0
 11
283.9373989406
 21
529.7766975262
 31
0.0
  0
ARC
  5
BD
330
1F
100
AcDbEntity
  8
0
  6
Continuous
 62
     7
 48
100.0
370
    15
100
AcDbCircle
 10
285.3373989406
 20
529.7766975262
 30
0.0
 40
1.399999999999977
100
AcDbArc
 50
180.0
 51
270.0
  0
LINE
  5
BE
330
1F
100
AcDbEntity
  8
0
  6
Continuous
 62
     7
 48
10.0
370
    15
100
AcDbLine
 10
285.3373989406
 20
528.3766975262
 30
0.0
 11
286.4208838016
 21
528.3766975262
 31
0.0
  0
ARC
  5
BF
330
1F
100
AcDbEntity
  8
0
  6
Continuous
 62
     7
 48
100.0
370
    15
100
AcDbCircle
 10
287.3373989406
 20
527.9766975262
 30
0.0
 40
1.0
100
AcDbArc
 50
270.0
 51
156.4218215218
  0
LINE
  5
C0
330
1F
100
AcDbEntity
  8
0
  6
Continuous
 62
     7
 48
10.0
370
    15
100
AcDbLine
 10
287.3373989406
 20
526.9766975262
 30
0.0
 11
285.3373989406
 21
526.9766975262
 31
0.0
  0
ARC
  5
C1
330
1F
100
AcDbEntity
  8
0
  6
Continuous
 62
     7
 48
100.0
370
    15
100
AcDbCircle
 10
285.3373989406
 20
529.7766975262
 30
0.0
 40
2.799999999999955
100
AcDbArc
 50
180.0
 51
270.0
  0
LINE
  5
C2
330
1F
100
AcDbEntity
  8
0
  6
Continuous
 62
     7
 48
10.0
370
    15
100
AcDbLine
 10
282.5373989406
 20
529.7766975262
 30
0.0
 11
282.5373989406
 21
531.1766975262
 31
0.0
  0
ARC
  5
C3
330
1F
100
AcDbEntity
  8
0
  6
Continuous
 62
     7
 48
100.0
370
    15
100
AcDbCircle
 10
285.3373989406
 20
531.1766975262
 30
0.0
 40
2.800000000000068
100
AcDbArc
 50
90.0
 51
180.0
  0
LINE
  5
C4
330
1F
100
AcDbEntity
  8
0
  6
Continuous
 62
     7
 48
10.0
370
    15
100
AcDbLine
 10
285.3373989406
 20
533.9766975262
 30
0.0
 11
286.5487239406
 21
533.9766975262
 31
0.0
  0
LINE
  5
C5
330
1F
100
AcDbEntity
  8
0
  6
Continuous
 62
     7
 48
10.0
370
    15
100
AcDbLine
 10
286.5487239406
 20
533.9766975262
 30
0.0
 11
286.8373989406
 21
534.4766975262
 31
0.0
  0
LINE
  5
C6
330
1F
100
AcDbEntity
  8
0
  6
Continuous
 62
     7
 48
10.0
370
    15
100
AcDbLine
 10
286.8373989406
 20
534.4766975262
 30
0.0
 11
287.1260739406
 21
533.9766975262
 31
0.0
  0
LINE
  5
C7
330
1F
100
AcDbEntity
  8
0
  6
Continuous
 62
     7
 48
10.0
370
    15
100
AcDbLine
 10
287.1260739406
 20
533.9766975262
 30
0.0
 11
288.0373989406
 21
533.9766975262
 31
0.0
  0
ARC
  5
C8
330
1F
100
AcDbEntity
  8
0
  6
Continuous
 62
     7
 48
100.0
370
    15
100
AcDbCircle
 10
288.0373989406
 20
527.1766975262
 30
0.0
 40
6.800000000000068
100
AcDbArc
 50
44.7532917458
 51
90.0
  0
ARC
  5
C9
330
1F
100
AcDbEntity
  8
0
  6
Continuous
 62
     7
 48
100.0
370
    15
100
AcDbCircle
 10
292.9373989406
 20
532.0346806468
 30
0.0
 40
0.0999999999999659
100
AcDbArc
 50
224.7532917458
 51
0.0
  0
LINE
  5
CA
330
1F
100
AcDbEntity
  8
0
  6
Continuous
 62
     7
 48
10.0
370
    15
100
AcDbLine
 10
293.0373989406
 20
532.0346806468
 30
0.0
 11
293.0373989406
 21
537.3766975262
 31
0.0
  0
LINE
  5
CB
330
1F
100
AcDbEntity
  8
0
  6
Continuous
 62
     7
 48
10.0
370
    15
100
AcDbLine
 10
295.0373989406
 20
537.113392531
 30
0.0
 11
295.0373989406
 21
522.4766975262
 31
0.0
  0
LINE
  5
CC
330
1F
100
AcDbEntity
  8
0
  6
Continuous
 62
     7
 48
10.0
370
    15
100
AcDbLine
 10
295.0373989406
 20
522.4766975262
 30
0.0
 11
293.4965849406
 21
522.4766973882
 31
0.0
  0
ARC
  5
CD
330
1F
100
AcDbEntity
  8
0
  6
Continuous
 62
     7
 48
100.0
370
    15
100
AcDbCircle
 10
293.4965849406
 20
521.4766975262
 30
0.0
 40
0.999999862016125
100
AcDbArc
 50
90.0
 51
167.797944071
  0
ARC
  5
CE
330
1F
100
AcDbEntity
  8
0
  6
Continuous
 62
     7
 48
100.0
370
    15
100
AcDbCircle
 10
-2.4626010594
 20
585.4766975262
 30
0.0
 40
301.8000003516928
100
AcDbArc
 50
333.6818528025
 51
347.7978990387
  0
ARC
  5
CF
330
1F
100
AcDbEntity
  8
0
  6
Continuous
 62
     7
 48
100.0
370
    15
100
AcDbCircle
 10
257.4777539406
 20
456.9037155262
 30
0.0
 40
11.80000059669569
100
AcDbArc
 50
277.4178600601
 51
333.681851953
  0
ARC
  5
D0
330
1F
100
AcDbEntity
  8
0
  6
Continuous
 62
     7
 48
100.0
370
    15
100
AcDbCircle
 10
220.0373989406
 20
744.4766975262
 30
0.0
 40
301.8000005141503
100
AcDbArc
 50
262.5733758069
 51
277.4178579149
  0
ARC
  5
D1
330
1F
100
AcDbEntity
  8
0
  6
Continuous
 62
     7
 48
100.0
370
    15
100
AcDbCircle
 10
182.5530439406
 20
456.9094475262
 30
0.0
 40
11.80000019061731
100
AcDbArc
 50
188.5404564099
 51
262.5733817711
  0
LINE
  5
D2
330
1F
100
AcDbEntity
  8
0
  6
Continuous
 62
     7
 48
10.0
370
    15
100
AcDbLine
 10
293.0373989406
 20
537.3766975262
 30
0.0
 11
295.0373989406
 21
537.113392531
 31
0.0
  0
LINE
  5
D3
330
1F
100
AcDbEntity
  8
0
  6
Continuous
 62
     7
 48
10.0
370
    15
100
AcDbLine
 10
157.2910786828
 20
495.0949383451
 30
0.0
 11
157.1568838382
 21
500.1632616205
 31
0.0
  0
LINE
  5
D4
330
1F
100
AcDbEntity
  8
0
  6
Continuous
 62
     7
 48
10.0
370
    15
100
AcDbLine
 10
157.1568838382
 20
500.1632616205
 30
0.0
 11
161.1554824941
 21
500.2691331871
 31
0.0
  0
LINE
  5
D5
330
1F
100
AcDbEntity
  8
0
  6
Continuous
 62
     7
 48
10.0
370
    15
100
AcDbLine
 10
161.1554824941
 20
500.2691331871
 30
0.0
 11
161.2896773387
 21
495.2008099117
 31
0.0
  0
LINE
  5
D6
330
1F
100
AcDbEntity
  8
0
  6
Continuous
 62
     7
 48
10.0
370
    15
100
AcDbLine
 10
161.2896773387
 20
495.2008099117
 30
0.0
 11
157.2910786828
 21
495.0949383451
 31
0.0
  0
LINE
  5
D7
330
1F
100
AcDbEntity
  8
0
  6
Continuous
 62
     7
 48
10.0
370
    15
100
AcDbLine
 10
158.2571567284
 20
458.6077256095
 30
0.0
 11
163.2554050483
 21
458.7400650678
 31
0.0
  0
LINE
  5
D8
330
1F
100
AcDbEntity
  8
0
  6
Continuous
 62
     7
 48
10.0
370
    15
100
AcDbLine
 10
161.7968394532
 20
476.0461132003
 30
0.0
 11
162.7964891172
 21
476.0725810919
 31
0.0
  0
LINE
  5
D9
330
1F
100
AcDbEntity
  8
0
  6
Continuous
 62
     7
 48
10.0
370
    15
100
AcDbLine
 10
163.2554050483
 20
458.7400650678
 30
0.0
 11
162.7964891172
 21
476.0725810919
 31
0.0
  0
LINE
  5
DA
330
1F
100
AcDbEntity
  8
0
  6
Continuous
 62
     7
 48
10.0
370
    15
100
AcDbLine
 10
157.2910786828
 20
495.0949383451
 30
0.0
 11
158.2571567284
 21
458.6077256095
 31
0.0
  0
LINE
  5
DB
330
1F
100
AcDbEntity
  8
0
  6
Continuous
 62
     7
 48
10.0
370
    15
100
AcDbLine
 10
161.7968394532
 20
476.0461132003
 30
0.0
 11
161.2896773387
 21
495.2008099117
 31
0.0
  0
ARC
  5
DC
330
1F
100
AcDbEntity
  8
0
  6
Continuous
 62
     7
 48
100.0
370
    15
100
AcDbCircle
 10
162.9115288717
 20
509.5093413541
 30
0.0
 40
1.000000000000002
100
AcDbArc
 50
181.5166756042
 51
199.1979858584
  0
LINE
  5
DD
330
1F
100
AcDbEntity
  8
0
  6
Continuous
 62
     7
 48
10.0
370
    15
100
AcDbLine
 10
161.9199379772
 20
509.1785067101
 30
0.0
 11
161.9671409413
 21
509.1805079056
 31
0.0
  0
LINE
  5
DE
330
1F
100
AcDbEntity
  8
0
  6
Continuous
 62
     7
 48
10.0
370
    15
100
AcDbLine
 10
161.9951574046
 20
506.3375900169
 30
0.0
 11
161.9199379772
 21
509.1785067101
 31
0.0
  0
LINE
  5
DF
330
1F
100
AcDbEntity
  8
0
  6
Continuous
 62
     7
 48
10.0
370
    15
100
AcDbLine
 10
160.9955077406
 20
506.3111221252
 30
0.0
 11
161.9951574046
 21
506.3375900169
 31
0.0
  0
LINE
  5
E0
330
1F
100
AcDbEntity
  8
0
  6
Continuous
 62
     7
 48
10.0
370
    15
100
AcDbLine
 10
161.8462687305
 20
511.9608755767
 30
0.0
 11
156.8480204106
 21
511.8285361184
 31
0.0
  0
LINE
  5
E1
330
1F
100
AcDbEntity
  8
0
  6
Continuous
 62
     7
 48
10.0
370
    15
100
AcDbLine
 10
161.9118792077
 20
509.4828734624
 30
0.0
 11
161.8462687305
 21
511.9608755767
 31
0.0
  0
LINE
  5
E2
330
1F
100
AcDbEntity
  8
0
  6
Continuous
 62
     7
 48
10.0
370
    15
100
AcDbLine
 10
156.8480204106
 20
511.8285361184
 30
0.0
 11
157.1568838382
 21
500.1632616205
 31
0.0
  0
LINE
  5
E3
330
1F
100
AcDbEntity
  8
0
  6
Continuous
 62
     7
 48
10.0
370
    15
100
AcDbLine
 10
161.1554824941
 20
500.2691331871
 30
0.0
 11
160.9955077406
 21
506.3111221252
 31
0.0
  0
LINE
  5
E4
330
1F
100
AcDbEntity
  8
0
  6
Continuous
 62
     7
 48
10.0
370
    15
100
AcDbLine
 10
162.7636795916
 20
477.3117440611
 30
0.0
 11
161.7640299276
 21
477.2852761695
 31
0.0
  0
LINE
  5
E5
330
1F
100
AcDbEntity
  8
0
  6
Continuous
 62
     7
 48
10.0
370
    15
100
AcDbLine
 10
162.7964891172
 20
476.0725810919
 30
0.0
 11
162.7636795916
 21
477.3117440611
 31
0.0
  0
LINE
  5
E6
330
1F
100
AcDbEntity
  8
0
  6
Continuous
 62
     7
 48
10.0
370
    15
100
AcDbLine
 10
162.6313401333
 20
482.3099923811
 30
0.0
 11
161.6316904693
 21
482.2835244894
 31
0.0
  0
LINE
  5
E7
330
1F
100
AcDbEntity
  8
0
  6
Continuous
 62
     7
 48
10.0
370
    15
100
AcDbLine
 10
162.7636795916
 20
477.3117440611
 30
0.0
 11
162.6313401333
 21
482.3099923811
 31
0.0
  0
LINE
  5
E8
330
1F
100
AcDbEntity
  8
0
  6
Continuous
 62
     7
 48
10.0
370
    15
100
AcDbLine
 10
158.3477248882
 20
455.1871119951
 30
0.0
 11
163.3459732081
 21
455.3194514534
 31
0.0
  0
LINE
  5
E9
330
1F
100
AcDbEntity
  8
0
  6
Continuous
 62
     7
 48
10.0
370
    15
100
AcDbLine
 10
163.3459732081
 20
455.3194514534
 30
0.0
 11
163.2554050483
 21
458.7400650678
 31
0.0
  0
LINE
  5
EA
330
1F
100
AcDbEntity
  8
0
  6
Continuous
 62
     7
 48
10.0
370
    15
100
AcDbLine
 10
158.2571567284
 20
458.6077256095
 30
0.0
 11
158.3477248882
 21
455.1871119951
 31
0.0
  0
LINE
  5
EB
330
1F
100
AcDbEntity
  8
0
  6
Continuous
 62
     7
 48
10.0
370
    15
100
AcDbLine
 10
161.0189871832
 20
505.4243413692
 30
0.0
 11
162.0186368472
 21
505.4508092609
 31
0.0
  0
LINE
  5
EC
330
1F
100
AcDbEntity
  8
0
  6
Continuous
 62
     7
 48
10.0
370
    15
100
AcDbLine
 10
162.0186368472
 20
505.4508092609
 30
0.0
 11
161.9951574046
 21
506.3375900169
 31
0.0
  0
LINE
  5
ED
330
1F
100
AcDbEntity
  8
0
  6
Continuous
 62
     7
 48
10.0
370
    15
100
AcDbLine
 10
162.6313401333
 20
482.3099923811
 30
0.0
 11
162.0186368472
 21
505.4508092609
 31
0.0
  0
ARC
  5
EE
330
1F
100
AcDbEntity
  8
0
  6
Continuous
 62
     7
 48
100.0
370
    15
100
AcDbCircle
 10
288.3659672816
 20
528.0039311025
 30
0.0
 40
3.000000000000064
100
AcDbArc
 50
1.5166756042
 51
91.5166756042
  0
LINE
  5
EF
330
1F
100
AcDbEntity
  8
0
  6
Continuous
 62
     7
 48
10.0
370
    15
100
AcDbLine
 10
291.3649162736
 20
528.0833347775
 30
0.0
 11
291.3917529165
 21
527.0697579719
 31
0.0
  0
ARC
  5
F0
330
1F
100
AcDbEntity
  8
0
  6
Continuous
 62
     7
 48
100.0
370
    15
100
AcDbCircle
 10
292.3914025805
 20
527.0962258636
 30
0.0
 40
1.000000000000001
100
AcDbArc
 50
181.5166756042
 51
229.7063607082
  0
ARC
  5
F1
330
1F
100
AcDbEntity
  8
0
  6
Continuous
 62
     7
 48
100.0
370
    15
100
AcDbCircle
 10
290.4512872575
 20
524.8080054779
 30
0.0
 40
2.00000000000035
100
AcDbArc
 50
243.3122235317
 51
49.7063607085
  0
LINE
  5
F2
330
1F
100
AcDbEntity
  8
0
  6
Continuous
 62
     7
 48
10.0
370
    15
100
AcDbLine
 10
289.553030466
 20
523.0210710257
 30
0.0
 11
244.0724535112
 21
493.1320244821
 31
0.0
  0
ARC
  5
F3
330
1F
100
AcDbEntity
  8
0
  6
Continuous
 62
     7
 48
100.0
370
    15
100
AcDbCircle
 10
242.0757944849
 20
493.0164704566
 30
0.0
 40
2.000000000000033
100
AcDbArc
 50
211.5166756042
 51
3.3122235317
  0
LINE
  5
F4
330
1F
100
AcDbEntity
  8
0
  6
Continuous
 62
     7
 48
10.0
370
    15
100
AcDbLine
 10
240.3708183688
 20
491.9709770595
 30
0.0
 11
197.1500670761
 21
490.8266139853
 31
0.0
  0
ARC
  5
F5
330
1F
100
AcDbEntity
  8
0
  6
Continuous
 62
     7
 48
100.0
370
    15
100
AcDbCircle
 10
195.3921551767
 20
491.7804199161
 30
0.0
 40
2.000000000000007
100
AcDbArc
 50
184.4711679362
 51
331.5166756042
  0
LINE
  5
F6
330
1F
100
AcDbEntity
  8
0
  6
Continuous
 62
     7
 48
10.0
370
    15
100
AcDbLine
 10
193.3982417981
 20
491.6245050709
 30
0.0
 11
175.754312589
 21
500.0511288517
 31
0.0
  0
ARC
  5
F7
330
1F
100
AcDbEntity
  8
0
  6
Continuous
 62
     7
 48
100.0
370
    15
100
AcDbCircle
 10
174.622329683
 20
501.6999510678
 30
0.0
 40
2.000000000000036
100
AcDbArc
 50
301.8114306249
 51
304.4711679362
  0
LINE
  5
F8
330
1F
100
AcDbEntity
  8
0
  6
Continuous
 62
     7
 48
10.0
370
    15
100
AcDbLine
 10
175.6765803637
 20
500.0003759732
 30
0.0
 11
175.8585921191
 21
493.1260849441
 31
0.0
  0
ARC
  5
F9
330
1F
100
AcDbEntity
  8
0
  6
Continuous
 62
     7
 48
100.0
370
    15
100
AcDbCircle
 10
172.8596431272
 20
493.0466812691
 30
0.0
 40
3.000000000000008
100
AcDbArc
 50
271.5166756042
 51
1.5166756042
  0
LINE
  5
FA
330
1F
100
AcDbEntity
  8
0
  6
Continuous
 62
     7
 48
10.0
370
    15
100
AcDbLine
 10
172.9390468021
 20
490.0477322771
 30
0.0
 11
169.8021547684
 21
489.9646762611
 31
0.0
  0
ARC
  5
FB
330
1F
100
AcDbEntity
  8
0
  6
Continuous
 62
     7
 48
100.0
370
    15
100
AcDbCircle
 10
170.4104543286
 20
490.7583837923
 30
0.0
 40
1.000000000000059
100
AcDbArc
 50
91.5166756042
 51
232.5333486002
  0
LINE
  5
FC
330
1F
100
AcDbEntity
  8
0
  6
Continuous
 62
     7
 48
10.0
370
    15
100
AcDbLine
 10
170.383986437
 20
491.7580334563
 30
0.0
 11
172.8831105969
 21
491.8242031854
 31
0.0
  0
ARC
  5
FD
330
1F
100
AcDbEntity
  8
0
  6
Continuous
 62
     7
 48
100.0
370
    15
100
AcDbCircle
 10
172.8566427053
 20
492.8238528494
 30
0.0
 40
1.000000000000058
100
AcDbArc
 50
271.5166756042
 51
1.5166756042
  0
LINE
  5
FE
330
1F
100
AcDbEntity
  8
0
  6
Continuous
 62
     7
 48
10.0
370
    15
100
AcDbLine
 10
173.8562923693
 20
492.8503207411
 30
0.0
 11
173.7960177552
 21
495.126795892
 31
0.0
  0
LINE
  5
FF
330
1F
100
AcDbEntity
  8
0
  6
Continuous
 62
     7
 48
10.0
370
    15
100
AcDbLine
 10
173.7754582584
 20
495.9032949927
 30
0.0
 11
173.6685237521
 21
499.9420391684
 31
0.0
  0
ARC
  5
100
330
1F
100
AcDbEntity
  8
0
  6
Continuous
 62
     7
 48
100.0
370
    15
100
AcDbCircle
 10
174.622329683
 20
501.6999510678
 30
0.0
 40
2.000000000000081
100
AcDbArc
 50
184.4711679362
 51
241.5166756042
  0
LINE
  5
101
330
1F
100
AcDbEntity
  8
0
  6
Continuous
 62
     7
 48
10.0
370
    15
100
AcDbLine
 10
172.6284163045
 20
501.5440362226
 30
0.0
 11
163.4613646888
 21
505.9221593849
 31
0.0
  0
ARC
  5
102
330
1F
100
AcDbEntity
  8
0
  6
Continuous
 62
     7
 48
100.0
370
    15
100
AcDbCircle
 10
163.0303994526
 20
505.0197908542
 30
0.0
 40
1.000000000000032
100
AcDbArc
 50
64.4711679362
 51
181.5166756042
  0
ARC
  5
103
330
1F
100
AcDbEntity
  8
0
  6
Continuous
 62
     7
 48
100.0
370
    15
100
AcDbCircle
 10
162.9115288717
 20
509.5093413541
 30
0.0
 40
0.9999999999999805
100
AcDbArc
 50
199.1979858584
 51
244.4711679362
  0
LINE
  5
104
330
1F
100
AcDbEntity
  8
0
  6
Continuous
 62
     7
 48
10.0
370
    15
100
AcDbLine
 10
162.4805636355
 20
508.6069728234
 30
0.0
 11
173.4903467769
 21
503.348773284
 31
0.0
  0
ARC
  5
105
330
1F
100
AcDbEntity
  8
0
  6
Continuous
 62
     7
 48
100.0
370
    15
100
AcDbCircle
 10
174.622329683
 20
501.6999510678
 30
0.0
 40
2.00000000000005
100
AcDbArc
 50
4.4711679362
 51
124.4711679362
  0
LINE
  5
106
330
1F
100
AcDbEntity
  8
0
  6
Continuous
 62
     7
 48
10.0
370
    15
100
AcDbLine
 10
176.6162430615
 20
501.8558659131
 30
0.0
 11
194.2601722706
 21
493.4292421323
 31
0.0
  0
ARC
  5
107
330
1F
100
AcDbEntity
  8
0
  6
Continuous
 62
     7
 48
100.0
370
    15
100
AcDbCircle
 10
195.3921551767
 20
491.7804199161
 30
0.0
 40
1.999999999999988
100
AcDbArc
 50
31.5166756042
 51
124.4711679362
  0
LINE
  5
108
330
1F
100
AcDbEntity
  8
0
  6
Continuous
 62
     7
 48
10.0
370
    15
100
AcDbLine
 10
197.0971312928
 20
492.8259133132
 30
0.0
 11
240.3178825854
 21
493.9702763875
 31
0.0
  0
ARC
  5
109
330
1F
100
AcDbEntity
  8
0
  6
Continuous
 62
     7
 48
100.0
370
    15
100
AcDbCircle
 10
242.0757944849
 20
493.0164704566
 30
0.0
 40
2.000000000000074
100
AcDbArc
 50
63.3122235317
 51
151.5166756042
  0
LINE
  5
10A
330
1F
100
AcDbEntity
  8
0
  6
Continuous
 62
     7
 48
10.0
370
    15
100
AcDbLine
 10
242.9740512764
 20
494.8034049088
 30
0.0
 11
288.4546282312
 21
524.6924514524
 31
0.0
  0
ARC
  5
10B
330
1F
100
AcDbEntity
  8
0
  6
Continuous
 62
     7
 48
100.0
370
    15
100
AcDbCircle
 10
290.4512872575
 20
524.8080054779
 30
0.0
 40
1.999999999999917
100
AcDbArc
 50
121.5166756042
 51
183.3122235317
  0
LINE
  5
10C
330
1F
100
AcDbEntity
  8
0
  6
Continuous
 62
     7
 48
10.0
370
    15
100
AcDbLine
 10
289.4057938604
 20
526.512981594
 30
0.0
 11
289.3656169456
 21
528.0303989942
 31
0.0
  0
ARC
  5
10D
330
1F
100
AcDbEntity
  8
0
  6
Continuous
 62
     7
 48
100.0
370
    15
100
AcDbCircle
 10
288.3659672816
 20
528.0039311025
 30
0.0
 40
1.000000000004013
100
AcDbArc
 50
1.5166756042
 51
91.5168346462
  0
LINE
  5
10E
330
1F
100
AcDbEntity
  8
0
  6
Continuous
 62
     7
 48
10.0
370
    15
100
AcDbLine
 10
288.3394966151
 20
529.003580693
 30
0.0
 11
285.84037523
 21
528.9374110374
 31
0.0
  0
ARC
  5
10F
330
1F
100
AcDbEntity
  8
0
  6
Continuous
 62
     7
 48
100.0
370
    15
100
AcDbCircle
 10
285.8139073383
 20
529.9370607014
 30
0.0
 40
1.000000000000059
100
AcDbArc
 50
91.5166756042
 51
271.5166756042
  0
LINE
  5
110
330
1F
100
AcDbEntity
  8
0
  6
Continuous
 62
     7
 48
10.0
370
    15
100
AcDbLine
 10
285.7874394467
 20
530.9367103653
 30
0.0
 11
288.2865636066
 21
531.0028800945
 31
0.0
  0
LINE
  5
111
330
1F
100
AcDbEntity
  8
0
  6
Continuous
 62
     7
 48
10.0
370
    15
100
AcDbLine
 10
161.8373033836
 20
512.2994823007
 30
0.0
 11
156.8390550636
 21
512.1671428424
 31
0.0
  0
LINE
  5
112
330
1F
100
AcDbEntity
  8
0
  6
Continuous
 62
     7
 48
10.0
370
    15
100
AcDbLine
 10
161.8462687305
 20
511.9608755767
 30
0.0
 11
161.8373033836
 21
512.2994823007
 31
0.0
  0
LINE
  5
113
330
1F
100
AcDbEntity
  8
0
  6
Continuous
 62
     7
 48
10.0
370
    15
100
AcDbLine
 10
156.8480204106
 20
511.8285361184
 30
0.0
 11
156.8390550636
 21
512.1671428424
 31
0.0
  0
ARC
  5
114
330
1F
100
AcDbEntity
  8
0
  6
Continuous
 62
     7
 48
100.0
370
    15
100
AcDbCircle
 10
463.9597873076
 20
506.5540146288
 30
0.0
 40
300.0000000000001
100
AcDbArc
 50
186.88813636
 51
189.3691282405
  0
ARC
  5
115
330
1F
100
AcDbEntity
  8
0
  6
Continuous
 62
     7
 48
100.0
370
    15
100
AcDbCircle
 10
165.9884610616
 20
457.3901179647
 30
0.0
 40
2.000000000000004
100
AcDbArc
 50
271.5166756042
 51
9.3691282405
  0
LINE
  5
116
330
1F
100
AcDbEntity
  8
0
  6
Continuous
 62
     7
 48
10.0
370
    15
100
AcDbLine
 10
162.7636795916
 20
477.3117440611
 30
0.0
 11
166.1251284683
 21
470.5746317259
 31
0.0
  0
LINE
  5
117
330
1F
100
AcDbEntity
  8
0
  6
Continuous
 62
     7
 48
10.0
370
    15
100
AcDbLine
 10
166.041396845
 20
455.3908186367
 30
0.0
 11
163.3459732081
 21
455.3194514534
 31
0.0
  0
ARC
  5
118
330
1F
100
AcDbEntity
  8
0
  6
Continuous
 62
     7
 48
100.0
370
    15
100
AcDbCircle
 10
171.6964598133
 20
507.5587725436
 30
0.0
 40
5.000000000000031
100
AcDbArc
 50
52.5333486002
 51
91.5166756042
  0
LINE
  5
119
330
1F
100
AcDbEntity
  8
0
  6
Continuous
 62
     7
 48
10.0
370
    15
100
AcDbLine
 10
174.7379576146
 20
511.5273101993
 30
0.0
 11
193.8816005149
 21
496.8555714276
 31
0.0
  0
ARC
  5
11A
330
1F
100
AcDbEntity
  8
0
  6
Continuous
 62
     7
 48
100.0
370
    15
100
AcDbCircle
 10
196.9230983162
 20
500.8241090833
 30
0.0
 40
4.999999999999987
100
AcDbArc
 50
232.5333486002
 51
271.5166756042
  0
LINE
  5
11B
330
1F
100
AcDbEntity
  8
0
  6
Continuous
 62
     7
 48
10.0
370
    15
100
AcDbLine
 10
197.0554377745
 20
495.8258607633
 30
0.0
 11
239.5793287131
 21
496.9517729492
 31
0.0
  0
ARC
  5
11C
330
1F
100
AcDbEntity
  8
0
  6
Continuous
 62
     7
 48
100.0
370
    15
100
AcDbCircle
 10
239.4469892548
 20
501.9500212692
 30
0.0
 40
5.000000000000032
100
AcDbArc
 50
271.5166756042
 51
301.3346113564
  0
LINE
  5
11D
330
1F
100
AcDbEntity
  8
0
  6
Continuous
 62
     7
 48
10.0
370
    15
100
AcDbLine
 10
242.0471651567
 20
497.679297059
 30
0.0
 11
289.4057935523
 21
526.512993228
 31
0.0
  0
LINE
  5
11E
330
1F
100
AcDbEntity
  8
0
  6
Continuous
 62
     7
 48
10.0
370
    15
100
AcDbLine
 10
161.8373033836
 20
512.2994823007
 30
0.0
 11
171.564120355
 21
512.5570208635
 31
0.0
  0
LINE
  5
11F
330
1F
100
AcDbEntity
  8
0
  6
Continuous
 62
     7
 48
10.0
370
    15
100
AcDbLine
 10
291.6346465287
 20
523.1956591022
 30
0.0
 11
245.8307943062
 21
489.5785567211
 31
0.0
  0
ARC
  5
120
330
1F
100
AcDbEntity
  8
0
  6
Continuous
 62
     7
 48
100.0
370
    15
100
AcDbCircle
 10
242.8723961282
 20
493.6094226603
 30
0.0
 40
4.999999999999986
100
AcDbArc
 50
278.1696188688
 51
306.27629105
  0
LINE
  5
121
330
1F
100
AcDbEntity
  8
0
  6
Continuous
 62
     7
 48
10.0
370
    15
100
AcDbLine
 10
243.5829165485
 20
488.660164056
 30
0.0
 11
184.9581301949
 21
480.2439322174
 31
0.0
  0
ARC
  5
122
330
1F
100
AcDbEntity
  8
0
  6
Continuous
 62
     7
 48
100.0
370
    15
100
AcDbCircle
 10
184.2476097745
 20
485.1931908217
 30
0.0
 40
4.999999999999987
100
AcDbArc
 50
232.5333486002
 51
278.1696188688
  0
LINE
  5
123
330
1F
100
AcDbEntity
  8
0
  6
Continuous
 62
     7
 48
10.0
370
    15
100
AcDbLine
 10
181.2061119732
 20
481.224653166
 30
0.0
 11
169.8021547684
 21
489.9646762611
 31
0.0
  0
LINE
  5
124
330
1F
100
AcDbEntity
  8
0
  6
Continuous
 62
     7
 48
10.0
370
    15
100
AcDbLine
 10
173.7170589485
 20
498.108942927
 30
0.0
 11
169.9853113081
 21
499.8912008944
 31
0.0
  0
LINE
  5
125
330
1F
100
AcDbEntity
  8
0
  6
Continuous
 62
     7
 48
10.0
370
    15
100
AcDbLine
 10
169.9853113081
 20
499.8912008944
 30
0.0
 11
162.1713174549
 21
499.6843084698
 31
0.0
  0
ARC
  5
126
330
1F
100
AcDbEntity
  8
0
  6
Continuous
 62
     7
 48
100.0
370
    15
100
AcDbCircle
 10
288.3928039245
 20
526.9903542969
 30
0.0
 40
1.000000000006993
100
AcDbArc
 50
322.1829520187
 51
1.5168895647
  0
DIMENSION
  5
127
330
1F
100
AcDbEntity
  8
SLD-0
 48
10.0
100
AcDbDimension
  2
*D5
 10
136.4319788151
 20
512.1671428424
 30
0.0
 11
136.4319788151
 21
490.8476629248
 31
0.0
 70
   160
 71
     2
 42
-1.0
 73
     0
 74
     0
 75
     0
  3
SLDDIMSTYLE0
100
AcDbAlignedDimension
 13
220.0373989406
 23
442.6766970121
 33
0.0
 14
156.8390550636
 24
512.1671428424
 34
0.0
 50
90.0
100
AcDbRotatedDimension
  0
DIMENSION
  5
132
330
1F
100
AcDbEntity
  8
SLD-0
 48
10.0
100
AcDbDimension
  2
*D6
 10
295.0373989406
 20
422.6766975999
 30
0.0
 11
228.1120377709
 21
422.6766975999
 31
0.0
 70
   160
 71
     2
 42
-1.0
 73
     0
 74
     0
 75
     0
  3
SLDDIMSTYLE0
100
AcDbAlignedDimension
 13
156.8480204106
 23
511.8285361184
 33
0.0
 14
295.0373989406
 24
522.4766975262
 34
0.0
100
AcDbRotatedDimension
  0
DIMENSION
  5
13C
330
1F
100
AcDbEntity
  8
SLD-0
 48
10.0
100
AcDbDimension
  2
*D7
 10
315.0375020182
 20
537.3766975262
 30
0.0
 11
315.0375020182
 21
498.1740705069
 31
0.0
 70
   160
 71
     2
 42
-1.0
 73
     0
 74
     0
 75
     0
  3
SLDDIMSTYLE0
100
AcDbAlignedDimension
 13
220.0373989406
 23
442.6766970121
 33
0.0
 14
293.0373989406
 24
537.3766975262
 34
0.0
 50
90.0
100
AcDbRotatedDimension
  0
LINE
  5
146
330
1F
100
AcDbEntity
  8
0
  6
Continuous
 62
     7
 48
10.0
370
    15
100
AcDbLine
 10
233.8322710851
 20
292.9571884999
 30
0.0
 11
233.8322710851
 21
298.0272880137
 31
0.0
  0
LINE
  5
147
330
1F
100
AcDbEntity
  8
0
  6
Continuous
 62
     7
 48
10.0
370
    15
100
AcDbLine
 10
233.8322710851
 20
298.0272880137
 30
0.0
 11
237.8322710851
 21
298.0272880137
 31
0.0
  0
LINE
  5
148
330
1F
100
AcDbEntity
  8
0
  6
Continuous
 62
     7
 48
10.0
370
    15
100
AcDbLine
 10
237.8322710851
 20
292.9571884999
 30
0.0
 11
233.8322710851
 21
292.9571884999
 31
0.0
  0
LINE
  5
149
330
1F
100
AcDbEntity
  8
0
  6
Continuous
 62
     7
 48
10.0
370
    15
100
AcDbLine
 10
237.8322710851
 20
298.0272880137
 30
0.0
 11
237.8322710851
 21
292.9571884999
 31
0.0
  0
LINE
  5
14A
330
1F
100
AcDbEntity
  8
0
  6
Continuous
 62
     7
 48
10.0
370
    15
100
AcDbLine
 10
233.8322710851
 20
256.4571884999
 30
0.0
 11
238.8322710851
 21
256.4571884999
 31
0.0
  0
LINE
  5
14B
330
1F
100
AcDbEntity
  8
0
  6
Continuous
 62
     7
 48
10.0
370
    15
100
AcDbLine
 10
237.8322710851
 20
273.7957788566
 30
0.0
 11
238.8322710851
 21
273.7957788566
 31
0.0
  0
LINE
  5
14C
330
1F
100
AcDbEntity
  8
0
  6
Continuous
 62
     7
 48
10.0
370
    15
100
AcDbLine
 10
238.8322710851
 20
256.4571884999
 30
0.0
 11
238.8322710851
 21
273.7957788566
 31
0.0
  0
LINE
  5
14D
330
1F
100
AcDbEntity
  8
0
  6
Continuous
 62
     7
 48
10.0
370
    15
100
AcDbLine
 10
233.8322710851
 20
292.9571884999
 30
0.0
 11
233.8322710851
 21
256.4571884999
 31
0.0
  0
LINE
  5
14E
330
1F
100
AcDbEntity
  8
0
  6
Continuous
 62
     7
 48
10.0
370
    15
100
AcDbLine
 10
237.8322710851
 20
273.7957788566
 30
0.0
 11
237.8322710851
 21
292.9571884999
 31
0.0
  0
ARC
  5
14F
330
1F
100
AcDbEntity
  8
0
  6
Continuous
 62
     7
 48
100.0
370
    15
100
AcDbCircle
 10
239.8322710851
 20
307.2177801578
 30
0.0
 40
1.000000000000027
100
AcDbArc
 50
180.0
 51
197.6813102543
  0
LINE
  5
150
330
1F
100
AcDbEntity
  8
0
  6
Continuous
 62
     7
 48
10.0
370
    15
100
AcDbLine
 10
238.8322710851
 20
306.9133067374
 30
0.0
 11
238.8795104797
 21
306.9140578689
 31
0.0
  0
LINE
  5
151
330
1F
100
AcDbEntity
  8
0
  6
Continuous
 62
     7
 48
10.0
370
    15
100
AcDbLine
 10
238.8322710851
 20
304.0713944199
 30
0.0
 11
238.8322710851
 21
306.9133067374
 31
0.0
  0
LINE
  5
152
330
1F
100
AcDbEntity
  8
0
  6
Continuous
 62
     7
 48
10.0
370
    15
100
AcDbLine
 10
237.8322710851
 20
304.0713944199
 30
0.0
 11
238.8322710851
 21
304.0713944199
 31
0.0
  0
LINE
  5
153
330
1F
100
AcDbEntity
  8
0
  6
Continuous
 62
     7
 48
10.0
370
    15
100
AcDbLine
 10
238.8322710851
 20
309.6966507096
 30
0.0
 11
233.8322710851
 21
309.6966507096
 31
0.0
  0
LINE
  5
154
330
1F
100
AcDbEntity
  8
0
  6
Continuous
 62
     7
 48
10.0
370
    15
100
AcDbLine
 10
238.8322710851
 20
307.2177801578
 30
0.0
 11
238.8322710851
 21
309.6966507096
 31
0.0
  0
LINE
  5
155
330
1F
100
AcDbEntity
  8
0
  6
Continuous
 62
     7
 48
10.0
370
    15
100
AcDbLine
 10
233.8322710851
 20
309.6966507096
 30
0.0
 11
233.8322710851
 21
298.0272880137
 31
0.0
  0
LINE
  5
156
330
1F
100
AcDbEntity
  8
0
  6
Continuous
 62
     7
 48
10.0
370
    15
100
AcDbLine
 10
237.8322710851
 20
298.0272880137
 30
0.0
 11
237.8322710851
 21
304.0713944199
 31
0.0
  0
LINE
  5
157
330
1F
100
AcDbEntity
  8
0
  6
Continuous
 62
     7
 48
10.0
370
    15
100
AcDbLine
 10
238.8322710851
 20
275.0353761013
 30
0.0
 11
237.8322710851
 21
275.0353761013
 31
0.0
  0
LINE
  5
158
330
1F
100
AcDbEntity
  8
0
  6
Continuous
 62
     7
 48
10.0
370
    15
100
AcDbLine
 10
238.8322710851
 20
273.7957788566
 30
0.0
 11
238.8322710851
 21
275.0353761013
 31
0.0
  0
LINE
  5
159
330
1F
100
AcDbEntity
  8
0
  6
Continuous
 62
     7
 48
10.0
370
    15
100
AcDbLine
 10
238.8322710851
 20
280.0353761013
 30
0.0
 11
237.8322710851
 21
280.0353761013
 31
0.0
  0
LINE
  5
15A
330
1F
100
AcDbEntity
  8
0
  6
Continuous
 62
     7
 48
10.0
370
    15
100
AcDbLine
 10
238.8322710851
 20
275.0353761013
 30
0.0
 11
238.8322710851
 21
280.0353761013
 31
0.0
  0
LINE
  5
15B
330
1F
100
AcDbEntity
  8
0
  6
Continuous
 62
     7
 48
10.0
370
    15
100
AcDbLine
 10
233.8322710851
 20
253.0353761013
 30
0.0
 11
238.8322710851
 21
253.0353761013
 31
0.0
  0
LINE
  5
15C
330
1F
100
AcDbEntity
  8
0
  6
Continuous
 62
     7
 48
10.0
370
    15
100
AcDbLine
 10
238.8322710851
 20
253.0353761013
 30
0.0
 11
238.8322710851
 21
256.4571884999
 31
0.0
  0
LINE
  5
15D
330
1F
100
AcDbEntity
  8
0
  6
Continuous
 62
     7
 48
10.0
370
    15
100
AcDbLine
 10
233.8322710851
 20
256.4571884999
 30
0.0
 11
233.8322710851
 21
253.0353761013
 31
0.0
  0
LINE
  5
15E
330
1F
100
AcDbEntity
  8
0
  6
Continuous
 62
     7
 48
10.0
370
    15
100
AcDbLine
 10
237.8322710851
 20
303.1843028839
 30
0.0
 11
238.8322710851
 21
303.1843028839
 31
0.0
  0
LINE
  5
15F
330
1F
100
AcDbEntity
  8
0
  6
Continuous
 62
     7
 48
10.0
370
    15
100
AcDbLine
 10
238.8322710851
 20
303.1843028839
 30
0.0
 11
238.8322710851
 21
304.0713944199
 31
0.0
  0
LINE
  5
160
330
1F
100
AcDbEntity
  8
0
  6
Continuous
 62
     7
 48
10.0
370
    15
100
AcDbLine
 10
238.8322710851
 20
280.0353761013
 30
0.0
 11
238.8322710851
 21
303.1843028839
 31
0.0
  0
ARC
  5
161
330
1F
100
AcDbEntity
  8
0
  6
Continuous
 62
     7
 48
100.0
370
    15
100
AcDbCircle
 10
365.7322710851
 20
322.3853761013
 30
0.0
 40
3.000000000000057
100
AcDbArc
 50
0.0
 51
90.0
  0
LINE
  5
162
330
1F
100
AcDbEntity
  8
0
  6
Continuous
 62
     7
 48
10.0
370
    15
100
AcDbLine
 10
368.7322710851
 20
322.3853761013
 30
0.0
 11
368.7322710851
 21
321.3714440788
 31
0.0
  0
ARC
  5
163
330
1F
100
AcDbEntity
  8
0
  6
Continuous
 62
     7
 48
100.0
370
    15
100
AcDbCircle
 10
369.7322710851
 20
321.3714440788
 30
0.0
 40
1.0
100
AcDbArc
 50
180.0
 51
228.189685104
  0
ARC
  5
164
330
1F
100
AcDbEntity
  8
0
  6
Continuous
 62
     7
 48
100.0
370
    15
100
AcDbCircle
 10
367.7322710851
 20
319.1353761013
 30
0.0
 40
2.000000000000363
100
AcDbArc
 50
241.7955479275
 51
48.1896851043
  0
LINE
  5
165
330
1F
100
AcDbEntity
  8
0
  6
Continuous
 62
     7
 48
10.0
370
    15
100
AcDbLine
 10
366.7870325978
 20
317.3728426401
 30
0.0
 11
320.5312890813
 21
288.6980422893
 31
0.0
  0
ARC
  5
166
330
1F
100
AcDbEntity
  8
0
  6
Continuous
 62
     7
 48
100.0
370
    15
100
AcDbCircle
 10
318.5322710851
 20
288.6353761013
 30
0.0
 40
2.000000000000016
100
AcDbArc
 50
210.0
 51
1.7955479275
  0
LINE
  5
167
330
1F
100
AcDbEntity
  8
0
  6
Continuous
 62
     7
 48
10.0
370
    15
100
AcDbLine
 10
316.8002202776
 20
287.6353761013
 30
0.0
 11
273.5643218927
 21
287.6353761013
 31
0.0
  0
ARC
  5
168
330
1F
100
AcDbEntity
  8
0
  6
Continuous
 62
     7
 48
100.0
370
    15
100
AcDbCircle
 10
271.8322710851
 20
288.6353761013
 30
0.0
 40
2.000000000000069
100
AcDbArc
 50
182.954492332
 51
330.0
  0
LINE
  5
169
330
1F
100
AcDbEntity
  8
0
  6
Continuous
 62
     7
 48
10.0
370
    15
100
AcDbLine
 10
269.834929509
 20
288.532290562
 30
0.0
 11
252.420216569
 21
297.4229597998
 31
0.0
  0
ARC
  5
16A
330
1F
100
AcDbEntity
  8
0
  6
Continuous
 62
     7
 48
100.0
370
    15
100
AcDbCircle
 10
251.3322710851
 20
299.101165575
 30
0.0
 40
2.000000000000002
100
AcDbArc
 50
300.2947550207
 51
302.954492332
  0
LINE
  5
16B
330
1F
100
AcDbEntity
  8
0
  6
Continuous
 62
     7
 48
10.0
370
    15
100
AcDbLine
 10
252.3411682543
 20
297.37428211
 30
0.0
 11
252.3411682543
 21
290.4975819251
 31
0.0
  0
ARC
  5
16C
330
1F
100
AcDbEntity
  8
0
  6
Continuous
 62
     7
 48
100.0
370
    15
100
AcDbCircle
 10
249.3411682543
 20
290.4975819251
 30
0.0
 40
3.0
100
AcDbArc
 50
270.0
 51
0.0
  0
LINE
  5
16D
330
1F
100
AcDbEntity
  8
0
  6
Continuous
 62
     7
 48
10.0
370
    15
100
AcDbLine
 10
249.3411682543
 20
287.4975819251
 30
0.0
 11
246.2031768692
 21
287.4975819251
 31
0.0
  0
ARC
  5
16E
330
1F
100
AcDbEntity
  8
0
  6
Continuous
 62
     7
 48
100.0
370
    15
100
AcDbCircle
 10
246.8322710851
 20
288.2749109851
 30
0.0
 40
1.0
100
AcDbArc
 50
90.0
 51
231.0166729961
  0
LINE
  5
16F
330
1F
100
AcDbEntity
  8
0
  6
Continuous
 62
     7
 48
10.0
370
    15
100
AcDbLine
 10
246.8322710851
 20
289.2749109851
 30
0.0
 11
249.3322710851
 21
289.2749109851
 31
0.0
  0
ARC
  5
170
330
1F
100
AcDbEntity
  8
0
  6
Continuous
 62
     7
 48
100.0
370
    15
100
AcDbCircle
 10
249.3322710851
 20
290.2749109851
 30
0.0
 40
1.0
100
AcDbArc
 50
270.0
 51
0.0
  0
LINE
  5
171
330
1F
100
AcDbEntity
  8
0
  6
Continuous
 62
     7
 48
10.0
370
    15
100
AcDbLine
 10
250.3322710851
 20
290.2749109851
 30
0.0
 11
250.3322710851
 21
297.3691147675
 31
0.0
  0
ARC
  5
172
330
1F
100
AcDbEntity
  8
0
  6
Continuous
 62
     7
 48
100.0
370
    15
100
AcDbCircle
 10
251.3322710851
 20
299.101165575
 30
0.0
 40
2.000000000000016
100
AcDbArc
 50
182.954492332
 51
240.0
  0
LINE
  5
173
330
1F
100
AcDbEntity
  8
0
  6
Continuous
 62
     7
 48
10.0
370
    15
100
AcDbLine
 10
249.334929509
 20
298.9980800357
 30
0.0
 11
240.2869691312
 21
303.6173019128
 31
0.0
  0
ARC
  5
174
330
1F
100
AcDbEntity
  8
0
  6
Continuous
 62
     7
 48
100.0
370
    15
100
AcDbCircle
 10
239.8322710851
 20
302.7266562555
 30
0.0
 40
1.000000000000022
100
AcDbArc
 50
62.954492332
 51
180.0
  0
ARC
  5
175
330
1F
100
AcDbEntity
  8
0
  6
Continuous
 62
     7
 48
100.0
370
    15
100
AcDbCircle
 10
239.8322710851
 20
307.2177801578
 30
0.0
 40
1.000000000000027
100
AcDbArc
 50
197.6813102543
 51
242.954492332
  0
LINE
  5
176
330
1F
100
AcDbEntity
  8
0
  6
Continuous
 62
     7
 48
10.0
370
    15
100
AcDbLine
 10
239.377573039
 20
306.3271345005
 30
0.0
 11
250.2443256012
 21
300.7793713503
 31
0.0
  0
ARC
  5
177
330
1F
100
AcDbEntity
  8
0
  6
Continuous
 62
     7
 48
100.0
370
    15
100
AcDbCircle
 10
251.3322710851
 20
299.101165575
 30
0.0
 40
2.000000000000055
100
AcDbArc
 50
2.954492332
 51
122.954492332
  0
LINE
  5
178
330
1F
100
AcDbEntity
  8
0
  6
Continuous
 62
     7
 48
10.0
370
    15
100
AcDbLine
 10
253.3296126612
 20
299.2042511144
 30
0.0
 11
270.7443256012
 21
290.3135818766
 31
0.0
  0
ARC
  5
179
330
1F
100
AcDbEntity
  8
0
  6
Continuous
 62
     7
 48
100.0
370
    15
100
AcDbCircle
 10
271.8322710851
 20
288.6353761013
 30
0.0
 40
2.000000000000068
100
AcDbArc
 50
30.0
 51
122.954492332
  0
LINE
  5
17A
330
1F
100
AcDbEntity
  8
0
  6
Continuous
 62
     7
 48
10.0
370
    15
100
AcDbLine
 10
273.5643218927
 20
289.6353761013
 30
0.0
 11
316.8002202776
 21
289.6353761013
 31
0.0
  0
ARC
  5
17B
330
1F
100
AcDbEntity
  8
0
  6
Continuous
 62
     7
 48
100.0
370
    15
100
AcDbCircle
 10
318.5322710851
 20
288.6353761013
 30
0.0
 40
2.000000000000029
100
AcDbArc
 50
61.7955479275
 51
150.0
  0
LINE
  5
17C
330
1F
100
AcDbEntity
  8
0
  6
Continuous
 62
     7
 48
10.0
370
    15
100
AcDbLine
 10
319.4775095724
 20
290.3979095626
 30
0.0
 11
365.733253089
 21
319.0727099133
 31
0.0
  0
ARC
  5
17D
330
1F
100
AcDbEntity
  8
0
  6
Continuous
 62
     7
 48
100.0
370
    15
100
AcDbCircle
 10
367.7322710851
 20
319.1353761013
 30
0.0
 40
2.00000000000002
100
AcDbArc
 50
120.0
 51
181.7955479276
  0
LINE
  5
17E
330
1F
100
AcDbEntity
  8
0
  6
Continuous
 62
     7
 48
10.0
370
    15
100
AcDbLine
 10
366.7322710851
 20
320.8674269089
 30
0.0
 11
366.7322710851
 21
322.3853761013
 31
0.0
  0
ARC
  5
17F
330
1F
100
AcDbEntity
  8
0
  6
Continuous
 62
     7
 48
100.0
370
    15
100
AcDbCircle
 10
365.7322710851
 20
322.3853761013
 30
0.0
 40
1.000000000003852
100
AcDbArc
 50
0.0
 51
90.000159042
  0
LINE
  5
180
330
1F
100
AcDbEntity
  8
0
  6
Continuous
 62
     7
 48
10.0
370
    15
100
AcDbLine
 10
365.7322683093
 20
323.3853761013
 30
0.0
 11
363.2322710851
 21
323.3853761013
 31
0.0
  0
ARC
  5
181
330
1F
100
AcDbEntity
  8
0
  6
Continuous
 62
     7
 48
100.0
370
    15
100
AcDbCircle
 10
363.2322710851
 20
324.3853761013
 30
0.0
 40
1.0
100
AcDbArc
 50
90.0
 51
270.0
  0
LINE
  5
182
330
1F
100
AcDbEntity
  8
0
  6
Continuous
 62
     7
 48
10.0
370
    15
100
AcDbLine
 10
363.2322710851
 20
325.3853761013
 30
0.0
 11
365.7322710851
 21
325.3853761013
 31
0.0
  0
LINE
  5
183
330
1F
100
AcDbEntity
  8
0
  6
Continuous
 62
     7
 48
10.0
370
    15
100
AcDbLine
 10
238.8322710851
 20
310.0353761013
 30
0.0
 11
233.8322710851
 21
310.0353761013
 31
0.0
  0
LINE
  5
184
330
1F
100
AcDbEntity
  8
0
  6
Continuous
 62
     7
 48
10.0
370
    15
100
AcDbLine
 10
238.8322710851
 20
309.6966507096
 30
0.0
 11
238.8322710851
 21
310.0353761013
 31
0.0
  0
LINE
  5
185
330
1F
100
AcDbEntity
  8
0
  6
Continuous
 62
     7
 48
10.0
370
    15
100
AcDbLine
 10
233.8322710851
 20
309.6966507096
 30
0.0
 11
233.8322710851
 21
310.0353761013
 31
0.0
  0
ARC
  5
186
330
1F
100
AcDbEntity
  8
0
  6
Continuous
 62
     7
 48
100.0
370
    15
100
AcDbCircle
 10
540.6968402071
 20
296.2953761013
 30
0.0
 40
300.0000000000002
100
AcDbArc
 50
185.3714607558
 51
187.8524526363
  0
ARC
  5
187
330
1F
100
AcDbEntity
  8
0
  6
Continuous
 62
     7
 48
100.0
370
    15
100
AcDbCircle
 10
241.5286393568
 20
255.0353761013
 30
0.0
 40
2.0
100
AcDbArc
 50
270.0
 51
7.8524526363
  0
LINE
  5
188
330
1F
100
AcDbEntity
  8
0
  6
Continuous
 62
     7
 48
10.0
370
    15
100
AcDbLine
 10
238.8322710851
 20
275.0353761013
 30
0.0
 11
242.0142251658
 21
268.2116535545
 31
0.0
  0
LINE
  5
189
330
1F
100
AcDbEntity
  8
0
  6
Continuous
 62
     7
 48
10.0
370
    15
100
AcDbLine
 10
241.5286393568
 20
253.0353761013
 30
0.0
 11
238.8322710851
 21
253.0353761013
 31
0.0
  0
ARC
  5
18A
330
1F
100
AcDbEntity
  8
0
  6
Continuous
 62
     7
 48
100.0
370
    15
100
AcDbCircle
 10
248.562496905
 20
305.0353761013
 30
0.0
 40
5.000000000000057
100
AcDbArc
 50
51.0166729961
 51
90.0
  0
LINE
  5
18B
330
1F
100
AcDbEntity
  8
0
  6
Continuous
 62
     7
 48
10.0
370
    15
100
AcDbLine
 10
251.7079679848
 20
308.9220214011
 30
0.0
 11
270.4565741854
 21
293.7487308016
 31
0.0
  0
ARC
  5
18C
330
1F
100
AcDbEntity
  8
0
  6
Continuous
 62
     7
 48
100.0
370
    15
100
AcDbCircle
 10
273.6020452652
 20
297.6353761013
 30
0.0
 40
5.000000000000011
100
AcDbArc
 50
231.0166729961
 51
270.0
  0
LINE
  5
18D
330
1F
100
AcDbEntity
  8
0
  6
Continuous
 62
     7
 48
10.0
370
    15
100
AcDbLine
 10
273.6020452652
 20
292.6353761013
 30
0.0
 11
316.1408390752
 21
292.6353761013
 31
0.0
  0
ARC
  5
18E
330
1F
100
AcDbEntity
  8
0
  6
Continuous
 62
     7
 48
100.0
370
    15
100
AcDbCircle
 10
316.1408390752
 20
297.6353761013
 30
0.0
 40
5.000000000000019
100
AcDbArc
 50
270.0
 51
299.8179357522
  0
LINE
  5
18F
330
1F
100
AcDbEntity
  8
0
  6
Continuous
 62
     7
 48
10.0
370
    15
100
AcDbLine
 10
318.6270669761
 20
293.2973269056
 30
0.0
 11
366.7322710851
 21
320.8674385469
 31
0.0
  0
LINE
  5
190
330
1F
100
AcDbEntity
  8
0
  6
Continuous
 62
     7
 48
10.0
370
    15
100
AcDbLine
 10
238.8322710851
 20
310.0353761013
 30
0.0
 11
248.562496905
 21
310.0353761013
 31
0.0
  0
LINE
  5
191
330
1F
100
AcDbEntity
  8
0
  6
Continuous
 62
     7
 48
10.0
370
    15
100
AcDbLine
 10
257.3718088727
 20
278.458782071
 30
0.0
 11
246.2031768692
 21
287.4975819251
 31
0.0
  0
LINE
  5
192
330
1F
100
AcDbEntity
  8
0
  6
Continuous
 62
     7
 48
10.0
370
    15
100
AcDbLine
 10
368.8725403738
 20
317.4922735637
 30
0.0
 11
322.1949610665
 21
285.0992798623
 31
0.0
  0
ARC
  5
193
330
1F
100
AcDbEntity
  8
0
  6
Continuous
 62
     7
 48
100.0
370
    15
100
AcDbCircle
 10
319.3442878448
 20
289.2070362065
 30
0.0
 40
5.000000000000004
100
AcDbArc
 50
276.6529432646
 51
304.7596154458
  0
LINE
  5
194
330
1F
100
AcDbEntity
  8
0
  6
Continuous
 62
     7
 48
10.0
370
    15
100
AcDbLine
 10
319.9235629038
 20
284.2407055282
 30
0.0
 11
261.0965550115
 21
277.3790966925
 31
0.0
  0
ARC
  5
195
330
1F
100
AcDbEntity
  8
0
  6
Continuous
 62
     7
 48
100.0
370
    15
100
AcDbCircle
 10
260.5172799526
 20
282.3454273708
 30
0.0
 40
5.000000000000091
100
AcDbArc
 50
231.0166729961
 51
276.6529432646
  0
LINE
  5
196
330
1F
100
AcDbEntity
  8
0
  6
Continuous
 62
     7
 48
10.0
370
    15
100
AcDbLine
 10
250.3322710851
 20
295.5353761013
 30
0.0
 11
246.6490034212
 21
297.4157811719
 31
0.0
  0
LINE
  5
197
330
1F
100
AcDbEntity
  8
0
  6
Continuous
 62
     7
 48
10.0
370
    15
100
AcDbLine
 10
246.6490034212
 20
297.4157811719
 30
0.0
 11
238.8322710851
 21
297.4157811719
 31
0.0
  0
ARC
  5
198
330
1F
100
AcDbEntity
  8
0
  6
Continuous
 62
     7
 48
100.0
370
    15
100
AcDbCircle
 10
365.7322710851
 20
321.3714440788
 30
0.0
 40
1.000000000006972
100
AcDbArc
 50
320.6662764145
 51
0.0002139605
  0
DIMENSION
  5
199
330
1F
100
AcDbEntity
  8
SLD-0
 48
10.0
100
AcDbDimension
  2
*D8
 10
213.8322460851
 20
253.0353761013
 30
0.0
 11
213.8322460851
 21
275.4685320868
 31
0.0
 70
   160
 71
     2
 42
-1.0
 73
     0
 74
     0
 75
     0
  3
SLDDIMSTYLE0
100
AcDbAlignedDimension
 13
233.8322710851
 23
310.0353761013
 33
0.0
 14
233.8322710851
 24
253.0353761013
 34
0.0
 50
90.0
100
AcDbRotatedDimension
  0
DIMENSION
  5
1A3
330
1F
100
AcDbEntity
  8
SLD-0
 48
10.0
100
AcDbDimension
  2
*D9
 10
369.7322710851
 20
233.0350377809
 30
0.0
 11
303.6514575977
 21
233.0350377809
 31
0.0
 70
   160
 71
     2
 42
-1.0
 73
     0
 74
     0
 75
     0
  3
SLDDIMSTYLE0
100
AcDbAlignedDimension
 13
233.8322710851
 23
298.0272880137
 33
0.0
 14
369.7322710851
 24
319.1353761013
 34
0.0
 50
0.0
100
AcDbRotatedDimension
  0
INSERT
  5
1B8
330
1F
100
AcDbEntity
  8
0
  6
Continuous
 62
     7
 48
10.0
370
     0
100
AcDbBlockReference
  2
SW_CENTERMARKSYMBOL_0
 10
365.7322710851
 20
322.3853761013
 30
0.0
  0
SPLINE
  5
1B9
330
1F
100
AcDbEntity
  8
0
  6
Continuous
 62
     7
 48
10.0
370
    15
100
AcDbSpline
210
0.0
220
0.0
230
1.0
 70
     8
 71
     3
 72
    12
 73
     8
 74
     0
 42
0.00000001
 43
0.00000001
 40
0.0
 40
0.0
 40
0.0
 40
0.0
 40
0.2366347876928657
 40
0.4742464760425237
 40
0.5926732544622273
 40
0.7216643327130788
 40
1.0
 40
1.0
 40
1.0
 40
1.0
 10
118.2299416199131
 20
317.1398131662741
 30
0.0
 10
118.352754916613
 20
317.1518305677184
 30
0.0
 10
118.5988885208011
 20
317.1759149821097
 30
0.0
 10
118.8677621273742
 20
317.34474962539
 30
0.0
 10
119.0387496085039
 20
317.5285185331471
 30
0.0
 10
119.1773467974659
 20
317.7448949654676
 30
0.0
 10
119.2153935586419
 20
317.9388604425052
 30
0.0
 10
119.2413917794218
 20
318.071401482526
 30
0.0
  0
LINE
  5
1BA
330
1F
100
AcDbEntity
  8
0
  6
Continuous
 62
     7
 48
10.0
370
    15
100
AcDbLine
 10
114.1806437186
 20
317.1353761013
 30
0.0
 11
118.2836887585
 21
317.1353761013
 31
0.0
  0
LINE
  5
1BB
330
1F
100
AcDbEntity
  8
0
  6
Continuous
 62
     7
 48
10.0
370
    15
100
AcDbLine
 10
107.1164922153
 20
317.1353761013
 30
0.0
 11
111.9276075706
 21
317.1353761013
 31
0.0
  0
LINE
  5
1BC
330
1F
100
AcDbEntity
  8
0
  6
Continuous
 62
     7
 48
10.0
370
    15
100
AcDbLine
 10
119.2382561489
 20
321.3485789421
 30
0.0
 11
119.2382518163
 21
322.3853761011
 31
0.0
  0
LINE
  5
1BD
330
1F
100
AcDbEntity
  8
0
  6
Continuous
 62
     7
 48
10.0
370
    15
100
AcDbLine
 10
120.682406042
 20
289.8627706722
 30
0.0
 11
119.2951186097
 21
318.0064480571
 31
0.0
  0
LINE
  5
1BE
330
1F
100
AcDbEntity
  8
0
  6
Continuous
 62
     7
 48
10.0
370
    15
100
AcDbLine
 10
105.6130544766
 20
286.6353761013
 30
0.0
 11
111.9276075706
 21
286.6353761013
 31
0.0
  0
LINE
  5
1BF
330
1F
100
AcDbEntity
  8
0
  6
Continuous
 62
     7
 48
10.0
370
    15
100
AcDbLine
 10
114.4276075706
 20
286.6353761013
 30
0.0
 11
119.7948798028
 21
286.6353761013
 31
0.0
  0
SPLINE
  5
1C0
330
1F
100
AcDbEntity
  8
0
  6
Continuous
 62
     7
 48
10.0
370
    15
100
AcDbSpline
210
0.0
220
0.0
230
1.0
 70
     8
 71
     3
 72
    17
 73
    13
 74
     0
 42
0.00000001
 43
0.00000001
 40
0.0
 40
0.0
 40
0.0
 40
0.0
 40
0.1118779653021815
 40
0.2173191941785259
 40
0.2664292643709451
 40
0.3138876997940644
 40
0.361608495958178
 40
0.4126608483735761
 40
0.535564788929559
 40
0.6857021736691424
 40
0.8459134651136593
 40
1.0
 40
1.0
 40
1.0
 40
1.0
 10
119.7189094098248
 20
286.6410317479913
 30
0.0
 10
119.792786215698
 20
286.6447728221687
 30
0.0
 10
119.936289432596
 20
286.6520397332483
 30
0.0
 10
120.1186729358007
 20
286.7196863169242
 30
0.0
 10
120.2535361819054
 20
286.792199648047
 30
0.0
 10
120.34483420361
 20
286.8526208000027
 30
0.0
 10
120.4267431927886
 20
286.9175758238864
 30
0.0
 10
120.5281127392735
 20
287.0146521753136
 30
0.0
 10
120.6236057792387
 20
287.1486428042053
 30
0.0
 10
120.6969270053789
 20
287.3462603229721
 30
0.0
 10
120.7467396159818
 20
287.60904603738
 30
0.0
 10
120.7583864135936
 20
287.832041366395
 30
0.0
 10
120.7640963311819
 20
287.9413662635631
 30
0.0
  0
LINE
  5
1C1
330
1F
100
AcDbEntity
  8
0
  6
Continuous
 62
     7
 48
10.0
370
    15
100
AcDbLine
 10
105.6536442173
 20
290.6353761013
 30
0.0
 11
105.6130544766
 21
290.6353761013
 31
0.0
  0
SPLINE
  5
1C2
330
1F
100
AcDbEntity
  8
0
  6
Continuous
 62
     7
 48
10.0
370
    15
100
AcDbSpline
210
0.0
220
0.0
230
1.0
 70
     8
 71
     3
 72
    10
 73
     6
 74
     0
 42
0.00000001
 43
0.00000001
 40
0.0
 40
0.0
 40
0.0
 40
0.0
 40
0.3710737525154381
 40
0.7447269903226138
 40
0.9999999999999999
 40
0.9999999999999999
 40
0.9999999999999999
 40
0.9999999999999999
 10
120.7640411125406
 20
289.3312582330902
 30
0.0
 10
120.7598128904369
 20
289.4237163861517
 30
0.0
 10
120.7513270541297
 20
289.6092754066795
 30
0.0
 10
120.7296736168972
 20
289.8088096446219
 30
0.0
 10
120.6922284449094
 20
289.9247686386614
 30
0.0
 10
120.6770299350851
 20
289.9718348909063
 30
0.0
  0
SPLINE
  5
1C3
330
1F
100
AcDbEntity
  8
0
  6
Continuous
 62
     7
 48
10.0
370
    15
100
AcDbSpline
210
0.0
220
0.0
230
1.0
 70
     8
 71
     3
 72
    13
 73
     9
 74
     0
 42
0.00000001
 43
0.00000001
 40
0.0
 40
0.0
 40
0.0
 40
0.0
 40
0.1862577517833101
 40
0.4870922146001214
 40
0.6248691404437863
 40
0.7550472150424805
 40
0.8791391891176639
 40
1.0
 40
1.0
 40
1.0
 40
1.0
 10
122.144677816103
 20
289.4388610107086
 30
0.0
 10
122.1322325960101
 20
289.5573349027701
 30
0.0
 10
122.0996864616442
 20
289.8671620638089
 30
0.0
 10
121.9742011459505
 20
290.1776198654368
 30
0.0
 10
121.789697208978
 20
290.4061577004671
 30
0.0
 10
121.6123256132324
 20
290.5317622134239
 30
0.0
 10
121.3961119772438
 20
290.6160645160547
 30
0.0
 10
121.2327036863658
 20
290.6250070205757
 30
0.0
 10
121.1520772973094
 20
290.6294192927118
 30
0.0
  0
LINE
  5
1C4
330
1F
100
AcDbEntity
  8
0
  6
Continuous
 62
     7
 48
10.0
370
    15
100
AcDbLine
 10
121.1685970747
 20
290.6353761013
 30
0.0
 11
120.6443219712
 21
290.6353761013
 31
0.0
  0
LINE
  5
1C5
330
1F
100
AcDbEntity
  8
0
  6
Continuous
 62
     7
 48
10.0
370
    15
100
AcDbLine
 10
105.6130544766
 20
290.6353761013
 30
0.0
 11
104.1860109319
 21
290.6353761013
 31
0.0
  0
LINE
  5
1C6
330
1F
100
AcDbEntity
  8
0
  6
Continuous
 62
     7
 48
10.0
370
    15
100
AcDbLine
 10
104.1860109319
 20
286.6353761013
 30
0.0
 11
105.6130544766
 21
286.6353761013
 31
0.0
  0
LINE
  5
1C7
330
1F
100
AcDbEntity
  8
0
  6
Continuous
 62
     7
 48
10.0
370
    15
100
AcDbLine
 10
119.7948798028
 20
286.6353761013
 30
0.0
 11
121.1689418297
 21
286.6353761013
 31
0.0
  0
SPLINE
  5
1C8
330
1F
100
AcDbEntity
  8
0
  6
Continuous
 62
     7
 48
10.0
370
    15
100
AcDbSpline
210
0.0
220
0.0
230
1.0
 70
     8
 71
     3
 72
    16
 73
    12
 74
     0
 42
0.00000001
 43
0.00000001
 40
0.0
 40
0.0
 40
0.0
 40
0.0
 40
0.0292881242785013
 40
0.0617825655851415
 40
0.1406779908335673
 40
0.2416338868552005
 40
0.3644483165663091
 40
0.5061569359162061
 40
0.6632208479513736
 40
0.8303162689416098
 40
1.0
 40
1.0
 40
1.0
 40
1.0
 10
121.1392073623558
 20
286.6417885247513
 30
0.0
 10
121.1643930634893
 20
286.6416109572511
 30
0.0
 10
121.2175216700635
 20
286.6412363830511
 30
0.0
 10
121.3292819478368
 20
286.6518230958558
 30
0.0
 10
121.4710687543242
 20
286.687358406565
 30
0.0
 10
121.6289814317448
 20
286.7747259884582
 30
0.0
 10
121.7803635954019
 20
286.9282590574867
 30
0.0
 10
121.916334631929
 20
287.1625876991754
 30
0.0
 10
122.0348213277214
 20
287.4875032348108
 30
0.0
 10
122.1310308814196
 20
287.8919893069292
 30
0.0
 10
122.1648231885972
 20
288.1813496187925
 30
0.0
 10
122.1818491972682
 20
288.3271417114398
 30
0.0
  0
LINE
  5
1C9
330
1F
100
AcDbEntity
  8
0
  6
Continuous
 62
     7
 48
10.0
370
    15
100
AcDbLine
 10
122.2278044858
 20
289.5923637326
 30
0.0
 11
122.7325178348
 21
298.0245395834
 31
0.0
  0
ARC
  5
1CA
330
1F
100
AcDbEntity
  8
0
  6
Continuous
 62
     7
 48
100.0
370
    15
100
AcDbCircle
 10
113.4276075706
 20
278.3454273708
 30
0.0
 40
1.0
100
AcDbArc
 50
270.0
 51
0.0
  0
LINE
  5
1CB
330
1F
100
AcDbEntity
  8
0
  6
Continuous
 62
     7
 48
10.0
370
    15
100
AcDbLine
 10
111.9276075706
 20
277.3454273708
 30
0.0
 11
113.4276075706
 21
277.3454273708
 31
0.0
  0
LINE
  5
1CC
330
1F
100
AcDbEntity
  8
0
  6
Continuous
 62
     7
 48
10.0
370
    15
100
AcDbLine
 10
106.1695348029
 20
301.101165575
 30
0.0
 11
103.5595785408
 21
301.101165575
 31
0.0
  0
LINE
  5
1CD
330
1F
100
AcDbEntity
  8
0
  6
Continuous
 62
     7
 48
10.0
370
    15
100
AcDbLine
 10
121.835733281
 20
301.101165575
 30
0.0
 11
120.1284313857
 21
301.101165575
 31
0.0
  0
SPLINE
  5
1CE
330
1F
100
AcDbEntity
  8
0
  6
Continuous
 62
     7
 48
10.0
370
    15
100
AcDbSpline
210
0.0
220
0.0
230
1.0
 70
     8
 71
     3
 72
    15
 73
    11
 74
     0
 42
0.00000001
 43
0.00000001
 40
0.0
 40
0.0
 40
0.0
 40
0.0
 40
0.1427256551070382
 40
0.2879644049474072
 40
0.4241336197278185
 40
0.5444285258883864
 40
0.6573326921256244
 40
0.7703242247935099
 40
0.8851637449216684
 40
1.0
 40
1.0
 40
1.0
 40
1.0
 10
122.80306022733
 20
300.1129256374614
 30
0.0
 10
122.7935931988897
 20
300.1873311277035
 30
0.0
 10
122.7744924478064
 20
300.3374522303625
 30
0.0
 10
122.7049253079771
 20
300.5291223037967
 30
0.0
 10
122.6080494216956
 20
300.6932644226526
 30
0.0
 10
122.4794927946349
 20
300.833659365744
 30
0.0
 10
122.3245904934476
 20
300.9494975051975
 30
0.0
 10
122.151522479983
 20
301.0348486751441
 30
0.0
 10
121.9690771873198
 20
301.088619435745
 30
0.0
 10
121.8458808028731
 20
301.0941676491331
 30
0.0
 10
121.784283486324
 20
301.0969417163907
 30
0.0
  0
SPLINE
  5
1CF
330
1F
100
AcDbEntity
  8
0
  6
Continuous
 62
     7
 48
10.0
370
    15
100
AcDbSpline
210
0.0
220
0.0
230
1.0
 70
     8
 71
     3
 72
     9
 73
     5
 74
     0
 42
0.00000001
 43
0.00000001
 40
0.0
 40
0.0
 40
0.0
 40
0.0
 40
0.5050763959030269
 40
1.0
 40
1.0
 40
1.0
 40
1.0
 10
123.5986544604246
 20
306.6727050152725
 30
0.0
 10
123.4357262562928
 20
306.7643650337598
 30
0.0
 10
123.1131449488837
 20
306.9458425671207
 30
0.0
 10
122.7887741755489
 20
307.1153009376222
 30
0.0
 10
122.6282354233463
 20
307.1991698850953
 30
0.0
  0
SPLINE
  5
1D0
330
1F
100
AcDbEntity
  8
0
  6
Continuous
 62
     7
 48
10.0
370
    15
100
AcDbSpline
210
0.0
220
0.0
230
1.0
 70
     8
 71
     3
 72
    26
 73
    22
 74
     0
 42
0.00000001
 43
0.00000001
 40
0.0
 40
0.0
 40
0.0
 40
0.0
 40
0.0375886929930305
 40
0.0767471949896684
 40
0.1174853655824786
 40
0.159795787369311
 40
0.2036673892793509
 40
0.2491096006653372
 40
0.2961526940532342
 40
0.3447892320843681
 40
0.394988621293808
 40
0.4467454070105548
 40
0.5001170691834412
 40
0.5570436610399787
 40
0.6251033488380906
 40
0.6796612957830781
 40
0.7500953828647088
 40
0.8448130169710029
 40
0.9180597821563975
 40
0.969802611199192
 40
1.0
 40
1.0
 40
1.0
 40
1.0
 10
119.246414287666
 20
318.1760335228489
 30
0.0
 10
119.2454150883076
 20
318.1675213016026
 30
0.0
 10
119.2433749602295
 20
318.1501413649313
 30
0.0
 10
119.2401661149292
 20
318.1371757410046
 30
0.0
 10
119.2368082183721
 20
318.1345246138972
 30
0.0
 10
119.2333306502506
 20
318.1445158417674
 30
0.0
 10
119.2297833309709
 20
318.168211885698
 30
0.0
 10
119.2262255101929
 20
318.2072069376695
 30
0.0
 10
119.2227275453381
 20
318.2624241475319
 30
0.0
 10
119.2193626365645
 20
318.3341103757212
 30
0.0
 10
119.2162150437512
 20
318.4224461241005
 30
0.0
 10
119.2133887588585
 20
318.5275589216273
 30
0.0
 10
119.2109464830488
 20
318.6498572983965
 30
0.0
 10
119.2088917949807
 20
318.7959764831531
 30
0.0
 10
119.2076046448417
 20
318.9526827402573
 30
0.0
 10
119.2070819885477
 20
319.1258958237037
 30
0.0
 10
119.2075234159745
 20
319.3239162206257
 30
0.0
 10
119.2094299891699
 20
319.5314994204128
 30
0.0
 10
119.2124613764874
 20
319.7034898589346
 30
0.0
 10
119.2151663225565
 20
319.8119636569041
 30
0.0
 10
119.2168115167382
 20
319.8622131437864
 30
0.0
 10
119.2174178193533
 20
319.8807315628529
 30
0.0
  0
SPLINE
  5
1D1
330
1F
100
AcDbEntity
  8
0
  6
Continuous
 62
     7
 48
10.0
370
    15
100
AcDbSpline
210
0.0
220
0.0
230
1.0
 70
     8
 71
     3
 72
    14
 73
    10
 74
     0
 42
0.00000001
 43
0.00000001
 40
0.0
 40
0.0
 40
0.0
 40
0.0
 40
0.25
 40
0.25
 40
0.5
 40
0.5
 40
0.75
 40
0.75
 40
1.0
 40
1.0
 40
1.0
 40
1.0
 10
118.2178843506425
 20
320.6260876004014
 30
0.0
 10
118.3443715492988
 20
320.6241669919236
 30
0.0
 10
118.4754498797685
 20
320.6035878866941
 30
0.0
 10
118.7175631486126
 20
320.5260477367749
 30
0.0
 10
118.8274584932369
 20
320.4696889989133
 30
0.0
 10
119.0076596935619
 20
320.3353175789028
 30
0.0
 10
119.0838120970264
 20
320.2526527930044
 30
0.0
 10
119.1875484896204
 20
320.0720083576521
 30
0.0
 10
119.2148565906291
 20
319.9745287262173
 30
0.0
 10
119.2174178193533
 20
319.8807315628529
 30
0.0
  0
LINE
  5
1D2
330
1F
100
AcDbEntity
  8
0
  6
Continuous
 62
     7
 48
10.0
370
    15
100
AcDbLine
 10
113.4276075706
 20
317.4922735637
 30
0.0
 11
111.9276075706
 21
317.4922735637
 31
0.0
  0
ELLIPSE
  5
1D3
330
1F
100
AcDbEntity
  8
0
  6
Continuous
 62
     7
 48
100.0
370
    15
100
AcDbEllipse
 10
107.1164922153
 20
319.1353761013
 30
0.0
 11
0.0
 21
2.0
 31
0.0
210
0.0
220
0.0
230
1.0
 40
0.0305576776
 41
2.649332101204729
 42
5.553457650954892
  0
LINE
  5
1D4
330
1F
100
AcDbEntity
  8
0
  6
Continuous
 62
     7
 48
10.0
370
    15
100
AcDbLine
 10
118.2178842139
 20
320.6260785495
 30
0.0
 11
107.1572357855
 21
320.6260880863
 31
0.0
  0
SPLINE
  5
1D5
330
1F
100
AcDbEntity
  8
0
  6
Continuous
 62
     7
 48
10.0
370
    15
100
AcDbSpline
210
0.0
220
0.0
230
1.0
 70
     8
 71
     3
 72
    10
 73
     6
 74
     0
 42
0.00000001
 43
0.00000001
 40
0.0
 40
0.0
 40
0.0
 40
0.0
 40
0.0062753854188167
 40
0.6310270731256437
 40
1.0
 40
1.0
 40
1.0
 40
1.0
 10
113.4276075705752
 20
317.4922735636695
 30
0.0
 10
113.429328613929
 20
317.4908885394305
 30
0.0
 10
113.6023896895166
 20
317.3516161707386
 30
0.0
 10
113.8901354707369
 20
317.1685607481789
 30
0.0
 10
114.1019837993902
 20
317.1579671720622
 30
0.0
 10
114.1806437185767
 20
317.1540337455087
 30
0.0
  0
ELLIPSE
  5
1D6
330
1F
100
AcDbEntity
  8
0
  6
Continuous
 62
     7
 48
100.0
370
    15
100
AcDbEllipse
 10
107.0553768601
 20
322.3853761013
 30
0.0
 11
0.0
 21
3.0
 31
0.0
210
0.0
220
0.0
230
1.0
 40
0.0305576776
 41
4.712388980384709
 42
6.283185307179586
  0
LINE
  5
1D7
330
1F
100
AcDbEntity
  8
0
  6
Continuous
 62
     7
 48
10.0
370
    15
100
AcDbLine
 10
107.147049893
 20
322.3853761013
 30
0.0
 11
107.147049893
 21
321.3714440788
 31
0.0
  0
ELLIPSE
  5
1D8
330
1F
100
AcDbEntity
  8
0
  6
Continuous
 62
     7
 48
100.0
370
    15
100
AcDbEllipse
 10
107.1776075706
 20
321.3714440788
 30
0.0
 11
0.0
 21
1.0
 31
0.0
210
0.0
220
0.0
230
1.0
 40
0.0305576776
 41
1.570796326794897
 42
2.411864997359269
  0
LINE
  5
1D9
330
1F
100
AcDbEntity
  8
0
  6
Continuous
 62
     7
 48
10.0
370
    15
100
AcDbLine
 10
107.0876079224
 20
317.3728426401
 30
0.0
 11
105.6741398241
 21
288.6980422893
 31
0.0
  0
ELLIPSE
  5
1DA
330
1F
100
AcDbEntity
  8
0
  6
Continuous
 62
     7
 48
100.0
370
    15
100
AcDbEllipse
 10
105.6130544766
 20
288.6353761013
 30
0.0
 11
0.0
 21
2.0
 31
0.0
210
0.0
220
0.0
230
1.0
 40
0.0305576776
 41
2.094395102393348
 42
4.743727203597633
  0
LINE
  5
1DB
330
1F
100
AcDbEntity
  8
0
  6
Continuous
 62
     7
 48
10.0
370
    15
100
AcDbLine
 10
105.5601270264
 20
287.6353761013
 30
0.0
 11
104.2389383821
 21
287.6353761013
 31
0.0
  0
ELLIPSE
  5
1DC
330
1F
100
AcDbEntity
  8
0
  6
Continuous
 62
     7
 48
100.0
370
    15
100
AcDbEllipse
 10
104.1860109319
 20
288.6353761013
 30
0.0
 11
0.0
 21
2.0
 31
0.0
210
0.0
220
0.0
230
1.0
 40
0.0305576776
 41
1.622361945713157
 42
4.188790204786702
  0
LINE
  5
1DD
330
1F
100
AcDbEntity
  8
0
  6
Continuous
 62
     7
 48
10.0
370
    15
100
AcDbLine
 10
104.1249768119
 20
288.532290562
 30
0.0
 11
103.5928236281
 21
297.4229597998
 31
0.0
  0
ELLIPSE
  5
1DE
330
1F
100
AcDbEntity
  8
0
  6
Continuous
 62
     7
 48
100.0
370
    15
100
AcDbEllipse
 10
103.5595785408
 20
299.101165575
 30
0.0
 11
0.0
 21
2.0
 31
0.0
210
0.0
220
0.0
230
1.0
 40
0.0305576776
 41
3.670335874787001
 42
3.716757048106933
  0
LINE
  5
1DF
330
1F
100
AcDbEntity
  8
0
  6
Continuous
 62
     7
 48
10.0
370
    15
100
AcDbLine
 10
103.5904080952
 20
297.37428211
 30
0.0
 11
103.5904080952
 21
290.4975819251
 31
0.0
  0
ELLIPSE
  5
1E0
330
1F
100
AcDbEntity
  8
0
  6
Continuous
 62
     7
 48
100.0
370
    15
100
AcDbEllipse
 10
103.4987350624
 20
290.4975819251
 30
0.0
 11
0.0
 21
2.999999999999943
 31
0.0
210
0.0
220
0.0
230
1.0
 40
0.0305576776
 41
3.141592653589789
 42
4.71238898038469
  0
LINE
  5
1E1
330
1F
100
AcDbEntity
  8
0
  6
Continuous
 62
     7
 48
10.0
370
    15
100
AcDbLine
 10
103.4987350624
 20
287.4975819251
 30
0.0
 11
103.4028453333
 21
287.4975819251
 31
0.0
  0
ELLIPSE
  5
1E2
330
1F
100
AcDbEntity
  8
0
  6
Continuous
 62
     7
 48
100.0
370
    15
100
AcDbEllipse
 10
103.4220689915
 20
288.2749109851
 30
0.0
 11
0.0
 21
1.0
 31
0.0
210
0.0
220
0.0
230
1.0
 40
0.0305576776
 41
0.0
 42
2.461205243989129
  0
LINE
  5
1E3
330
1F
100
AcDbEntity
  8
0
  6
Continuous
 62
     7
 48
10.0
370
    15
100
AcDbLine
 10
103.4220689915
 20
289.2749109851
 30
0.0
 11
103.4984631855
 21
289.2749109851
 31
0.0
  0
ELLIPSE
  5
1E4
330
1F
100
AcDbEntity
  8
0
  6
Continuous
 62
     7
 48
100.0
370
    15
100
AcDbEllipse
 10
103.4984631855
 20
290.2749109851
 30
0.0
 11
0.0
 21
1.0
 31
0.0
210
0.0
220
0.0
230
1.0
 40
0.0305576776
 41
3.141592653589789
 42
4.71238898038469
  0
LINE
  5
1E5
330
1F
100
AcDbEntity
  8
0
  6
Continuous
 62
     7
 48
10.0
370
    15
100
AcDbLine
 10
103.5290208632
 20
290.2749109851
 30
0.0
 11
103.5290208632
 21
297.3691147675
 31
0.0
  0
ELLIPSE
  5
1E6
330
1F
100
AcDbEntity
  8
0
  6
Continuous
 62
     7
 48
100.0
370
    15
100
AcDbEllipse
 10
103.5595785408
 20
299.101165575
 30
0.0
 11
0.0
 21
2.0
 31
0.0
210
0.0
220
0.0
230
1.0
 40
0.0305576776
 41
1.62236194571306
 42
2.617993877991601
  0
LINE
  5
1E7
330
1F
100
AcDbEntity
  8
0
  6
Continuous
 62
     7
 48
10.0
370
    15
100
AcDbLine
 10
103.4985444208
 20
298.9980800357
 30
0.0
 11
103.2220597645
 21
303.6173019128
 31
0.0
  0
ELLIPSE
  5
1E8
330
1F
100
AcDbEntity
  8
0
  6
Continuous
 62
     7
 48
100.0
370
    15
100
AcDbEllipse
 10
103.2081652482
 20
302.7266562555
 30
0.0
 11
0.0
 21
1.0
 31
0.0
210
0.0
220
0.0
230
1.0
 40
0.0305576776
 41
5.811152150499675
 42
7.853981633974483
  0
LINE
  5
1E9
330
1F
100
AcDbEntity
  8
0
  6
Continuous
 62
     7
 48
10.0
370
    15
100
AcDbLine
 10
103.1776075706
 20
306.9133067374
 30
0.0
 11
103.1776075706
 21
302.7266562555
 31
0.0
  0
LINE
  5
1EA
330
1F
100
AcDbEntity
  8
0
  6
Continuous
 62
     7
 48
10.0
370
    15
100
AcDbLine
 10
103.1776075706
 20
306.9133067374
 30
0.0
 11
103.1790510968
 21
306.9140578689
 31
0.0
  0
ELLIPSE
  5
1EB
330
1F
100
AcDbEntity
  8
0
  6
Continuous
 62
     7
 48
100.0
370
    15
100
AcDbEllipse
 10
103.2081652482
 20
307.2177801578
 30
0.0
 11
0.0
 21
1.0
 31
0.0
210
0.0
220
0.0
230
1.0
 40
0.0305576776
 41
1.879393406798445
 42
2.669559496909339
  0
LINE
  5
1EC
330
1F
100
AcDbEntity
  8
0
  6
Continuous
 62
     7
 48
10.0
370
    15
100
AcDbLine
 10
103.1942707319
 20
306.3271345005
 30
0.0
 11
103.5263334534
 21
300.7793713503
 31
0.0
  0
ELLIPSE
  5
1ED
330
1F
100
AcDbEntity
  8
0
  6
Continuous
 62
     7
 48
100.0
370
    15
100
AcDbEllipse
 10
103.5595785408
 20
299.101165575
 30
0.0
 11
0.0
 21
2.0
 31
0.0
210
0.0
220
0.0
230
1.0
 40
0.0305576776
 41
4.763954599302916
 42
6.858349701696089
  0
LINE
  5
1EE
330
1F
100
AcDbEntity
  8
0
  6
Continuous
 62
     7
 48
10.0
370
    15
100
AcDbLine
 10
103.6206126608
 20
299.2042511144
 30
0.0
 11
104.1527658446
 21
290.3135818766
 31
0.0
  0
ELLIPSE
  5
1EF
330
1F
100
AcDbEntity
  8
0
  6
Continuous
 62
     7
 48
100.0
370
    15
100
AcDbEllipse
 10
104.1860109319
 20
288.6353761013
 30
0.0
 11
0.0
 21
2.0
 31
0.0
210
0.0
220
0.0
230
1.0
 40
0.0305576776
 41
5.235987755982907
 42
6.85834970169613
  0
LINE
  5
1F0
330
1F
100
AcDbEntity
  8
0
  6
Continuous
 62
     7
 48
10.0
370
    15
100
AcDbLine
 10
104.2389383821
 20
289.6353761013
 30
0.0
 11
105.5601270264
 21
289.6353761013
 31
0.0
  0
ELLIPSE
  5
1F1
330
1F
100
AcDbEntity
  8
0
  6
Continuous
 62
     7
 48
100.0
370
    15
100
AcDbEllipse
 10
105.6130544766
 20
288.6353761013
 30
0.0
 11
0.0
 21
2.0
 31
0.0
210
0.0
220
0.0
230
1.0
 40
0.0305576776
 41
5.790924754794429
 42
7.330382858376145
  0
LINE
  5
1F2
330
1F
100
AcDbEntity
  8
0
  6
Continuous
 62
     7
 48
10.0
370
    15
100
AcDbLine
 10
105.6419387696
 20
290.3979095626
 30
0.0
 11
107.0554068679
 21
319.0727099133
 31
0.0
  0
ELLIPSE
  5
1F3
330
1F
100
AcDbEntity
  8
0
  6
Continuous
 62
     7
 48
100.0
370
    15
100
AcDbEllipse
 10
107.1164922153
 20
319.1353761013
 30
0.0
 11
0.0
 21
2.0
 31
0.0
210
0.0
220
0.0
230
1.0
 40
0.0305576776
 41
0.5235987755981933
 42
1.602134550008016
  0
LINE
  5
1F4
330
1F
100
AcDbEntity
  8
0
  6
Continuous
 62
     7
 48
10.0
370
    15
100
AcDbLine
 10
107.0859345377
 20
320.8674269089
 30
0.0
 11
107.0859345377
 21
322.3853761013
 31
0.0
  0
ELLIPSE
  5
1F5
330
1F
100
AcDbEntity
  8
0
  6
Continuous
 62
     7
 48
100.0
370
    15
100
AcDbEllipse
 10
107.0553768601
 20
322.3853761013
 30
0.0
 11
0.0
 21
1.0
 31
0.0
210
0.0
220
0.0
230
1.0
 40
0.0305576776
 41
4.71238898038469
 42
6.283188082987611
  0
LINE
  5
1F6
330
1F
100
AcDbEntity
  8
0
  6
Continuous
 62
     7
 48
10.0
370
    15
100
AcDbLine
 10
107.0553767753
 20
323.3853761013
 30
0.0
 11
106.9789826661
 21
323.3853761013
 31
0.0
  0
ELLIPSE
  5
1F7
330
1F
100
AcDbEntity
  8
0
  6
Continuous
 62
     7
 48
100.0
370
    15
100
AcDbEllipse
 10
106.9789826661
 20
324.3853761013
 30
0.0
 11
0.0
 21
1.0
 31
0.0
210
0.0
220
0.0
230
1.0
 40
0.0305576776
 41
0.0
 42
3.141592653589789
  0
LINE
  5
1F8
330
1F
100
AcDbEntity
  8
0
  6
Continuous
 62
     7
 48
10.0
370
    15
100
AcDbLine
 10
106.9789826661
 20
325.3853761013
 30
0.0
 11
107.0553768601
 21
325.3853761013
 31
0.0
  0
LINE
  5
1F9
330
1F
100
AcDbEntity
  8
0
  6
Continuous
 62
     7
 48
10.0
370
    15
100
AcDbLine
 10
107.147049893
 20
321.3714440788
 30
0.0
 11
118.2382561489
 21
321.3714440788
 31
0.0
  0
SPLINE
  5
1FA
330
1F
100
AcDbEntity
  8
0
  6
Continuous
 62
     7
 48
10.0
370
    15
100
AcDbSpline
210
0.0
220
0.0
230
1.0
 70
     8
 71
     3
 72
     8
 73
     4
 74
     0
 42
0.00000001
 43
0.00000001
 40
0.0
 40
0.0
 40
0.0
 40
0.0
 40
1.0
 40
1.0
 40
1.0
 40
1.0
 10
118.2178834330841
 20
320.6260910226422
 30
0.0
 10
118.2306516448347
 20
320.8129552293516
 30
0.0
 10
118.2382548871889
 20
321.0910639185051
 30
0.0
 10
118.2382551400685
 20
321.3714440789014
 30
0.0
  0
SPLINE
  5
1FB
330
1F
100
AcDbEntity
  8
0
  6
Continuous
 62
     7
 48
10.0
370
    15
100
AcDbSpline
210
0.0
220
0.0
230
1.0
 70
     8
 71
     3
 72
    10
 73
     6
 74
     0
 42
0.00000001
 43
0.00000001
 40
0.0
 40
0.0
 40
0.0
 40
0.0
 40
0.5
 40
0.5
 40
1.0
 40
1.0
 40
1.0
 40
1.0
 10
119.2174138857379
 20
319.8807320485755
 30
0.0
 10
119.2257040784128
 20
320.0665662791897
 30
0.0
 10
119.233026303394
 20
320.2989191157989
 30
0.0
 10
119.2411588945044
 20
320.8109991628953
 30
0.0
 10
119.2398645795095
 20
321.0910646120058
 30
0.0
 10
119.2377857065222
 20
321.3714440789602
 30
0.0
  0
LINE
  5
1FC
330
1F
100
AcDbEntity
  8
0
  6
Continuous
 62
     7
 48
10.0
370
    15
100
AcDbLine
 10
118.2382561489
 20
321.3714440788
 30
0.0
 11
119.2377895898
 21
321.3714440788
 31
0.0
  0
LINE
  5
1FD
330
1F
100
AcDbEntity
  8
0
  6
Continuous
 62
     7
 48
10.0
370
    15
100
AcDbLine
 10
113.4276075706
 20
317.4922735637
 30
0.0
 11
113.4276075706
 21
285.0992798624
 31
0.0
  0
LINE
  5
1FE
330
1F
100
AcDbEntity
  8
0
  6
Continuous
 62
     7
 48
10.0
370
    15
100
AcDbLine
 10
114.4276075706
 20
317.1353761013
 30
0.0
 11
114.4276075706
 21
285.9208311312
 31
0.0
  0
ARC
  5
1FF
330
1F
100
AcDbEntity
  8
0
  6
Continuous
 62
     7
 48
100.0
370
    15
100
AcDbCircle
 10
113.5088709487
 20
286.0197456862
 30
0.0
 40
0.9240460321255198
100
AcDbArc
 50
264.9547197391
 51
353.8549964433
  0
LINE
  5
200
330
1F
100
AcDbEntity
  8
0
  6
Continuous
 62
     7
 48
10.0
370
    15
100
AcDbLine
 10
111.9276075706
 20
317.4922735637
 30
0.0
 11
111.9276075706
 21
285.0992798623
 31
0.0
  0
LINE
  5
201
330
1F
100
AcDbEntity
  8
0
  6
Continuous
 62
     7
 48
10.0
370
    15
100
AcDbLine
 10
113.4276075706
 20
285.0992798623
 30
0.0
 11
111.9276075706
 21
285.0992798623
 31
0.0
  0
SPLINE
  5
202
330
1F
100
AcDbEntity
  8
0
  6
Continuous
 62
     7
 48
10.0
370
    15
100
AcDbSpline
210
0.0
220
0.0
230
1.0
 70
     8
 71
     3
 72
    15
 73
    11
 74
     0
 42
0.00000001
 43
0.00000001
 40
0.0
 40
0.0
 40
0.0
 40
0.0
 40
0.0666768250335464
 40
0.1333420185240717
 40
0.2000210621332436
 40
0.343553770343949
 40
0.5000448717785141
 40
0.6668093973673097
 40
0.8334176474347649
 40
1.0
 40
1.0
 40
1.0
 40
1.0
 10
119.2377857157687
 20
321.371444078989
 30
0.0
 10
119.2380768855809
 20
321.3340705613348
 30
0.0
 10
119.2386591744119
 20
321.2593300457082
 30
0.0
 10
119.239767670985
 20
321.147572472929
 30
0.0
 10
119.2414843746835
 20
320.9938227949287
 30
0.0
 10
119.2441412133107
 20
320.7931098924504
 30
0.0
 10
119.2478790530642
 20
320.5470732589939
 30
0.0
 10
119.2518192943067
 20
320.3044630017404
 30
0.0
 10
119.2552417178304
 20
320.07539631045
 30
0.0
 10
119.2571855889083
 20
319.9456168335961
 30
0.0
 10
119.2581574489027
 20
319.8807321387752
 30
0.0
  0
SPLINE
  5
203
330
1F
100
AcDbEntity
  8
0
  6
Continuous
 62
     7
 48
10.0
370
    15
100
AcDbSpline
210
0.0
220
0.0
230
1.0
 70
     8
 71
     3
 72
     8
 73
     4
 74
     0
 42
0.00000001
 43
0.00000001
 40
0.0
 40
0.0
 40
0.0
 40
0.0
 40
1.0
 40
1.0
 40
1.0
 40
1.0
 10
119.2678816459152
 20
319.3092779874661
 30
0.0
 10
119.2667013017422
 20
319.5279953129659
 30
0.0
 10
119.2632196399166
 20
319.7326831243577
 30
0.0
 10
119.258161336392
 20
319.8807306963101
 30
0.0
  0
SPLINE
  5
204
330
1F
100
AcDbEntity
  8
0
  6
Continuous
 62
     7
 48
10.0
370
    15
100
AcDbSpline
210
0.0
220
0.0
230
1.0
 70
     8
 71
     3
 72
    15
 73
    11
 74
     0
 42
0.00000001
 43
0.00000001
 40
0.0
 40
0.0
 40
0.0
 40
0.0
 40
0.0666763387515237
 40
0.1333421014430359
 40
0.2000217233043526
 40
0.3429503988450026
 40
0.5000445655650742
 40
0.6668124270977662
 40
0.8334167321123843
 40
1.0
 40
1.0
 40
1.0
 40
1.0
 10
119.2678777299272
 20
319.3092781059841
 30
0.0
 10
119.2683486697354
 20
319.2725827401426
 30
0.0
 10
119.2692904746522
 20
319.1991978290013
 30
0.0
 10
119.2709557217819
 20
319.0908509560448
 30
0.0
 10
119.2734480936018
 20
318.9434720358424
 30
0.0
 10
119.2771525042623
 20
318.7539195579146
 30
0.0
 10
119.2822000230258
 20
318.5274573495669
 30
0.0
 10
119.2874340987124
 20
318.3108652244973
 30
0.0
 10
119.2920252221721
 20
318.1137820505795
 30
0.0
 10
119.2945823753699
 20
318.0094017086499
 30
0.0
 10
119.2958608712408
 20
317.9572148329199
 30
0.0
  0
SPLINE
  5
205
330
1F
100
AcDbEntity
  8
0
  6
Continuous
 62
     7
 48
10.0
370
    15
100
AcDbSpline
210
0.0
220
0.0
230
1.0
 70
     8
 71
     3
 72
    15
 73
    11
 74
     0
 42
0.00000001
 43
0.00000001
 40
0.0
 40
0.0
 40
0.0
 40
0.0
 40
0.0578557189508788
 40
0.1411805496508975
 40
0.2500088970698875
 40
0.3892792420398453
 40
0.5000706141000864
 40
0.6667141114182323
 40
0.8333406618247093
 40
1.0
 40
1.0
 40
1.0
 40
1.0
 10
119.2958608215426
 20
317.9572148345702
 30
0.0
 10
119.2952305960455
 20
317.9739073825577
 30
0.0
 10
119.2936927086303
 20
318.0146408336789
 30
0.0
 10
119.2908389754996
 20
318.0779525331317
 30
0.0
 10
119.2868079671098
 20
318.1488531151626
 30
0.0
 10
119.2819863421291
 20
318.2056801327612
 30
0.0
 10
119.275719249118
 20
318.2478951149806
 30
0.0
 10
119.2681357859789
 20
318.2636172681172
 30
0.0
 10
119.2579957467534
 20
318.2451079806712
 30
0.0
 10
119.2502724466058
 20
318.1990596435483
 30
0.0
 10
119.2464104166332
 20
318.1760332099311
 30
0.0
  0
LINE
  5
206
330
1F
100
AcDbEntity
  8
0
  6
Continuous
 62
     7
 48
10.0
370
    15
100
AcDbLine
 10
118.2382561489
 20
321.3714440788
 30
0.0
 11
118.2382561489
 21
322.3853007032
 31
0.0
  0
LINE
  5
207
330
1F
100
AcDbEntity
  8
0
  6
Continuous
 62
     7
 48
10.0
370
    15
100
AcDbLine
 10
118.2382561321
 20
322.3853761012
 30
0.0
 11
119.2377897249
 21
322.3853760918
 31
0.0
  0
LINE
  5
208
330
1F
100
AcDbEntity
  8
0
  6
Continuous
 62
     7
 48
10.0
370
    15
100
AcDbLine
 10
118.2993730494
 20
325.3853761004
 30
0.0
 11
107.0553768601
 21
325.3853761013
 31
0.0
  0
SPLINE
  5
209
330
1F
100
AcDbEntity
  8
0
  6
Continuous
 62
     7
 48
10.0
370
    15
100
AcDbSpline
210
0.0
220
0.0
230
1.0
 70
     8
 71
     3
 72
    29
 73
    25
 74
     0
 42
0.00000001
 43
0.00000001
 40
0.0
 40
0.0
 40
0.0
 40
0.0
 40
0.0365539219395494
 40
0.0734262360121682
 40
0.1106169931290741
 40
0.1481262428261893
 40
0.1859540333095895
 40
0.2241004114990735
 40
0.2625654230699397
 40
0.301349112493078
 40
0.3404515230734106
 40
0.3798726969868338
 40
0.4196126753156578
 40
0.4596714980826506
 40
0.5000492042837744
 40
0.5398379334491171
 40
0.5835680423339729
 40
0.6312391526483246
 40
0.6828508390276316
 40
0.7384026316843254
 40
0.79789401818268
 40
0.8613244446640366
 40
0.9286933167154215
 40
1.0
 40
1.0
 40
1.0
 40
1.0
 10
118.2382560394804
 20
322.3853007031792
 30
0.0
 10
118.2382774275162
 20
322.442720733748
 30
0.0
 10
118.2383203898819
 20
322.5580609350906
 30
0.0
 10
118.2386532695043
 20
322.7312468733544
 30
0.0
 10
118.2391820672546
 20
322.904755006985
 30
0.0
 10
118.2399265441421
 20
323.077955490514
 30
0.0
 10
118.2408813369221
 20
323.2501936408149
 30
0.0
 10
118.2420479025355
 20
323.4207920921997
 30
0.0
 10
118.2434258423245
 20
323.5890530877405
 30
0.0
 10
118.2450152789832
 20
323.7542610648929
 30
0.0
 10
118.246816126309
 20
323.9156855077199
 30
0.0
 10
118.2488286095084
 20
324.0725840230547
 30
0.0
 10
118.25105190695
 20
324.224205837668
 30
0.0
 10
118.2534891160079
 20
324.3697949459893
 30
0.0
 10
118.2561087591421
 20
324.5075554774875
 30
0.0
 10
118.2590347079659
 20
324.6408507054646
 30
0.0
 10
118.2623576179141
 20
324.7718580669772
 30
0.0
 10
118.2661728636011
 20
324.901870603728
 30
0.0
 10
118.2704844178696
 20
325.0267640591787
 30
0.0
 10
118.2752915079628
 20
325.1417934922034
 30
0.0
 10
118.2805940992597
 20
325.2418927865328
 30
0.0
 10
118.2863944300753
 20
325.3205743159734
 30
0.0
 10
118.2926835653039
 20
325.3747501866676
 30
0.0
 10
118.2971014052822
 20
325.3817677063141
 30
0.0
 10
118.2993730494474
 20
325.3853761003794
 30
0.0
  0
LINE
  5
20A
330
1F
100
AcDbEntity
  8
0
  6
Continuous
 62
     7
 48
10.0
370
    15
100
AcDbLine
 10
107.147049893
 20
322.3853761013
 30
0.0
 11
118.2382560395
 21
322.3853007032
 31
0.0
  0
SPLINE
  5
20B
330
1F
100
AcDbEntity
  8
0
  6
Continuous
 62
     7
 48
10.0
370
    15
100
AcDbSpline
210
0.0
220
0.0
230
1.0
 70
     8
 71
     3
 72
    17
 73
    13
 74
     0
 42
0.00000001
 43
0.00000001
 40
0.0
 40
0.0
 40
0.0
 40
0.0
 40
0.0315806075239115
 40
0.1255221392066778
 40
0.28163779986955
 40
0.4994972384310158
 40
0.6246121357140536
 40
0.7496300774982723
 40
0.7840816989919261
 40
0.8748579937147661
 40
0.9681660997852601
 40
1.0
 40
1.0
 40
1.0
 40
1.0
 10
119.2377897249044
 20
322.3853760917983
 30
0.0
 10
119.2378043639793
 20
322.4183871552834
 30
0.0
 10
119.2378625493069
 20
322.5495948688464
 30
0.0
 10
119.2390258007104
 20
322.8427517182433
 30
0.0
 10
119.2437115641625
 20
323.3118441025987
 30
0.0
 10
119.2531227377256
 20
323.7472895163441
 30
0.0
 10
119.2647279552559
 20
324.0593817646426
 30
0.0
 10
119.2728100132981
 20
324.200229737587
 30
0.0
 10
119.2802720053172
 20
324.2937948372914
 30
0.0
 10
119.2870263598901
 20
324.3539864477147
 30
0.0
 10
119.2938933141334
 20
324.3830002302257
 30
0.0
 10
119.2978886125066
 20
324.384890570944
 30
0.0
 10
119.2989049453393
 20
324.385371439995
 30
0.0
  0
ARC
  5
20C
330
1F
100
AcDbEntity
  8
0
  6
Continuous
 62
     7
 48
100.0
370
    15
100
AcDbCircle
 10
118.2991381694
 20
324.3856069849
 30
0.0
 40
0.9997668037096357
100
AcDbArc
 50
359.9865011214
 51
89.9866277835
  0
ARC
  5
20D
330
1F
100
AcDbEntity
  8
0
  6
Continuous
 62
     7
 48
100.0
370
    15
100
AcDbCircle
 10
118.3491021627
 20
318.0579211464
 30
0.0
 40
0.9521035410790599
100
AcDbArc
 50
266.8227218385
 51
353.9283257537
  0
LINE
  5
20E
330
1F
100
AcDbEntity
  8
0
  6
Continuous
 62
     7
 48
10.0
370
    15
100
AcDbLine
 10
118.2963312788
 20
317.1072813848
 30
0.0
 11
114.4276075706
 21
317.107281271
 31
0.0
  0
LINE
  5
20F
330
1F
100
AcDbEntity
  8
0
  6
Continuous
 62
     7
 48
10.0
370
    15
100
AcDbLine
 10
111.9276075706
 20
288.6980422893
 30
0.0
 11
105.6741398241
 21
288.6980422893
 31
0.0
  0
LINE
  5
210
330
1F
100
AcDbEntity
  8
0
  6
Continuous
 62
     7
 48
10.0
370
    15
100
AcDbLine
 10
119.2951186097
 20
318.0064480571
 30
0.0
 11
119.295864743
 21
317.9572147938
 31
0.0
  0
ARC
  5
211
330
1F
100
AcDbEntity
  8
0
  6
Continuous
 62
     7
 48
100.0
370
    15
100
AcDbCircle
 10
119.7363895951
 20
289.9142437615
 30
0.0
 40
0.9521035410686768
100
AcDbArc
 50
266.8227218381
 51
353.9283257571
  0
LINE
  5
212
330
1F
100
AcDbEntity
  8
0
  6
Continuous
 62
     7
 48
10.0
370
    15
100
AcDbLine
 10
119.6836187345
 20
288.9636037722
 30
0.0
 11
118.2963312909
 21
317.1072813848
 31
0.0
  0
LINE
  5
213
330
1F
100
AcDbEntity
  8
0
  6
Continuous
 62
     7
 48
10.0
370
    15
100
AcDbLine
 10
114.4276075706
 20
288.9636037722
 30
0.0
 11
119.6836187345
 21
288.9636037722
 31
0.0
  0
LINE
  5
214
330
1F
100
AcDbEntity
  8
0
  6
Continuous
 62
     7
 48
10.0
370
    15
100
AcDbLine
 10
118.29937383
 20
325.3853761013
 30
0.0
 11
118.3757656982
 21
325.3853761013
 31
0.0
  0
ARC
  5
215
330
1F
100
AcDbEntity
  8
0
  6
Continuous
 62
     7
 48
100.0
370
    15
100
AcDbCircle
 10
118.3755323642
 20
324.3856093265
 30
0.0
 40
0.999766802092543
100
AcDbArc
 50
359.986634067
 51
89.9866278281
  0
ARC
  5
216
330
1F
100
AcDbEntity
  8
0
  6
Continuous
 62
     7
 48
100.0
370
    15
100
AcDbCircle
 10
118.3749308779
 20
324.3853643153
 30
0.0
 40
1.000368261208304
100
AcDbArc
 50
333.8753941492
 51
0.0006750448
  0
LINE
  5
217
330
1F
100
AcDbEntity
  8
0
  6
Continuous
 62
     7
 48
10.0
370
    15
100
AcDbLine
 10
113.4276075706
 20
285.0992798624
 30
0.0
 11
113.4276075706
 21
284.2407055282
 31
0.0
  0
ARC
  5
218
330
1F
100
AcDbEntity
  8
0
  6
Continuous
 62
     7
 48
100.0
370
    15
100
AcDbCircle
 10
113.4309631665
 20
285.2373500092
 30
0.0
 40
0.9966501298664807
100
AcDbArc
 50
269.8070919347
 51
359.8057841063
  0
SPLINE
  5
219
330
1F
100
AcDbEntity
  8
0
  6
Continuous
 62
     7
 48
10.0
370
    15
100
AcDbSpline
210
0.0
220
0.0
230
1.0
 70
    24
 71
     3
 72
    15
 73
    11
 74
     0
 42
0.00000001
 43
0.00000001
 40
0.0
 40
0.0
 40
0.0
 40
0.0
 40
0.1004415967932798
 40
0.2004270035026368
 40
0.30019530738983
 40
0.3999871561725415
 40
0.5000430276827185
 40
0.6664879574821714
 40
0.8327684738553572
 40
1.0
 40
1.0
 40
1.0
 40
1.0
 10
114.4276075705752
 20
285.9208311311781
 30
0.0
 10
114.4276075705752
 20
285.8841666742446
 30
0.0
 10
114.4276075705752
 20
285.8110042846286
 30
0.0
 10
114.4276075705752
 20
285.7116272024642
 30
0.0
 10
114.4276075705752
 20
285.6203092977395
 30
0.0
 10
114.4276075705752
 20
285.537777363663
 30
0.0
 10
114.4276075705752
 20
285.4475300877584
 30
0.0
 10
114.4276075705752
 20
285.3585056528703
 30
0.0
 10
114.4276075705752
 20
285.2796609513572
 30
0.0
 10
114.4276075705752
 20
285.2492303506762
 30
0.0
 10
114.4276075705752
 20
285.2339716638985
 30
0.0
  0
LINE
  5
21A
330
1F
100
AcDbEntity
  8
0
  6
Continuous
 62
     7
 48
10.0
370
    15
100
AcDbLine
 10
113.4276075706
 20
284.2407055282
 30
0.0
 11
111.9276075706
 21
284.2407055282
 31
0.0
  0
LINE
  5
21B
330
1F
100
AcDbEntity
  8
0
  6
Continuous
 62
     7
 48
10.0
370
    15
100
AcDbLine
 10
111.9276075706
 20
285.0992798623
 30
0.0
 11
111.9276075706
 21
284.2407055282
 31
0.0
  0
SPLINE
  5
21C
330
1F
100
AcDbEntity
  8
0
  6
Continuous
 62
     7
 48
10.0
370
    15
100
AcDbSpline
210
0.0
220
0.0
230
1.0
 70
     8
 71
     3
 72
    10
 73
     6
 74
     0
 42
0.00000001
 43
0.00000001
 40
0.0
 40
0.0
 40
0.0
 40
0.0
 40
0.5
 40
0.5
 40
1.0
 40
1.0
 40
1.0
 40
1.0
 10
120.7111313302095
 20
288.4614741284989
 30
0.0
 10
120.7115630232652
 20
288.7378595989153
 30
0.0
 10
120.710421370767
 20
289.0027036990069
 30
0.0
 10
120.7019310768444
 20
289.4674165780207
 30
0.0
 10
120.6924786918365
 20
289.6668910280837
 30
0.0
 10
120.6831483036001
 20
289.8135374480117
 30
0.0
  0
ARC
  5
21D
330
1F
100
AcDbEntity
  8
0
  6
Continuous
 62
     7
 48
100.0
370
    15
100
AcDbCircle
 10
119.9353564056
 20
289.9609530736
 30
0.0
 40
1.688274195398084
100
AcDbArc
 50
262.3839229515
 51
297.3554927414
  0
SPLINE
  5
21E
330
1F
100
AcDbEntity
  8
0
  6
Continuous
 62
     7
 48
10.0
370
    15
100
AcDbSpline
210
0.0
220
0.0
230
1.0
 70
     8
 71
     3
 72
     8
 73
     4
 74
     0
 42
0.00000001
 43
0.00000001
 40
0.0
 40
0.0
 40
0.0
 40
0.0
 40
1.0
 40
1.0
 40
1.0
 40
1.0
 10
119.7116006221948
 20
288.2875714338479
 30
0.0
 10
119.7086203644025
 20
288.563709540867
 30
0.0
 10
119.6981762061016
 20
288.8159220896254
 30
0.0
 10
119.6836176506128
 20
288.9636004653714
 30
0.0
  0
LINE
  5
21F
330
1F
100
AcDbEntity
  8
0
  6
Continuous
 62
     7
 48
10.0
370
    15
100
AcDbLine
 10
119.7116018212
 20
288.2875714063
 30
0.0
 11
114.4276075706
 21
288.2875717652
 31
0.0
  0
SPLINE
  5
220
330
1F
100
AcDbEntity
  8
0
  6
Continuous
 62
     7
 48
10.0
370
    15
100
AcDbSpline
210
0.0
220
0.0
230
1.0
 70
     8
 71
     3
 72
    14
 73
    10
 74
     0
 42
0.00000001
 43
0.00000001
 40
0.0
 40
0.0
 40
0.0
 40
0.0
 40
0.25
 40
0.25
 40
0.5
 40
0.5
 40
0.75
 40
0.75
 40
1.0
 40
1.0
 40
1.0
 40
1.0
 10
120.7111352686401
 20
288.4614741926616
 30
0.0
 10
120.7121261196469
 20
288.277868835561
 30
0.0
 10
120.7147257837302
 20
288.1038346573305
 30
0.0
 10
120.7223693104928
 20
287.8275088291051
 30
0.0
 10
120.7273841122241
 20
287.7248886725196
 30
0.0
 10
120.738348171594
 20
287.6229323938946
 30
0.0
 10
120.7442539669369
 20
287.6234912743946
 30
0.0
 10
120.7551753715103
 20
287.7282248971042
 30
0.0
 10
120.7602057058141
 20
287.829754735809
 30
0.0
 10
120.7640036709454
 20
287.9687096286396
 30
0.0
  0
SPLINE
  5
221
330
1F
100
AcDbEntity
  8
0
  6
Continuous
 62
     7
 48
10.0
370
    15
100
AcDbSpline
210
0.0
220
0.0
230
1.0
 70
     8
 71
     3
 72
    14
 73
    10
 74
     0
 42
0.00000001
 43
0.00000001
 40
0.0
 40
0.0
 40
0.0
 40
0.0
 40
0.0732328590155409
 40
0.2499221501250203
 40
0.3816353867975625
 40
0.5000112091860154
 40
0.6667936919054702
 40
0.8333961321952641
 40
1.0
 40
1.0
 40
1.0
 40
1.0
 10
120.6831482538194
 20
289.8135374511121
 30
0.0
 10
120.684504599645
 20
289.7925390361929
 30
0.0
 10
120.6891334079369
 20
289.7208776388862
 30
0.0
 10
120.6966324508675
 20
289.634621377289
 30
0.0
 10
120.7049463080413
 20
289.5660246556444
 30
0.0
 10
120.7127624252191
 20
289.5231454223903
 30
0.0
 10
120.7205318704386
 20
289.5070727851181
 30
0.0
 10
120.7275664414769
 20
289.5255409999762
 30
0.0
 10
120.730921313782
 20
289.5716595595188
 30
0.0
 10
120.732598757121
 20
289.5947189380801
 30
0.0
  0
SPLINE
  5
222
330
1F
100
AcDbEntity
  8
0
  6
Continuous
 62
     7
 48
10.0
370
    15
100
AcDbSpline
210
0.0
220
0.0
230
1.0
 70
     8
 71
     3
 72
    15
 73
    11
 74
     0
 42
0.00000001
 43
0.00000001
 40
0.0
 40
0.0
 40
0.0
 40
0.0
 40
0.0833632733628693
 40
0.1667167570570011
 40
0.2501245424373364
 40
0.347182749231167
 40
0.500193911218713
 40
0.6662468644966834
 40
0.8328534577471435
 40
1.0
 40
1.0
 40
1.0
 40
1.0
 10
120.7326026312334
 20
289.5947186441728
 30
0.0
 10
120.7335278605069
 20
289.6026924505092
 30
0.0
 10
120.7353782104009
 20
289.6186391267873
 30
0.0
 10
120.7382252973815
 20
289.6316151663403
 30
0.0
 10
120.7412490527651
 20
289.6371953935155
 30
0.0
 10
120.7450759256705
 20
289.6308563161302
 30
0.0
 10
120.7497873193988
 20
289.6009930450916
 30
0.0
 10
120.754999997671
 20
289.5343796838823
 30
0.0
 10
120.7599297980978
 20
289.4353964402375
 30
0.0
 10
120.7626442483306
 20
289.3465417495379
 30
0.0
 10
120.7640036691788
 20
289.3020425292057
 30
0.0
  0
SPLINE
  5
223
330
1F
100
AcDbEntity
  8
0
  6
Continuous
 62
     7
 48
10.0
370
    15
100
AcDbSpline
210
0.0
220
0.0
230
1.0
 70
     8
 71
     3
 72
    15
 73
    11
 74
     0
 42
0.00000001
 43
0.00000001
 40
0.0
 40
0.0
 40
0.0
 40
0.0
 40
0.0833265968278359
 40
0.1666478149085909
 40
0.250000330566379
 40
0.3602384212901257
 40
0.5000663469550538
 40
0.6668351753153758
 40
0.8334224674908693
 40
1.0
 40
1.0
 40
1.0
 40
1.0
 10
120.7639997512859
 20
289.3020428155149
 30
0.0
 10
120.765291326966
 20
289.2678821057365
 30
0.0
 10
120.7678743949548
 20
289.1995628912596
 30
0.0
 10
120.7720305027928
 20
289.1058951714112
 30
0.0
 10
120.776754606487
 20
289.0095916951995
 30
0.0
 10
120.7825608556049
 20
288.9062964874839
 30
0.0
 10
120.7897556474844
 20
288.7983975987518
 30
0.0
 10
120.7974179321153
 20
288.707332136395
 30
0.0
 10
120.8042621455205
 20
288.6457724062718
 30
0.0
 10
120.8077890850101
 20
288.6388414686774
 30
0.0
 10
120.8095525030962
 20
288.635376101397
 30
0.0
  0
SPLINE
  5
224
330
1F
100
AcDbEntity
  8
0
  6
Continuous
 62
     7
 48
10.0
370
    15
100
AcDbSpline
210
0.0
220
0.0
230
1.0
 70
     8
 71
     3
 72
    15
 73
    11
 74
     0
 42
0.00000001
 43
0.00000001
 40
0.0
 40
0.0
 40
0.0
 40
0.0
 40
0.0463131569416074
 40
0.1296420940946127
 40
0.2500022080423743
 40
0.3844903254254678
 40
0.50006807424499
 40
0.6667206489543687
 40
0.8333471103081957
 40
0.9999999999999999
 40
0.9999999999999999
 40
0.9999999999999999
 40
0.9999999999999999
 10
120.809552291483
 20
288.6353761012863
 30
0.0
 10
120.8089365240002
 20
288.6350849129902
 30
0.0
 10
120.8072128370132
 20
288.6342698042184
 30
0.0
 10
120.803919647932
 20
288.6235430567315
 30
0.0
 10
120.7994563865483
 20
288.5934593450729
 30
0.0
 10
120.7944545187048
 20
288.5385599776195
 30
0.0
 10
120.7885656851545
 20
288.453665768641
 30
0.0
 10
120.7817916330203
 20
288.3345609574502
 30
0.0
 10
120.7732295666607
 20
288.170751397144
 30
0.0
 10
120.7670765475559
 20
288.0360602761309
 30
0.0
 10
120.7639997940429
 20
287.9687093752657
 30
0.0
  0
LINE
  5
225
330
1F
100
AcDbEntity
  8
0
  6
Continuous
 62
     7
 48
10.0
370
    15
100
AcDbLine
 10
113.4276075706
 20
284.2407055282
 30
0.0
 11
113.4276075706
 21
277.3790966925
 31
0.0
  0
ARC
  5
226
330
1F
100
AcDbEntity
  8
0
  6
Continuous
 62
     7
 48
100.0
370
    15
100
AcDbCircle
 10
113.4309631665
 20
278.3757411734
 30
0.0
 40
0.9966501298664949
100
AcDbArc
 50
269.8070919347
 51
359.8057841063
  0
LINE
  5
227
330
1F
100
AcDbEntity
  8
0
  6
Continuous
 62
     7
 48
10.0
370
    15
100
AcDbLine
 10
114.4276075706
 20
285.2339716639
 30
0.0
 11
114.4276075706
 21
278.3723628282
 31
0.0
  0
LINE
  5
228
330
1F
100
AcDbEntity
  8
0
  6
Continuous
 62
     7
 48
10.0
370
    15
100
AcDbLine
 10
113.4276075706
 20
277.3790966925
 30
0.0
 11
111.9276075706
 21
277.3790966925
 31
0.0
  0
LINE
  5
229
330
1F
100
AcDbEntity
  8
0
  6
Continuous
 62
     7
 48
10.0
370
    15
100
AcDbLine
 10
111.9276075706
 20
284.2407055282
 30
0.0
 11
111.9276075706
 21
277.3790966925
 31
0.0
  0
LINE
  5
22A
330
1F
100
AcDbEntity
  8
0
  6
Continuous
 62
     7
 48
10.0
370
    15
100
AcDbLine
 10
121.1158099821
 20
289.6353761013
 30
0.0
 11
120.744647679
 21
289.6353761013
 31
0.0
  0
SPLINE
  5
22B
330
1F
100
AcDbEntity
  8
0
  6
Continuous
 62
     7
 48
10.0
370
    15
100
AcDbSpline
210
0.0
220
0.0
230
1.0
 70
     8
 71
     3
 72
     8
 73
     4
 74
     0
 42
0.00000001
 43
0.00000001
 40
0.0
 40
0.0
 40
0.0
 40
0.0
 40
0.0000264647403036
 40
0.0000264647403036
 40
0.0000264647403036
 40
0.0000264647403036
 10
121.1158099821472
 20
289.6353761013449
 30
0.0
 10
121.1246315622485
 20
289.6353761013449
 30
0.0
 10
121.1334541716763
 20
289.6352594458162
 30
0.0
 10
121.142271636633
 20
289.6350260939014
 30
0.0
  0
SPLINE
  5
22C
330
1F
100
AcDbEntity
  8
0
  6
Continuous
 62
     7
 48
10.0
370
    15
100
AcDbSpline
210
0.0
220
0.0
230
1.0
 70
     8
 71
     3
 72
    18
 73
    14
 74
     0
 42
0.00000001
 43
0.00000001
 40
0.0
 40
0.0
 40
0.0
 40
0.0
 40
0.0501358083240488
 40
0.1002566026151382
 40
0.1502721068316954
 40
0.200092870440587
 40
0.2496321454486708
 40
0.3777633678777688
 40
0.4992602113930008
 40
0.6321933305922103
 40
0.7614923404316252
 40
0.8845753915756642
 40
1.0
 40
1.0
 40
1.0
 40
1.0
 10
121.1422727203283
 20
289.6321258558576
 30
0.0
 10
121.1714123946094
 20
289.6305735110862
 30
0.0
 10
121.2296830167932
 20
289.6274692864197
 30
0.0
 10
121.3159743084198
 20
289.6133187411741
 30
0.0
 10
121.4002457409659
 20
289.5925138157518
 30
0.0
 10
121.4815927164567
 20
289.5647958201359
 30
0.0
 10
121.6003730348915
 20
289.5127662700169
 30
0.0
 10
121.7432834220688
 20
289.4235551564477
 30
0.0
 10
121.8925581907804
 20
289.2800496675627
 30
0.0
 10
122.0070137158259
 20
289.1185338404337
 30
0.0
 10
122.0841229635753
 20
288.9479011005619
 30
0.0
 10
122.1273466889491
 20
288.7843404504456
 30
0.0
 10
122.134332509521
 20
288.683956446284
 30
0.0
 10
122.1377132630175
 20
288.6353761013449
 30
0.0
  0
LINE
  5
22D
330
1F
100
AcDbEntity
  8
0
  6
Continuous
 62
     7
 48
10.0
370
    15
100
AcDbLine
 10
122.0999418288
 20
288.6353761013
 30
0.0
 11
122.1377131956
 21
288.6353761013
 31
0.0
  0
ARC
  5
22E
330
1F
100
AcDbEntity
  8
0
  6
Continuous
 62
     7
 48
100.0
370
    15
100
AcDbCircle
 10
121.100175054
 20
288.6351428762
 30
0.0
 40
0.9997668020924366
100
AcDbArc
 50
270.0133721719
 51
0.013365933
  0
LINE
  5
22F
330
1F
100
AcDbEntity
  8
0
  6
Continuous
 62
     7
 48
10.0
370
    15
100
AcDbLine
 10
121.100408388
 20
287.6353761013
 30
0.0
 11
120.7424510544
 21
287.6353761013
 31
0.0
  0
SPLINE
  5
230
330
1F
100
AcDbEntity
  8
0
  6
Continuous
 62
     7
 48
10.0
370
    15
100
AcDbSpline
210
0.0
220
0.0
230
1.0
 70
     8
 71
     3
 72
    15
 73
    11
 74
     0
 42
0.00000001
 43
0.00000001
 40
0.0
 40
0.0
 40
0.0
 40
0.0
 40
0.0608227334944901
 40
0.1441466643191828
 40
0.2500102538333717
 40
0.3929637613951474
 40
0.5000689510199718
 40
0.666716499672698
 40
0.8333414712113353
 40
1.0
 40
1.0
 40
1.0
 40
1.0
 10
122.1454905998006
 20
287.9687094801283
 30
0.0
 10
122.1450152275968
 20
287.9937799491639
 30
0.0
 10
122.1438886205941
 20
288.0531956359765
 30
0.0
 10
122.1417283778449
 20
288.1490053978939
 30
0.0
 10
122.1385090389066
 20
288.2656211404293
 30
0.0
 10
122.1344419327566
 20
288.3735874485839
 30
0.0
 10
122.1288103254952
 20
288.4786745383785
 30
0.0
 10
122.1217307825354
 20
288.5633303194694
 30
0.0
 10
122.1117800443139
 20
288.6248902274767
 30
0.0
 10
122.1038855857335
 20
288.631880575409
 30
0.0
 10
122.0999379590094
 20
288.6353761012929
 30
0.0
  0
SPLINE
  5
231
330
1F
100
AcDbEntity
  8
0
  6
Continuous
 62
     7
 48
10.0
370
    15
100
AcDbSpline
210
0.0
220
0.0
230
1.0
 70
     8
 71
     3
 72
    14
 73
    10
 74
     0
 42
0.00000001
 43
0.00000001
 40
0.0
 40
0.0
 40
0.0
 40
0.0
 40
0.25
 40
0.25
 40
0.5
 40
0.5
 40
0.75
 40
0.75
 40
1.0
 40
1.0
 40
1.0
 40
1.0
 10
122.1954868759536
 20
289.0900731417162
 30
0.0
 10
122.1923954032539
 20
289.2882232538471
 30
0.0
 10
122.1872177285893
 20
289.4505608523328
 30
0.0
 10
122.1748625792748
 20
289.6361784007361
 30
0.0
 10
122.1677361084661
 20
289.6590089225577
 30
0.0
 10
122.154518681706
 20
289.5553901515612
 30
0.0
 10
122.1484813397092
 20
289.4285795284572
 30
0.0
 10
122.140071633125
 20
289.0795258822355
 30
0.0
 10
122.1377134712176
 20
288.8578695191543
 30
0.0
 10
122.1377132630175
 20
288.6353761013449
 30
0.0
  0
LINE
  5
232
330
1F
100
AcDbEntity
  8
0
  6
Continuous
 62
     7
 48
10.0
370
    15
100
AcDbLine
 10
122.1954869361
 20
289.0900741474
 30
0.0
 11
122.2291278399
 21
289.6521118417
 31
0.0
  0
SPLINE
  5
233
330
1F
100
AcDbEntity
  8
0
  6
Continuous
 62
     7
 48
10.0
370
    15
100
AcDbSpline
210
0.0
220
0.0
230
1.0
 70
     8
 71
     3
 72
    14
 73
    10
 74
     0
 42
0.00000001
 43
0.00000001
 40
0.0
 40
0.0
 40
0.0
 40
0.0
 40
0.0834538438461668
 40
0.1668789945770928
 40
0.2503291779371753
 40
0.3629440049648656
 40
0.5007252824058307
 40
0.6288777042383269
 40
1.0
 40
1.0
 40
1.0
 40
1.0
 10
122.2291239235198
 20
289.6521118048494
 30
0.0
 10
122.2281840521183
 20
289.6299949852751
 30
0.0
 10
122.2263046324618
 20
289.5857689503353
 30
0.0
 10
122.2236909592775
 20
289.5086735073847
 30
0.0
 10
122.220878531481
 20
289.4146752171354
 30
0.0
 10
122.2176539606301
 20
289.2899929584199
 30
0.0
 10
122.2140487131376
 20
289.1324572294177
 30
0.0
 10
122.2079252720194
 20
288.8429912042919
 30
0.0
 10
122.2021262221714
 20
288.577712163078
 30
0.0
 10
122.1978156560302
 20
288.3805241955656
 30
0.0
  0
SPLINE
  5
234
330
1F
100
AcDbEntity
  8
0
  6
Continuous
 62
     7
 48
10.0
370
    15
100
AcDbSpline
210
0.0
220
0.0
230
1.0
 70
     8
 71
     3
 72
    14
 73
    10
 74
     0
 42
0.00000001
 43
0.00000001
 40
0.0
 40
0.0
 40
0.0
 40
0.0
 40
0.25
 40
0.25
 40
0.5
 40
0.5
 40
0.75
 40
0.75
 40
1.0
 40
1.0
 40
1.0
 40
1.0
 10
122.1454945296078
 20
287.9687095981042
 30
0.0
 10
122.1491518221221
 20
287.8349024890459
 30
0.0
 10
122.1539323160829
 20
287.7342186713827
 30
0.0
 10
122.1644065856789
 20
287.6278926031536
 30
0.0
 10
122.1700847247632
 20
287.6212922605424
 30
0.0
 10
122.1807439862977
 20
287.7056618284528
 30
0.0
 10
122.1857225716358
 20
287.7953352526893
 30
0.0
 10
122.1935430172691
 20
288.0466220194723
 30
0.0
 10
122.1964212259953
 20
288.2069123640696
 30
0.0
 10
122.1978195350647
 20
288.3805243108598
 30
0.0
  0
ARC
  5
235
330
1F
100
AcDbEntity
  8
0
  6
Continuous
 62
     7
 48
100.0
370
    15
100
AcDbCircle
 10
121.2650886484
 20
288.2060685755
 30
0.0
 40
0.9118408851317678
100
AcDbArc
 50
262.493126112
 51
344.91169397
  0
SPLINE
  5
236
330
1F
100
AcDbEntity
  8
0
  6
Continuous
 62
     7
 48
10.0
370
    15
100
AcDbSpline
210
0.0
220
0.0
230
1.0
 70
     8
 71
     3
 72
     8
 73
     4
 74
     0
 42
0.00000001
 43
0.00000001
 40
0.0
 40
0.0
 40
0.0
 40
0.0
 40
1.0
 40
1.0
 40
1.0
 40
1.0
 10
121.1459595493044
 20
287.3020401255774
 30
0.0
 10
121.1345342579011
 20
287.5110517362332
 30
0.0
 10
121.1175381922547
 20
287.6353681325754
 30
0.0
 10
121.1004070322092
 20
287.6353722297383
 30
0.0
  0
ARC
  5
237
330
1F
100
AcDbEntity
  8
0
  6
Continuous
 62
     7
 48
100.0
370
    15
100
AcDbCircle
 10
121.7710527575
 20
298.0101255933
 30
0.0
 40
0.9656526159270781
100
AcDbArc
 50
4.4131084586
 51
92.1805106546
  0
LINE
  5
238
330
1F
100
AcDbEntity
  8
0
  6
Continuous
 62
     7
 48
10.0
370
    15
100
AcDbLine
 10
122.7302769918
 20
298.0247975348
 30
0.0
 11
122.7338462977
 21
298.0844298348
 31
0.0
  0
LINE
  5
239
330
1F
100
AcDbEntity
  8
0
  6
Continuous
 62
     7
 48
10.0
370
    15
100
AcDbLine
 10
106.0760301213
 20
299.2042511144
 30
0.0
 11
103.6206126608
 21
299.2042511144
 31
0.0
  0
LINE
  5
23A
330
1F
100
AcDbEntity
  8
0
  6
Continuous
 62
     7
 48
10.0
370
    15
100
AcDbLine
 10
111.9276075706
 20
277.3790966925
 30
0.0
 11
111.9276075706
 21
277.3454273708
 31
0.0
  0
SPLINE
  5
23B
330
1F
100
AcDbEntity
  8
0
  6
Continuous
 62
     7
 48
10.0
370
    15
100
AcDbSpline
210
0.0
220
0.0
230
1.0
 70
     8
 71
     3
 72
    10
 73
     6
 74
     0
 42
0.00000001
 43
0.00000001
 40
0.0
 40
0.0
 40
0.0
 40
0.0
 40
0.5
 40
0.5
 40
1.0
 40
1.0
 40
1.0
 40
1.0
 10
122.7338423813556
 20
298.0844297979787
 30
0.0
 10
122.7433643436329
 20
298.2108681250583
 30
0.0
 10
122.7523239243331
 20
298.3928232149112
 30
0.0
 10
122.7642122040138
 20
298.8294155733378
 30
0.0
 10
122.7650395466381
 20
299.0845309039619
 30
0.0
 10
122.7651507145505
 20
299.3560174114421
 30
0.0
  0
SPLINE
  5
23C
330
1F
100
AcDbEntity
  8
0
  6
Continuous
 62
     7
 48
10.0
370
    15
100
AcDbSpline
210
0.0
220
0.0
230
1.0
 70
     8
 71
     3
 72
     8
 73
     4
 74
     0
 42
0.00000001
 43
0.00000001
 40
0.0
 40
0.0
 40
0.0
 40
0.0
 40
1.0
 40
1.0
 40
1.0
 40
1.0
 10
121.7343116973311
 20
298.9750789959441
 30
0.0
 10
121.7495684359018
 20
299.1025264717679
 30
0.0
 10
121.7612522354636
 20
299.3397261912515
 30
0.0
 10
121.7656198762906
 20
299.6108702918003
 30
0.0
  0
ARC
  5
23D
330
1F
100
AcDbEntity
  8
0
  6
Continuous
 62
     7
 48
100.0
370
    15
100
AcDbCircle
 10
121.9804234556
 20
298.3658076809
 30
0.0
 40
1.263454779073646
100
AcDbArc
 50
51.6035277838
 51
99.7885097139
  0
ELLIPSE
  5
23E
330
1F
100
AcDbEntity
  8
0
  6
Continuous
 62
     7
 48
100.0
370
    15
100
AcDbEllipse
 10
122.7342493683
 20
297.0332830192
 30
0.0
 11
0.0
 21
1.0
 31
0.0
210
0.0
220
0.0
230
1.0
 40
0.0305576776
 41
4.71238898038469
 42
6.413550273946039
  0
SPLINE
  5
23F
330
1F
100
AcDbEntity
  8
0
  6
Continuous
 62
     7
 48
10.0
370
    15
100
AcDbSpline
210
0.0
220
0.0
230
1.0
 70
     8
 71
     3
 72
    12
 73
     8
 74
     0
 42
0.00000001
 43
0.00000001
 40
0.0
 40
0.0
 40
0.0
 40
0.0
 40
0.2500000000000003
 40
0.2500000000000003
 40
0.5000000000000007
 40
0.5000000000000007
 40
1.0
 40
1.0
 40
1.0
 40
1.0
 10
122.8057258865071
 20
300.0338393513671
 30
0.0
 10
122.8017308909413
 20
300.0843977927642
 30
0.0
 10
122.7974074184012
 20
300.1069331773696
 30
0.0
 10
122.7888534961376
 20
300.0924597164318
 30
0.0
 10
122.784623479319
 20
300.0550629383656
 30
0.0
 10
122.7731802031269
 20
299.8641928211174
 30
0.0
 10
122.7673379278051
 20
299.627156802518
 30
0.0
 10
122.7651546252476
 20
299.3560171974474
 30
0.0
  0
SPLINE
  5
240
330
1F
100
AcDbEntity
  8
0
  6
Continuous
 62
     7
 48
10.0
370
    15
100
AcDbSpline
210
0.0
220
0.0
230
1.0
 70
     8
 71
     3
 72
    15
 73
    11
 74
     0
 42
0.00000001
 43
0.00000001
 40
0.0
 40
0.0
 40
0.0
 40
0.0
 40
0.044999582399536
 40
0.1283259203035552
 40
0.2499968620072558
 40
0.3826793893705117
 40
0.5000603865980354
 40
0.6668250774125511
 40
0.833409985882965
 40
1.0
 40
1.0
 40
1.0
 40
1.0
 10
122.8057220452023
 20
300.0338412904663
 30
0.0
 10
122.8066268654585
 20
300.0249983882273
 30
0.0
 10
122.809207153672
 20
299.9997809638101
 30
0.0
 10
122.8143247604457
 20
299.959192539466
 30
0.0
 10
122.8212671301975
 20
299.91961057355
 30
0.0
 10
122.8287324382579
 20
299.8981918827257
 30
0.0
 10
122.8366242003799
 20
299.8985962567229
 30
0.0
 10
122.8442813839503
 20
299.9295705853928
 30
0.0
 10
122.8510371482776
 20
299.9996285495687
 30
0.0
 10
122.8540499031926
 20
300.0784766329907
 30
0.0
 10
122.8555563037342
 20
300.1179012788445
 30
0.0
  0
LINE
  5
241
330
1F
100
AcDbEntity
  8
0
  6
Continuous
 62
     7
 48
10.0
370
    15
100
AcDbLine
 10
122.855560231
 20
300.1179013153
 30
0.0
 11
123.1739055896
 21
305.4364888431
 31
0.0
  0
SPLINE
  5
242
330
1F
100
AcDbEntity
  8
0
  6
Continuous
 62
     7
 48
10.0
370
    15
100
AcDbSpline
210
0.0
220
0.0
230
1.0
 70
     8
 71
     3
 72
     8
 73
     4
 74
     0
 42
0.00000001
 43
0.00000001
 40
0.0
 40
0.0
 40
0.0
 40
0.0
 40
1.0
 40
1.0
 40
1.0
 40
1.0
 10
123.1739021909752
 20
305.4364888111448
 30
0.0
 10
123.1754657373823
 20
305.4574503303441
 30
0.0
 10
123.1770135985992
 20
305.4798877570122
 30
0.0
 10
123.1785286010128
 20
305.503721933515
 30
0.0
  0
LINE
  5
243
330
1F
100
AcDbEntity
  8
0
  6
Continuous
 62
     7
 48
10.0
370
    15
100
AcDbLine
 10
123.1776075705
 20
302.7266562555
 30
0.0
 11
123.1776075704
 21
305.503726404
 31
0.0
  0
ELLIPSE
  5
244
330
1F
100
AcDbEntity
  8
0
  6
Continuous
 62
     7
 48
100.0
370
    15
100
AcDbEllipse
 10
123.147049893
 20
302.7266562555
 30
0.0
 11
0.0
 21
1.0
 31
0.0
210
0.0
220
0.0
230
1.0
 40
0.0305576776
 41
4.71238898038469
 42
6.755218463860223
  0
LINE
  5
245
330
1F
100
AcDbEntity
  8
0
  6
Continuous
 62
     7
 48
10.0
370
    15
100
AcDbLine
 10
123.1331553767
 20
303.6173019128
 30
0.0
 11
122.8703880833
 21
299.227255658
 31
0.0
  0
ELLIPSE
  5
246
330
1F
100
AcDbEntity
  8
0
  6
Continuous
 62
     7
 48
100.0
370
    15
100
AcDbEllipse
 10
122.8842825996
 20
298.3366100007
 30
0.0
 11
0.0
 21
1.0
 31
0.0
210
0.0
220
0.0
230
1.0
 40
0.0305576776
 41
0.4720331566804527
 42
1.31310182724807
  0
ELLIPSE
  5
247
330
1F
100
AcDbEntity
  8
0
  6
Continuous
 62
     7
 48
100.0
370
    15
100
AcDbEllipse
 10
122.7956366004
 20
299.101165575
 30
0.0
 11
0.0
 21
2.0
 31
0.0
210
0.0
220
0.0
230
1.0
 40
0.0305576776
 41
3.871320309817018
 42
4.454694480837858
  0
ELLIPSE
  5
248
330
1F
100
AcDbEntity
  8
0
  6
Continuous
 62
     7
 48
100.0
370
    15
100
AcDbEllipse
 10
122.8567519556
 20
296.8650975975
 30
0.0
 11
0.0
 21
1.0
 31
0.0
210
0.0
220
0.0
230
1.0
 40
0.0305576776
 41
0.729727656227317
 42
1.570796326794897
  0
LINE
  5
249
330
1F
100
AcDbEntity
  8
0
  6
Continuous
 62
     7
 48
10.0
370
    15
100
AcDbLine
 10
122.826194278
 20
296.8650975975
 30
0.0
 11
122.826194278
 21
290.2749109851
 31
0.0
  0
ELLIPSE
  5
24A
330
1F
100
AcDbEntity
  8
0
  6
Continuous
 62
     7
 48
100.0
370
    15
100
AcDbEllipse
 10
122.8567519556
 20
290.2749109851
 30
0.0
 11
0.0
 21
1.0
 31
0.0
210
0.0
220
0.0
230
1.0
 40
0.0305576776
 41
1.570796326794897
 42
3.141592653589789
  0
LINE
  5
24B
330
1F
100
AcDbEntity
  8
0
  6
Continuous
 62
     7
 48
10.0
370
    15
100
AcDbLine
 10
122.8567519556
 20
289.2749109851
 30
0.0
 11
122.9331461496
 21
289.2749109851
 31
0.0
  0
ELLIPSE
  5
24C
330
1F
100
AcDbEntity
  8
0
  6
Continuous
 62
     7
 48
100.0
370
    15
100
AcDbEllipse
 10
122.9331461496
 20
288.2749109851
 30
0.0
 11
0.0
 21
1.0
 31
0.0
210
0.0
220
0.0
230
1.0
 40
0.0305576776
 41
3.821980063190733
 42
6.283185307179586
  0
LINE
  5
24D
330
1F
100
AcDbEntity
  8
0
  6
Continuous
 62
     7
 48
10.0
370
    15
100
AcDbLine
 10
122.9523698079
 20
287.4975819251
 30
0.0
 11
122.8564800788
 21
287.4975819251
 31
0.0
  0
ELLIPSE
  5
24E
330
1F
100
AcDbEntity
  8
0
  6
Continuous
 62
     7
 48
100.0
370
    15
100
AcDbEllipse
 10
122.8564800788
 20
290.4975819251
 30
0.0
 11
0.0
 21
2.999999999999943
 31
0.0
210
0.0
220
0.0
230
1.0
 40
0.0305576776
 41
1.570796326794897
 42
3.141592653589789
  0
LINE
  5
24F
330
1F
100
AcDbEntity
  8
0
  6
Continuous
 62
     7
 48
10.0
370
    15
100
AcDbLine
 10
122.7648070459
 20
290.4975819251
 30
0.0
 11
122.7648070459
 21
297.0332830192
 31
0.0
  0
LINE
  5
250
330
1F
100
AcDbEntity
  8
0
  6
Continuous
 62
     7
 48
10.0
370
    15
100
AcDbLine
 10
103.5957372432
 20
297.37428211
 30
0.0
 11
103.5904080952
 21
297.37428211
 31
0.0
  0
LINE
  5
251
330
1F
100
AcDbEntity
  8
0
  6
Continuous
 62
     7
 48
10.0
370
    15
100
AcDbLine
 10
122.0295810872
 20
287.4975819251
 30
0.0
 11
122.8564800788
 21
287.4975819251
 31
0.0
  0
LINE
  5
252
330
1F
100
AcDbEntity
  8
0
  6
Continuous
 62
     7
 48
10.0
370
    15
100
AcDbLine
 10
104.1357491308
 20
287.4975819251
 30
0.0
 11
103.4987350624
 21
287.4975819251
 31
0.0
  0
ARC
  5
253
330
1F
100
AcDbEntity
  8
0
  6
Continuous
 62
     7
 48
100.0
370
    15
100
AcDbCircle
 10
122.2111118489
 20
305.3621762961
 30
0.0
 40
0.9656573624876976
100
AcDbArc
 50
4.4135831759
 51
92.1804192894
  0
LINE
  5
254
330
1F
100
AcDbEntity
  8
0
  6
Continuous
 62
     7
 48
10.0
370
    15
100
AcDbLine
 10
115.6776075706
 20
253.0353761013
 30
0.0
 11
110.6776075706
 21
253.0353761013
 31
0.0
  0
LINE
  5
255
330
1F
100
AcDbEntity
  8
0
  6
Continuous
 62
     7
 48
10.0
370
    15
100
AcDbLine
 10
110.6776075706
 20
255.3086211345
 30
0.0
 11
110.6776075706
 21
253.0353761013
 31
0.0
  0
LINE
  5
256
330
1F
100
AcDbEntity
  8
0
  6
Continuous
 62
     7
 48
10.0
370
    15
100
AcDbLine
 10
115.6776075706
 20
255.3086211345
 30
0.0
 11
110.6776075706
 21
255.3086211345
 31
0.0
  0
LINE
  5
257
330
1F
100
AcDbEntity
  8
0
  6
Continuous
 62
     7
 48
10.0
370
    15
100
AcDbLine
 10
115.6776075706
 20
255.3086211345
 30
0.0
 11
115.6776075706
 21
253.0353761013
 31
0.0
  0
LINE
  5
258
330
1F
100
AcDbEntity
  8
0
  6
Continuous
 62
     7
 48
10.0
370
    15
100
AcDbLine
 10
110.6776075706
 20
268.2116535545
 30
0.0
 11
115.6776075706
 21
268.2116535545
 31
0.0
  0
LINE
  5
259
330
1F
100
AcDbEntity
  8
0
  6
Continuous
 62
     7
 48
10.0
370
    15
100
AcDbLine
 10
110.6776075706
 20
268.2116535545
 30
0.0
 11
110.6776075706
 21
255.3086211345
 31
0.0
  0
LINE
  5
25A
330
1F
100
AcDbEntity
  8
0
  6
Continuous
 62
     7
 48
10.0
370
    15
100
AcDbLine
 10
115.6776075706
 20
268.2116535545
 30
0.0
 11
115.6776075706
 21
255.3086211345
 31
0.0
  0
LINE
  5
25B
330
1F
100
AcDbEntity
  8
0
  6
Continuous
 62
     7
 48
10.0
370
    15
100
AcDbLine
 10
115.6776075706
 20
275.0353761013
 30
0.0
 11
110.6776075706
 21
275.0353761013
 31
0.0
  0
LINE
  5
25C
330
1F
100
AcDbEntity
  8
0
  6
Continuous
 62
     7
 48
10.0
370
    15
100
AcDbLine
 10
110.6776075706
 20
275.0353761013
 30
0.0
 11
110.6776075706
 21
268.2116535545
 31
0.0
  0
LINE
  5
25D
330
1F
100
AcDbEntity
  8
0
  6
Continuous
 62
     7
 48
10.0
370
    15
100
AcDbLine
 10
115.6776075706
 20
268.2116535545
 30
0.0
 11
115.6776075706
 21
275.0353761013
 31
0.0
  0
SPLINE
  5
25E
330
1F
100
AcDbEntity
  8
0
  6
Continuous
 62
     7
 48
10.0
370
    15
100
AcDbSpline
210
0.0
220
0.0
230
1.0
 70
     8
 71
     3
 72
     8
 73
     4
 74
     0
 42
0.00000001
 43
0.00000001
 40
0.0
 40
0.0
 40
0.0
 40
0.0
 40
1.0
 40
1.0
 40
1.0
 40
1.0
 10
123.1785299058258
 20
305.503729084617
 30
0.0
 10
123.1788854808567
 20
305.6045576312471
 30
0.0
 10
123.1681901186856
 20
305.7042523709088
 30
0.0
 10
123.1478297949379
 20
305.8029555022945
 30
0.0
  0
SPLINE
  5
25F
330
1F
100
AcDbEntity
  8
0
  6
Continuous
 62
     7
 48
10.0
370
    15
100
AcDbSpline
210
0.0
220
0.0
230
1.0
 70
     8
 71
     3
 72
     8
 73
     4
 74
     0
 42
0.00000001
 43
0.00000001
 40
0.0
 40
0.0
 40
0.0
 40
0.0
 40
1.0
 40
1.0
 40
1.0
 40
1.0
 10
122.200766147972
 20
306.7560428597056
 30
0.0
 10
122.1949535596552
 20
306.5730466722213
 30
0.0
 10
122.1855892623435
 20
306.4209172278801
 30
0.0
 10
122.1743721486793
 20
306.3271375292201
 30
0.0
  0
SPLINE
  5
260
330
1F
100
AcDbEntity
  8
0
  6
Continuous
 62
     7
 48
10.0
370
    15
100
AcDbSpline
210
0.0
220
0.0
230
1.0
 70
     8
 71
     3
 72
     8
 73
     4
 74
     0
 42
0.00000001
 43
0.00000001
 40
0.0
 40
0.0
 40
0.0
 40
0.0
 40
1.0
 40
1.0
 40
1.0
 40
1.0
 10
122.200766147972
 20
306.7560428597056
 30
0.0
 10
122.3599754141564
 20
306.7540522779295
 30
0.0
 10
122.5366859917624
 20
306.7331270946091
 30
0.0
 10
122.6955790573608
 20
306.6893562019204
 30
0.0
  0
SPLINE
  5
261
330
1F
100
AcDbEntity
  8
0
  6
Continuous
 62
     7
 48
10.0
370
    15
100
AcDbSpline
210
0.0
220
0.0
230
1.0
 70
     8
 71
     3
 72
    12
 73
     8
 74
     0
 42
0.00000001
 43
0.00000001
 40
0.0
 40
0.0
 40
0.0
 40
0.0
 40
0.1054363003465261
 40
0.2741117507899357
 40
0.5001538564993945
 40
0.7993728330621299
 40
1.0
 40
1.0
 40
1.0
 40
1.0
 10
122.6955588767357
 20
306.6893456339237
 30
0.0
 10
122.7173898620184
 20
306.6616578275478
 30
0.0
 10
122.7741457381034
 20
306.5896754736878
 30
0.0
 10
122.8696538502422
 20
306.4521880383223
 30
0.0
 10
122.9885517990383
 20
306.2527971225575
 30
0.0
 10
123.0885702676352
 20
306.0299178411111
 30
0.0
 10
123.1294493182908
 20
305.8676708349288
 30
0.0
 10
123.1458572634691
 20
305.8025484815451
 30
0.0
  0
SPLINE
  5
262
330
1F
100
AcDbEntity
  8
0
  6
Continuous
 62
     7
 48
10.0
370
    15
100
AcDbSpline
210
0.0
220
0.0
230
1.0
 70
     8
 71
     3
 72
     8
 73
     4
 74
     0
 42
0.00000001
 43
0.00000001
 40
0.0
 40
0.0
 40
0.0
 40
0.0
 40
1.0
 40
1.0
 40
1.0
 40
1.0
 10
122.20079467365
 20
306.7560414747446
 30
0.0
 10
121.6184424492882
 20
306.907553298685
 30
0.0
 10
121.0216813540356
 20
307.0628140156411
 30
0.0
 10
120.4260607050837
 20
307.2177780975706
 30
0.0
  0
LINE
  5
263
330
1F
100
AcDbEntity
  8
0
  6
Continuous
 62
     7
 48
10.0
370
    15
100
AcDbLine
 10
103.1790510968
 20
306.9140578689
 30
0.0
 11
103.7627452819
 21
307.2177801578
 31
0.0
  0
LINE
  5
264
330
1F
100
AcDbEntity
  8
0
  6
Continuous
 62
     7
 48
10.0
370
    15
100
AcDbLine
 10
137.8177747588
 20
273.7957788563
 30
0.0
 11
136.8469023881
 21
274.0353761011
 31
0.0
  0
LINE
  5
265
330
1F
100
AcDbEntity
  8
0
  6
Continuous
 62
     7
 48
10.0
370
    15
100
AcDbLine
 10
136.8469023881
 20
274.0353761011
 30
0.0
 11
136.8469023881
 21
275.0353761013
 31
0.0
  0
SPLINE
  5
266
330
1F
100
AcDbEntity
  8
0
  6
Continuous
 62
     7
 48
10.0
370
    15
100
AcDbSpline
210
0.0
220
0.0
230
1.0
 70
     8
 71
     3
 72
     8
 73
     4
 74
     0
 42
0.00000001
 43
0.00000001
 40
0.0
 40
0.0
 40
0.0
 40
0.0
 40
1.0
 40
1.0
 40
1.0
 40
1.0
 10
137.0864996320991
 20
275.0062484722923
 30
0.0
 10
137.0078142243
 20
275.0256668916599
 30
0.0
 10
136.9279484763145
 20
275.0353761013433
 30
0.0
 10
136.8469023881224
 20
275.0353761013449
 30
0.0
  0
ARC
  5
267
330
1F
100
AcDbEntity
  8
0
  6
Continuous
 62
     7
 48
100.0
370
    15
100
AcDbCircle
 10
136.8469023881
 20
274.0353761013
 30
0.0
 40
1.000000000285922
100
AcDbArc
 50
346.137229336
 51
76.1372293499
  0
LINE
  5
268
330
1F
100
AcDbEntity
  8
0
  6
Continuous
 62
     7
 48
10.0
370
    15
100
AcDbLine
 10
128.1776075706
 20
303.1843028839
 30
0.0
 11
128.6392011219
 21
304.0713944199
 31
0.0
  0
ARC
  5
269
330
1F
100
AcDbEntity
  8
0
  6
Continuous
 62
     7
 48
100.0
370
    15
100
AcDbCircle
 10
128.1776075706
 20
303.1843028839
 30
0.0
 40
1.000000000000003
100
AcDbArc
 50
0.0000000039
 51
62.51001565
  0
LINE
  5
26A
330
1F
100
AcDbEntity
  8
0
  6
Continuous
 62
     7
 48
10.0
370
    15
100
AcDbLine
 10
129.1776075706
 20
303.1843028839
 30
0.0
 11
128.1776075706
 21
303.1843028839
 31
0.0
  0
SPLINE
  5
26B
330
1F
100
AcDbEntity
  8
0
  6
Continuous
 62
     7
 48
10.0
370
    15
100
AcDbSpline
210
0.0
220
0.0
230
1.0
 70
     8
 71
     3
 72
    15
 73
    11
 74
     0
 42
0.00000001
 43
0.00000001
 40
0.0
 40
0.0
 40
0.0
 40
0.0
 40
0.1028026437485958
 40
0.2025796810023592
 40
0.3019895539059771
 40
0.4013467904079019
 40
0.5001960114977779
 40
0.6642902274652241
 40
0.8312905072848302
 40
1.0
 40
1.0
 40
1.0
 40
1.0
 10
122.6623798237034
 20
307.1813902915519
 30
0.0
 10
122.6667960635754
 20
307.178072300626
 30
0.0
 10
122.6754985680234
 20
307.1715339712715
 30
0.0
 10
122.68609811973
 20
307.1498769062898
 30
0.0
 10
122.6950522682198
 20
307.1199568106858
 30
0.0
 10
122.7019529565827
 20
307.081169840836
 30
0.0
 10
122.7076809056299
 20
307.0239419436338
 30
0.0
 10
122.710209780324
 20
306.9405360660543
 30
0.0
 10
122.7069916520747
 20
306.8252342706411
 30
0.0
 10
122.6993827150794
 20
306.7347953313197
 30
0.0
 10
122.6955588767357
 20
306.6893456339237
 30
0.0
  0
SPLINE
  5
26C
330
1F
100
AcDbEntity
  8
0
  6
Continuous
 62
     7
 48
10.0
370
    15
100
AcDbSpline
210
0.0
220
0.0
230
1.0
 70
     8
 71
     3
 72
    16
 73
    12
 74
     0
 42
0.00000001
 43
0.00000001
 40
0.0
 40
0.0
 40
0.0
 40
0.0
 40
0.078900483092011
 40
0.1682435767458063
 40
0.2682182538265572
 40
0.3788819229041226
 40
0.500119420740313
 40
0.6738605135299445
 40
0.7501514173860798
 40
0.8838122033932556
 40
0.9999999999999999
 40
0.9999999999999999
 40
0.9999999999999999
 40
0.9999999999999999
 10
122.6623856700487
 20
307.1813998226073
 30
0.0
 10
122.6556891282165
 20
307.1839849184732
 30
0.0
 10
122.6414097460692
 20
307.1894972519554
 30
0.0
 10
122.612916892969
 20
307.1873113707865
 30
0.0
 10
122.5767054149699
 20
307.1741982653768
 30
0.0
 10
122.5311953869796
 20
307.1457000610407
 30
0.0
 10
122.4684699366184
 20
307.0935226780903
 30
0.0
 10
122.4044769372125
 20
307.0260886286028
 30
0.0
 10
122.3335639531666
 20
306.9420264626779
 30
0.0
 10
122.2718054022725
 20
306.8606894992698
 30
0.0
 10
122.2233340145102
 20
306.7892585205063
 30
0.0
 10
122.2007932272716
 20
306.7560407693981
 30
0.0
  0
SPLINE
  5
26D
330
1F
100
AcDbEntity
  8
0
  6
Continuous
 62
     7
 48
10.0
370
    15
100
AcDbSpline
210
0.0
220
0.0
230
1.0
 70
    24
 71
     3
 72
    14
 73
    10
 74
     0
 42
0.00000001
 43
0.00000001
 40
0.0
 40
0.0
 40
0.0
 40
0.0
 40
0.1463770560314544
 40
0.2913225462713908
 40
0.4349875893160269
 40
0.5775273763538963
 40
0.7191007991007051
 40
0.8598700216294753
 40
1.0
 40
1.0
 40
1.0
 40
1.0
 10
120.8876553288994
 20
308.1048716938441
 30
0.0
 10
120.9749977885737
 20
308.0594234909241
 30
0.0
 10
121.1488284997505
 20
307.9689715679447
 30
0.0
 10
121.4081345843947
 20
307.8340429708197
 30
0.0
 10
121.664624007691
 20
307.7005800090452
 30
0.0
 10
121.9183104008742
 20
307.5685755896778
 30
0.0
 10
122.169142849887
 20
307.4380562055871
 30
0.0
 10
122.4173046043922
 20
307.3089265037469
 30
0.0
 10
122.5808170191088
 20
307.2238436536452
 30
0.0
 10
122.6623871733285
 20
307.181399040395
 30
0.0
  0
SPLINE
  5
26E
330
1F
100
AcDbEntity
  8
0
  6
Continuous
 62
     7
 48
10.0
370
    15
100
AcDbSpline
210
0.0
220
0.0
230
1.0
 70
    24
 71
     3
 72
    14
 73
    10
 74
     0
 42
0.00000001
 43
0.00000001
 40
0.0
 40
0.0
 40
0.0
 40
0.0
 40
0.2500000000000001
 40
0.2500000000000001
 40
0.5000000000000001
 40
0.5000000000000001
 40
0.7500000000000002
 40
0.7500000000000002
 40
1.0
 40
1.0
 40
1.0
 40
1.0
 10
120.4260607050793
 20
307.2177780975718
 30
0.0
 10
120.4804600899586
 20
307.3223229590815
 30
0.0
 10
120.5391501654746
 20
307.4351136796116
 30
0.0
 10
120.6527918177958
 20
307.6535104653585
 30
0.0
 10
120.7073911088564
 20
307.7584395070307
 30
0.0
 10
120.7975235478468
 20
307.931656233174
 30
0.0
 10
120.8327517716012
 20
307.9993579136719
 30
0.0
 10
120.8777429016039
 20
308.0858219696036
 30
0.0
 10
120.8876582615467
 20
308.1048773308939
 30
0.0
 10
120.8876591661088
 20
308.104879069297
 30
0.0
  0
SPLINE
  5
26F
330
1F
100
AcDbEntity
  8
0
  6
Continuous
 62
     7
 48
10.0
370
    15
100
AcDbSpline
210
0.0
220
0.0
230
1.0
 70
     8
 71
     3
 72
    10
 73
     6
 74
     0
 42
0.00000001
 43
0.00000001
 40
0.0
 40
0.0
 40
0.0
 40
0.0
 40
0.5
 40
0.5
 40
1.0
 40
1.0
 40
1.0
 40
1.0
 10
129.1699360193986
 20
254.0353761013449
 30
0.0
 10
129.9522712358049
 20
254.0353761013449
 30
0.0
 10
130.7121412143693
 20
254.2975293589196
 30
0.0
 10
131.9439638468324
 20
255.2623125291032
 30
0.0
 10
132.380543954747
 20
255.9372380984469
 30
0.0
 10
132.5679893170666
 20
256.6967857447301
 30
0.0
  0
LINE
  5
270
330
1F
100
AcDbEntity
  8
0
  6
Continuous
 62
     7
 48
10.0
370
    15
100
AcDbLine
 10
129.1699360194
 20
254.0353761013
 30
0.0
 11
115.6776075706
 21
254.0353761013
 31
0.0
  0
ARC
  5
271
330
1F
100
AcDbEntity
  8
0
  6
Continuous
 62
     7
 48
100.0
370
    15
100
AcDbCircle
 10
97.1852791218
 20
257.5353761013
 30
0.0
 40
4.500000000000015
100
AcDbArc
 50
193.8627706501
 51
270.0
  0
LINE
  5
272
330
1F
100
AcDbEntity
  8
0
  6
Continuous
 62
     7
 48
10.0
370
    15
100
AcDbLine
 10
92.8163534533
 20
256.4571884999
 30
0.0
 11
88.5374403823
 21
273.7957788566
 31
0.0
  0
ARC
  5
273
330
1F
100
AcDbEntity
  8
0
  6
Continuous
 62
     7
 48
100.0
370
    15
100
AcDbCircle
 10
89.508312753
 20
274.0353761013
 30
0.0
 40
1.000000000000008
100
AcDbArc
 50
90.0
 51
193.8627706501
  0
LINE
  5
274
330
1F
100
AcDbEntity
  8
0
  6
Continuous
 62
     7
 48
10.0
370
    15
100
AcDbLine
 10
89.508312753
 20
275.0353761013
 30
0.0
 11
92.1776075706
 21
275.0353761013
 31
0.0
  0
ARC
  5
275
330
1F
100
AcDbEntity
  8
0
  6
Continuous
 62
     7
 48
100.0
370
    15
100
AcDbCircle
 10
92.1776075706
 20
280.0353761013
 30
0.0
 40
5.000000000000014
100
AcDbArc
 50
270.0
 51
0.0
  0
LINE
  5
276
330
1F
100
AcDbEntity
  8
0
  6
Continuous
 62
     7
 48
10.0
370
    15
100
AcDbLine
 10
97.1776075706
 20
280.0353761013
 30
0.0
 11
97.1776075706
 21
303.1843028839
 31
0.0
  0
ARC
  5
277
330
1F
100
AcDbEntity
  8
0
  6
Continuous
 62
     7
 48
100.0
370
    15
100
AcDbCircle
 10
98.1776075706
 20
303.1843028839
 30
0.0
 40
0.9999999999999716
100
AcDbArc
 50
117.48998435
 51
180.0
  0
LINE
  5
278
330
1F
100
AcDbEntity
  8
0
  6
Continuous
 62
     7
 48
10.0
370
    15
100
AcDbLine
 10
123.1458572563
 20
305.8025484677
 30
0.0
 11
128.1776075706
 21
303.1843028839
 31
0.0
  0
LINE
  5
279
330
1F
100
AcDbEntity
  8
0
  6
Continuous
 62
     7
 48
10.0
370
    15
100
AcDbLine
 10
128.1776075706
 20
303.1843028839
 30
0.0
 11
128.1776075706
 21
280.0353761013
 31
0.0
  0
SPLINE
  5
27A
330
1F
100
AcDbEntity
  8
0
  6
Continuous
 62
     7
 48
10.0
370
    15
100
AcDbSpline
210
0.0
220
0.0
230
1.0
 70
     8
 71
     3
 72
    10
 73
     6
 74
     0
 42
0.00000001
 43
0.00000001
 40
0.0
 40
0.0
 40
0.0
 40
0.0
 40
0.4999999999999998
 40
0.4999999999999998
 40
1.0
 40
1.0
 40
1.0
 40
1.0
 10
134.1776075705825
 20
274.0353761013454
 30
0.0
 10
132.5863536665827
 20
274.0353761013435
 30
0.0
 10
131.0601533095412
 20
274.6675489881314
 30
0.0
 10
128.8097804573351
 20
276.9179218403568
 30
0.0
 10
128.1776075705601
 20
278.4441221974037
 30
0.0
 10
128.1776075705757
 20
280.0353761014035
 30
0.0
  0
LINE
  5
27B
330
1F
100
AcDbEntity
  8
0
  6
Continuous
 62
     7
 48
10.0
370
    15
100
AcDbLine
 10
134.1776075706
 20
274.0353761013
 30
0.0
 11
136.8469023881
 21
274.0353761011
 31
0.0
  0
LINE
  5
27C
330
1F
100
AcDbEntity
  8
0
  6
Continuous
 62
     7
 48
10.0
370
    15
100
AcDbLine
 10
136.8469023881
 20
274.0353761011
 30
0.0
 11
132.5679893171
 21
256.6967857447
 31
0.0
  0
LINE
  5
27D
330
1F
100
AcDbEntity
  8
0
  6
Continuous
 62
     7
 48
10.0
370
    15
100
AcDbLine
 10
99.6852791218
 20
257.5353761013
 30
0.0
 11
99.6852791218
 21
262.5353761013
 31
0.0
  0
ARC
  5
27E
330
1F
100
AcDbEntity
  8
0
  6
Continuous
 62
     7
 48
100.0
370
    15
100
AcDbCircle
 10
97.1852791218
 20
262.5353761013
 30
0.0
 40
2.5
100
AcDbArc
 50
0.0
 51
180.0
  0
LINE
  5
27F
330
1F
100
AcDbEntity
  8
0
  6
Continuous
 62
     7
 48
10.0
370
    15
100
AcDbLine
 10
94.6852791218
 20
262.5353761013
 30
0.0
 11
94.6852791218
 21
257.5353761013
 31
0.0
  0
ARC
  5
280
330
1F
100
AcDbEntity
  8
0
  6
Continuous
 62
     7
 48
100.0
370
    15
100
AcDbCircle
 10
97.1852791218
 20
257.5353761013
 30
0.0
 40
2.5
100
AcDbArc
 50
180.0
 51
0.0
  0
ARC
  5
281
330
1F
100
AcDbEntity
  8
0
  6
Continuous
 62
     7
 48
100.0
370
    15
100
AcDbCircle
 10
129.1699360194
 20
262.5353761013
 30
0.0
 40
2.500000000000014
100
AcDbArc
 50
0.0
 51
180.0
  0
LINE
  5
282
330
1F
100
AcDbEntity
  8
0
  6
Continuous
 62
     7
 48
10.0
370
    15
100
AcDbLine
 10
126.6699360194
 20
262.5353761013
 30
0.0
 11
126.6699360194
 21
257.5353761013
 31
0.0
  0
ARC
  5
283
330
1F
100
AcDbEntity
  8
0
  6
Continuous
 62
     7
 48
100.0
370
    15
100
AcDbCircle
 10
129.1699360194
 20
257.5353761013
 30
0.0
 40
2.500000000000014
100
AcDbArc
 50
180.0
 51
0.0
  0
LINE
  5
284
330
1F
100
AcDbEntity
  8
0
  6
Continuous
 62
     7
 48
10.0
370
    15
100
AcDbLine
 10
131.6699360194
 20
257.5353761013
 30
0.0
 11
131.6699360194
 21
262.5353761013
 31
0.0
  0
LINE
  5
285
330
1F
100
AcDbEntity
  8
0
  6
Continuous
 62
     7
 48
10.0
370
    15
100
AcDbLine
 10
97.7160140193
 20
304.0713944199
 30
0.0
 11
103.1776075706
 21
306.9133067374
 31
0.0
  0
LINE
  5
286
330
1F
100
AcDbEntity
  8
0
  6
Continuous
 62
     7
 48
10.0
370
    15
100
AcDbLine
 10
110.6776075706
 20
253.0353761013
 30
0.0
 11
97.1852791218
 21
253.0353761013
 31
0.0
  0
LINE
  5
287
330
1F
100
AcDbEntity
  8
0
  6
Continuous
 62
     7
 48
10.0
370
    15
100
AcDbLine
 10
128.6392011219
 20
304.0713944199
 30
0.0
 11
123.6074508076
 21
306.6896400038
 31
0.0
  0
LINE
  5
288
330
1F
100
AcDbEntity
  8
0
  6
Continuous
 62
     7
 48
10.0
370
    15
100
AcDbLine
 10
123.6074508076
 20
306.6896400038
 30
0.0
 11
123.5901953242
 21
306.6564783767
 31
0.0
  0
LINE
  5
289
330
1F
100
AcDbEntity
  8
0
  6
Continuous
 62
     7
 48
10.0
370
    15
100
AcDbLine
 10
119.7541230121
 20
308.6946994471
 30
0.0
 11
120.8876553289
 21
308.1048716938
 31
0.0
  0
LINE
  5
28A
330
1F
100
AcDbEntity
  8
0
  6
Continuous
 62
     7
 48
10.0
370
    15
100
AcDbLine
 10
133.5388616878
 20
256.4571885
 30
0.0
 11
137.8177747588
 21
273.7957788563
 31
0.0
  0
LINE
  5
28B
330
1F
100
AcDbEntity
  8
0
  6
Continuous
 62
     7
 48
10.0
370
    15
100
AcDbLine
 10
133.5388616878
 20
256.4571885
 30
0.0
 11
132.5679893171
 21
256.6967857447
 31
0.0
  0
LINE
  5
28C
330
1F
100
AcDbEntity
  8
0
  6
Continuous
 62
     7
 48
10.0
370
    15
100
AcDbLine
 10
129.1699360194
 20
254.0353761013
 30
0.0
 11
129.1699360194
 21
253.0353761013
 31
0.0
  0
LINE
  5
28D
330
1F
100
AcDbEntity
  8
0
  6
Continuous
 62
     7
 48
10.0
370
    15
100
AcDbLine
 10
129.1699360194
 20
253.0353761013
 30
0.0
 11
115.6776075706
 21
253.0353761013
 31
0.0
  0
LINE
  5
28E
330
1F
100
AcDbEntity
  8
0
  6
Continuous
 62
     7
 48
10.0
370
    15
100
AcDbLine
 10
136.8469023881
 20
275.0353761013
 30
0.0
 11
134.1776075706
 21
275.0353761013
 31
0.0
  0
LINE
  5
28F
330
1F
100
AcDbEntity
  8
0
  6
Continuous
 62
     7
 48
10.0
370
    15
100
AcDbLine
 10
134.1776075706
 20
275.0353761013
 30
0.0
 11
134.1776075707
 21
274.0353761013
 31
0.0
  0
LINE
  5
290
330
1F
100
AcDbEntity
  8
0
  6
Continuous
 62
     7
 48
10.0
370
    15
100
AcDbLine
 10
129.1776075706
 20
302.6639579898
 30
0.0
 11
129.1776075706
 21
303.1843028839
 31
0.0
  0
LINE
  5
291
330
1F
100
AcDbEntity
  8
0
  6
Continuous
 62
     7
 48
10.0
370
    15
100
AcDbLine
 10
129.1776075706
 20
280.0353761014
 30
0.0
 11
129.1776075706
 21
302.6639579898
 31
0.0
  0
LINE
  5
292
330
1F
100
AcDbEntity
  8
0
  6
Continuous
 62
     7
 48
10.0
370
    15
100
AcDbLine
 10
129.1776075706
 20
280.0353761014
 30
0.0
 11
128.1776075706
 21
280.0353761014
 31
0.0
  0
ARC
  5
293
330
1F
100
AcDbEntity
  8
0
  6
Continuous
 62
     7
 48
100.0
370
    15
100
AcDbCircle
 10
129.1699360194
 20
257.5353761013
 30
0.0
 40
4.50000000000001
100
AcDbArc
 50
270.0
 51
346.137229351
  0
ARC
  5
294
330
1F
100
AcDbEntity
  8
0
  6
Continuous
 62
     7
 48
100.0
370
    15
100
AcDbCircle
 10
134.1776075706
 20
280.0353761013
 30
0.0
 40
5.0
100
AcDbArc
 50
179.9999999997
 51
270.0000000005
  0
LINE
  5
295
330
1F
100
AcDbEntity
  8
0
  6
Continuous
 62
     7
 48
10.0
370
    15
100
AcDbLine
 10
103.7627452819
 20
307.2177801578
 30
0.0
 11
106.5423361212
 21
308.6641260584
 31
0.0
  0
LINE
  5
296
330
1F
100
AcDbEntity
  8
0
  6
Continuous
 62
     7
 48
10.0
370
    15
100
AcDbLine
 10
142.546533239
 20
292.9571884998
 30
0.0
 11
137.8177747589
 21
273.7957788566
 31
0.0
  0
LINE
  5
297
330
1F
100
AcDbEntity
  8
0
  6
Continuous
 62
     7
 48
10.0
370
    15
100
AcDbLine
 10
137.0864996329
 20
275.0062484724
 30
0.0
 11
141.5756608682
 21
293.1967857447
 31
0.0
  0
LINE
  5
298
330
1F
100
AcDbEntity
  8
0
  6
Continuous
 62
     7
 48
10.0
370
    15
100
AcDbLine
 10
142.546533239
 20
292.9571884998
 30
0.0
 11
141.5756608682
 21
293.1967857445
 31
0.0
  0
LINE
  5
299
330
1F
100
AcDbEntity
  8
0
  6
Continuous
 62
     7
 48
10.0
370
    15
100
AcDbLine
 10
139.7931850001
 20
297.1401964776
 30
0.0
 11
129.1776075706
 21
302.6639579898
 31
0.0
  0
SPLINE
  5
29A
330
1F
100
AcDbEntity
  8
0
  6
Continuous
 62
     7
 48
10.0
370
    15
100
AcDbSpline
210
0.0
220
0.0
230
1.0
 70
     8
 71
     3
 72
    20
 73
    16
 74
     0
 42
0.00000001
 43
0.00000001
 40
0.0
 40
0.0
 40
0.0
 40
0.0
 40
0.0419855513733167
 40
0.0836825936932464
 40
0.125218857158228
 40
0.1667235563780534
 40
0.2083262000719072
 40
0.2501553872215627
 40
0.3750418992470173
 40
0.5000469978530357
 40
0.6249332961658093
 40
0.7499386213315421
 40
0.8332864550377994
 40
0.9162950271617027
 40
1.0
 40
1.0
 40
1.0
 40
1.0
 10
141.5756608682283
 20
293.1967857446696
 30
0.0
 10
141.5902536201211
 20
293.260396400009
 30
0.0
 10
141.6193388479572
 20
293.3871806019836
 30
0.0
 10
141.6495924377411
 20
293.5795590368706
 30
0.0
 10
141.6697478861351
 20
293.7724349625226
 30
0.0
 10
141.6788839348897
 20
293.9660255240061
 30
0.0
 10
141.677237597665
 20
294.1602817017025
 30
0.0
 10
141.6565749181382
 20
294.4834502292829
 30
0.0
 10
141.5782053369576
 20
294.9323862690993
 30
0.0
 10
141.3814896867187
 20
295.483372890319
 30
0.0
 10
141.0977660430857
 20
295.9952283349606
 30
0.0
 10
140.7721836025788
 20
296.4013781463433
 30
0.0
 10
140.4426593971085
 20
296.7128197177234
 30
0.0
 10
140.1328344553451
 20
296.9494399678645
 30
0.0
 10
139.9067163342911
 20
297.076434146448
 30
0.0
 10
139.7931850001373
 20
297.1401964776452
 30
0.0
  0
CIRCLE
  5
29B
330
1F
100
AcDbEntity
  8
0
  6
Continuous
 62
     7
 48
100.0
370
    15
100
AcDbCircle
 10
138.1776075706
 20
294.0353761013
 30
0.0
 40
2.500000000000028
  0
CIRCLE
  5
29C
330
1F
100
AcDbEntity
  8
0
  6
Continuous
 62
     7
 48
100.0
370
    15
100
AcDbCircle
 10
134.1776075706
 20
280.0353761013
 30
0.0
 40
2.5
  0
LINE
  5
29D
330
1F
100
AcDbEntity
  8
0
  6
Continuous
 62
     7
 48
10.0
370
    15
100
AcDbLine
 10
139.7931850001
 20
297.1401964776
 30
0.0
 11
140.2547785514
 21
298.0272880137
 31
0.0
  0
LINE
  5
29E
330
1F
100
AcDbEntity
  8
0
  6
Continuous
 62
     7
 48
10.0
370
    15
100
AcDbLine
 10
128.6392011219
 20
304.0713944199
 30
0.0
 11
140.2547785514
 21
298.0272880137
 31
0.0
  0
ARC
  5
29F
330
1F
100
AcDbEntity
  8
0
  6
Continuous
 62
     7
 48
100.0
370
    15
100
AcDbCircle
 10
138.1776075706
 20
294.0353761013
 30
0.0
 40
4.500000000000018
100
AcDbArc
 50
346.1372293499
 51
62.51001565
  0
ARC
  5
2A0
330
1F
100
AcDbEntity
  8
0
  6
Continuous
 62
     7
 48
100.0
370
    15
100
AcDbCircle
 10
88.1776075706
 20
294.0353761013
 30
0.0
 40
4.500000000000038
100
AcDbArc
 50
117.48998435
 51
193.8627706501
  0
CIRCLE
  5
2A1
330
1F
100
AcDbEntity
  8
0
  6
Continuous
 62
     7
 48
100.0
370
    15
100
AcDbCircle
 10
88.1776075706
 20
294.0353761013
 30
0.0
 40
2.5
  0
CIRCLE
  5
2A2
330
1F
100
AcDbEntity
  8
0
  6
Continuous
 62
     7
 48
100.0
370
    15
100
AcDbCircle
 10
92.1776075706
 20
280.0353761013
 30
0.0
 40
2.499999999999986
  0
LINE
  5
2A3
330
1F
100
AcDbEntity
  8
0
  6
Continuous
 62
     7
 48
10.0
370
    15
100
AcDbLine
 10
88.5374403823
 20
273.7957788566
 30
0.0
 11
83.8086819022
 21
292.9571884999
 31
0.0
  0
LINE
  5
2A4
330
1F
100
AcDbEntity
  8
0
  6
Continuous
 62
     7
 48
10.0
370
    15
100
AcDbLine
 10
86.1004365897
 20
298.0272880137
 30
0.0
 11
97.7160140193
 21
304.0713944199
 31
0.0
  0
LWPOLYLINE
  5
2A5
330
1F
100
AcDbEntity
  8
0
  6
Continuous
 62
     8
 48
10.0
370
    15
100
AcDbPolyline
 90
        3
 70
   128
 43
0.0
 10
119.2464104166
 20
318.1760332099
 10
119.228685526
 20
317.9878534071
 10
119.1987802381
 20
317.8754303112
  0
SPLINE
  5
2A6
330
1F
100
AcDbEntity
  8
0
  6
Continuous
 62
     8
 48
10.0
370
    15
100
AcDbSpline
210
0.0
220
0.0
230
1.0
 70
     8
 71
     3
 72
    15
 73
    11
 74
     0
 42
0.00000001
 43
0.00000001
 40
0.0
 40
0.0
 40
0.0
 40
0.0
 40
0.0233632211886227
 40
0.162884075526064
 40
0.2999189472565662
 40
0.4419236654681074
 40
0.5773377083193642
 40
0.7154873737472954
 40
0.8563743220153823
 40
1.0
 40
1.0
 40
1.0
 40
1.0
 10
118.2385611580257
 20
317.1511656993466
 30
0.0
 10
118.2380052395881
 20
317.1459610996106
 30
0.0
 10
118.23412947862
 20
317.1096755887366
 30
0.0
 10
118.2264908360124
 20
317.2607705606355
 30
0.0
 10
118.2173688483561
 20
317.6040407473144
 30
0.0
 10
118.2111645550064
 20
318.1357293665097
 30
0.0
 10
118.2077536186595
 20
318.7738483524679
 30
0.0
 10
118.2078494732628
 20
319.4487400563718
 30
0.0
 10
118.2108855142794
 20
320.1139685206717
 30
0.0
 10
118.215536390882
 20
320.4542832455652
 30
0.0
 10
118.2178842139438
 20
320.6260785494669
 30
0.0
  0
LINE
  5
2A7
330
1F
100
AcDbEntity
  8
0
  6
Continuous
 62
     8
 48
10.0
370
    15
100
AcDbLine
 10
119.2377849805
 20
322.3853761011
 30
0.0
 11
119.2382518163
 21
322.3853761011
 31
0.0
  0
LINE
  5
2A8
330
1F
100
AcDbEntity
  8
0
  6
Continuous
 62
     8
 48
10.0
370
    15
100
AcDbLine
 10
119.298904945
 20
324.3853761013
 30
0.0
 11
119.2952301433
 21
324.2997051178
 31
0.0
  0
LINE
  5
2A9
330
1F
100
AcDbEntity
  8
0
  6
Continuous
 62
     8
 48
10.0
370
    15
100
AcDbLine
 10
120.6831521754
 20
289.8135374089
 30
0.0
 11
120.682406042
 21
289.8627706722
 31
0.0
  0
SPLINE
  5
2AA
330
1F
100
AcDbEntity
  8
0
  6
Continuous
 62
     8
 48
10.0
370
    15
100
AcDbSpline
210
0.0
220
0.0
230
1.0
 70
     8
 71
     3
 72
    13
 73
     9
 74
     0
 42
0.00000001
 43
0.00000001
 40
0.0
 40
0.0
 40
0.0
 40
0.0
 40
0.0410825498403755
 40
0.1989438604249573
 40
0.4246571627163163
 40
0.6334225790372371
 40
0.8252119567437523
 40
1.0
 40
1.0
 40
1.0
 40
1.0
 10
119.7414264324289
 20
286.6433783227063
 30
0.0
 10
119.7408743662854
 20
286.6410981884498
 30
0.0
 10
119.7382009643129
 20
286.6300565487989
 30
0.0
 10
119.7323275911737
 20
286.7127435467132
 30
0.0
 10
119.7246644331989
 20
286.9404752354148
 30
0.0
 10
119.7181942082037
 20
287.3398415740676
 30
0.0
 10
119.7135917083454
 20
287.7979034505474
 30
0.0
 10
119.7122442864322
 20
288.1294746869842
 30
0.0
 10
119.7116018212224
 20
288.2875714062656
 30
0.0
  0
LWPOLYLINE
  5
2AB
330
1F
100
AcDbEntity
  8
0
  6
Continuous
 62
     8
 48
10.0
370
    15
100
AcDbPolyline
 90
        3
 70
   128
 43
0.0
 10
120.7325987571
 20
289.5947189381
 10
120.7119319384
 20
289.7808708305
 10
120.680241881
 20
289.8934066647
  0
LINE
  5
2AC
330
1F
100
AcDbEntity
  8
0
  6
Continuous
 62
     8
 48
10.0
370
    15
100
AcDbLine
 10
120.8095563729
 20
288.6353761013
 30
0.0
 11
120.8062495367
 21
288.5540999411
 31
0.0
  0
LINE
  5
2AD
330
1F
100
AcDbEntity
  8
0
  6
Continuous
 62
     8
 48
10.0
370
    15
100
AcDbLine
 10
121.1459611216
 20
287.3020402523
 30
0.0
 11
120.6721093259
 21
287.3020402523
 31
0.0
  0
SPLINE
  5
2AE
330
1F
100
AcDbEntity
  8
0
  6
Continuous
 62
     8
 48
10.0
370
    15
100
AcDbSpline
210
0.0
220
0.0
230
1.0
 70
     8
 71
     3
 72
    11
 73
     7
 74
     0
 42
0.00000001
 43
0.00000001
 40
0.0
 40
0.0
 40
0.0
 40
0.0
 40
0.2261160702444884
 40
0.4462004772757873
 40
0.6488025842909912
 40
1.0
 40
1.0
 40
1.0
 40
1.0
 10
121.1686219646349
 20
290.6148469540871
 30
0.0
 10
121.166261384548
 20
290.6129087274903
 30
0.0
 10
121.1616031930258
 20
290.6090839766371
 30
0.0
 10
121.1551090067661
 20
290.4385146861772
 30
0.0
 10
121.1481035304869
 20
290.1524903392614
 30
0.0
 10
121.1445339231431
 20
289.8358369844574
 30
0.0
 10
121.1422702215276
 20
289.6350281442192
 30
0.0
  0
SPLINE
  5
2AF
330
1F
100
AcDbEntity
  8
0
  6
Continuous
 62
     8
 48
10.0
370
    15
100
AcDbSpline
210
0.0
220
0.0
230
1.0
 70
     8
 71
     3
 72
    10
 73
     6
 74
     0
 42
0.00000001
 43
0.00000001
 40
0.0
 40
0.0
 40
0.0
 40
0.0
 40
0.1796444968850977
 40
0.5472359806795619
 40
0.9999999999999999
 40
0.9999999999999999
 40
0.9999999999999999
 40
0.9999999999999999
 10
121.1689418297319
 20
286.6709664031869
 30
0.0
 10
121.1674580327153
 20
286.6618433148077
 30
0.0
 10
121.1629380661723
 20
286.6340524149884
 30
0.0
 10
121.1548478165571
 20
286.8320114448046
 30
0.0
 10
121.1491215285082
 20
287.1348822374385
 30
0.0
 10
121.1459611216078
 20
287.3020402523321
 30
0.0
  0
LINE
  5
2B0
330
1F
100
AcDbEntity
  8
0
  6
Continuous
 62
     8
 48
10.0
370
    15
100
AcDbLine
 10
121.7343128568
 20
298.975075492
 30
0.0
 11
121.2342726403
 21
290.6209167526
 31
0.0
  0
LINE
  5
2B1
330
1F
100
AcDbEntity
  8
0
  6
Continuous
 62
     8
 48
10.0
370
    15
100
AcDbLine
 10
122.2278044858
 20
289.5923637326
 30
0.0
 11
122.2291239235
 21
289.6521118048
 31
0.0
  0
LINE
  5
2B2
330
1F
100
AcDbEntity
  8
0
  6
Continuous
 62
     8
 48
10.0
370
    15
100
AcDbLine
 10
121.7343128092
 20
298.9750746959
 30
0.0
 11
120.2332328657
 21
298.9750747777
 31
0.0
  0
LINE
  5
2B3
330
1F
100
AcDbEntity
  8
0
  6
Continuous
 62
     8
 48
10.0
370
    15
100
AcDbLine
 10
113.4276075706
 20
277.3790966925
 30
0.0
 11
113.4276075706
 21
277.3454273708
 31
0.0
  0
LINE
  5
2B4
330
1F
100
AcDbEntity
  8
0
  6
Continuous
 62
     8
 48
10.0
370
    15
100
AcDbLine
 10
120.2018919317
 20
299.6108832724
 30
0.0
 11
121.7656215165
 21
299.6108870586
 31
0.0
  0
LINE
  5
2B5
330
1F
100
AcDbEntity
  8
0
  6
Continuous
 62
     8
 48
10.0
370
    15
100
AcDbLine
 10
122.7648070459
 20
297.0332830192
 30
0.0
 11
122.6731855309
 21
297.0332830192
 31
0.0
  0
SPLINE
  5
2B6
330
1F
100
AcDbEntity
  8
0
  6
Continuous
 62
     8
 48
10.0
370
    15
100
AcDbSpline
210
0.0
220
0.0
230
1.0
 70
     8
 71
     3
 72
    13
 73
     9
 74
     0
 42
0.00000001
 43
0.00000001
 40
0.0
 40
0.0
 40
0.0
 40
0.0
 40
0.3012584785909945
 40
0.4661408024222473
 40
0.6400228734346449
 40
0.8004020430507629
 40
0.9607825898832765
 40
1.0
 40
1.0
 40
1.0
 40
1.0
 10
121.7656212510628
 20
299.6108870585139
 30
0.0
 10
121.7671277881432
 20
299.859501382151
 30
0.0
 10
121.7694588707632
 20
300.2441852617747
 30
0.0
 10
121.7754681458644
 20
300.6476238210041
 30
0.0
 10
121.7810185909076
 20
300.892862872152
 30
0.0
 10
121.787109173622
 20
301.042848450898
 30
0.0
 10
121.7916160336444
 20
301.107994470077
 30
0.0
 10
121.7942621976215
 20
301.0954724908242
 30
0.0
 10
121.7947821212696
 20
301.0930121470245
 30
0.0
  0
LINE
  5
2B7
330
1F
100
AcDbEntity
  8
0
  6
Continuous
 62
     8
 48
10.0
370
    15
100
AcDbLine
 10
122.2819869073
 20
290.4975819251
 30
0.0
 11
122.7648070459
 21
290.4975819251
 31
0.0
  0
LINE
  5
2B8
330
1F
100
AcDbEntity
  8
0
  6
Continuous
 62
     8
 48
10.0
370
    15
100
AcDbLine
 10
104.0073438163
 20
290.4975819251
 30
0.0
 11
103.5904080952
 21
290.4975819251
 31
0.0
  0
ARC
  5
2B9
330
1F
100
AcDbEntity
  8
0
  6
Continuous
 62
     8
 48
100.0
370
    15
100
AcDbCircle
 10
122.0031996889
 20
300.0944141352
 30
0.0
 40
0.8526840806277818
100
AcDbArc
 50
1.5784116922
 51
45.0829738272
  0
LINE
  5
2BA
330
1F
100
AcDbEntity
  8
0
  6
Continuous
 62
     8
 48
10.0
370
    15
100
AcDbLine
 10
106.4271387014
 20
306.3271345005
 30
0.0
 11
103.1942707319
 21
306.3271345005
 31
0.0
  0
LINE
  5
2BB
330
1F
100
AcDbEntity
  8
0
  6
Continuous
 62
     8
 48
10.0
370
    15
100
AcDbLine
 10
122.1743721487
 20
306.3271345005
 30
0.0
 11
121.8609213801
 21
301.0903207581
 31
0.0
  0
LINE
  5
2BC
330
1F
100
AcDbEntity
  8
0
  6
Continuous
 62
     8
 48
10.0
370
    15
100
AcDbLine
 10
122.1743721487
 20
306.3271325353
 30
0.0
 11
119.8708275696
 21
306.3271328274
 31
0.0
  0
LINE
  5
2BD
330
1F
100
AcDbEntity
  8
0
  6
Continuous
 62
     8
 48
10.0
370
    15
100
AcDbLine
 10
123.0798455628
 20
302.7266562555
 30
0.0
 11
123.1776075705
 21
302.7266562555
 31
0.0
  0
LINE
  5
2BE
330
1F
100
AcDbEntity
  8
0
  6
Continuous
 62
     8
 48
10.0
370
    15
100
AcDbLine
 10
103.1776075706
 20
302.7266562555
 30
0.0
 11
103.2753695784
 21
302.7266562555
 31
0.0
  0
LINE
  5
2BF
330
1F
100
AcDbEntity
  8
0
  6
Continuous
 62
     8
 48
10.0
370
    15
100
AcDbLine
 10
119.8269248546
 20
307.2177801578
 30
0.0
 11
120.4260617776
 21
307.2177801578
 31
0.0
  0
LINE
  5
2C0
330
1F
100
AcDbEntity
  8
0
  6
Continuous
 62
     8
 48
10.0
370
    15
100
AcDbLine
 10
106.4710413339
 20
307.2177801578
 30
0.0
 11
103.7627452819
 21
307.2177801578
 31
0.0
  0
SPLINE
  5
2C1
330
1F
100
AcDbEntity
  8
0
  6
Continuous
 62
     8
 48
10.0
370
    15
100
AcDbSpline
210
0.0
220
0.0
230
1.0
 70
    24
 71
     3
 72
    11
 73
     7
 74
     0
 42
0.00000001
 43
0.00000001
 40
0.0
 40
0.0
 40
0.0
 40
0.0
 40
0.1450323042775803
 40
0.4300215361850532
 40
0.7150107680925265
 40
1.0
 40
1.0
 40
1.0
 40
1.0
 10
123.5901953242323
 20
306.65647837669
 30
0.0
 10
123.585912623664
 20
306.6482478730033
 30
0.0
 10
123.5732143942138
 20
306.6238443867832
 30
0.0
 10
123.4785287984216
 20
306.4418773935718
 30
0.0
 10
123.3276556776001
 20
306.1519290870461
 30
0.0
 10
123.2064567300533
 20
305.9190086741684
 30
0.0
 10
123.14585725628
 20
305.8025484677297
 30
0.0
  0
LINE
  5
2C2
330
1F
100
AcDbEntity
  8
0
  6
Continuous
 62
     8
 48
10.0
370
    15
100
AcDbLine
 10
119.8111528199
 20
307.5377448942
 30
0.0
 11
120.4260617776
 21
307.2177801578
 31
0.0
  0
DIMENSION
  5
2C3
330
1F
100
AcDbEntity
  8
SLD-0
 48
10.0
100
AcDbDimension
  2
*D11
 10
88.1776075706
 20
341.3148455675
 30
0.0
 11
111.221626562
 21
341.3148455675
 31
0.0
 70
   160
 71
     2
 42
-1.0
 73
     0
 74
     0
 75
     0
  3
SLDDIMSTYLE0
100
AcDbAlignedDimension
 13
138.1776075706
 23
294.0353761013
 33
0.0
 14
88.1776075706
 24
294.0353761013
 34
0.0
100
AcDbRotatedDimension
  0
DIMENSION
  5
2CD
330
1F
100
AcDbEntity
  8
SLD-0
 48
10.0
100
AcDbDimension
  2
*D12
 10
134.1776075706
 20
328.5004464715
 30
0.0
 11
111.221626562
 21
328.5004464715
 31
0.0
 70
   160
 71
     2
 42
-1.0
 73
     0
 74
     0
 75
     0
  3
SLDDIMSTYLE0
100
AcDbAlignedDimension
 13
92.1776075706
 23
280.0353761013
 33
0.0
 14
134.1776075706
 24
280.0353761013
 34
0.0
100
AcDbRotatedDimension
  0
DIMENSION
  5
2D7
330
1F
100
AcDbEntity
  8
SLD-0
 48
10.0
100
AcDbDimension
  2
*D13
 10
129.1699360194
 20
233.0350377809
 30
0.0
 11
111.221626562
 21
233.0350377809
 31
0.0
 70
   160
 71
     2
 42
-1.0
 73
     0
 74
     0
 75
     0
  3
SLDDIMSTYLE0
100
AcDbAlignedDimension
 13
97.1852791218
 23
257.5353761013
 33
0.0
 14
129.1699360194
 24
257.5353761013
 34
0.0
100
AcDbRotatedDimension
  0
DIMENSION
  5
2E1
330
1F
100
AcDbEntity
  8
SLD-0
 48
10.0
100
AcDbDimension
  2
*D14
 10
136.9276075706
 20
291.8703125919
 30
0.0
 11
161.7007982309
 21
334.7787228401
 31
0.0
 70
   163
  1
<>
 71
     1
 42
-1.0
 73
     0
 74
     0
 75
     0
  3
SLDDIMSTYLE1
100
AcDbDiametricDimension
 15
139.4276075706
 25
296.2004396108
 35
0.0
 40
0.0
  0
DIMENSION
  5
2EB
330
1F
100
AcDbEntity
  8
SLD-0
 48
10.0
100
AcDbDimension
  2
*D15
 10
83.6776075706
 20
353.1776292376
 30
0.0
 11
114.2260128807
 21
353.1776292376
 31
0.0
 70
   160
 71
     2
 42
-1.0
 73
     0
 74
     0
 75
     0
  3
SLDDIMSTYLE0
100
AcDbAlignedDimension
 13
142.6776075706
 23
294.0353761013
 33
0.0
 14
83.6776075706
 24
294.0353761013
 34
0.0
100
AcDbRotatedDimension
  0
INSERT
  5
300
330
1F
100
AcDbEntity
  8
0
  6
Continuous
 62
     7
 48
10.0
370
     0
100
AcDbBlockReference
  2
SW_CENTERMARKSYMBOL_1
 10
138.1776075706
 20
294.0353761013
 30
0.0
  0
INSERT
  5
30C
330
1F
100
AcDbEntity
  8
0
  6
Continuous
 62
     7
 48
10.0
370
     0
100
AcDbBlockReference
  2
SW_CENTERMARKSYMBOL_2
 10
88.1776075706
 20
294.0353761013
 30
0.0
  0
INSERT
  5
318
330
1F
100
AcDbEntity
  8
0
  6
Continuous
 62
     7
 48
10.0
370
     0
100
AcDbBlockReference
  2
SW_CENTERMARKSYMBOL_3
 10
134.1776075706
 20
280.0353761013
 30
0.0
  0
INSERT
  5
324
330
1F
100
AcDbEntity
  8
0
  6
Continuous
 62
     7
 48
10.0
370
     0
100
AcDbBlockReference
  2
SW_CENTERMARKSYMBOL_4
 10
92.1776075706
 20
280.0353761013
 30
0.0
  0
ENDSEC
  0
SECTION
  2
OBJECTS
  0
DICTIONARY
  5
C
330
0
100
AcDbDictionary
281
     1
  3
ACAD_GROUP
350
D
  3
ACAD_IMAGE_DICT
350
73
  3
ACAD_IMAGE_VARS
350
349
  3
ACAD_LAYOUT
350
1A
  3
ACAD_MATERIAL
350
3B
  3
ACAD_MLEADERSTYLE
350
348
  3
ACAD_MLINESTYLE
350
17
  3
ACAD_PLOTSETTINGS
350
19
  3
ACAD_PLOTSTYLENAME
350
E
  3
ACAD_SCALELIST
350
4A
  3
ACAD_TABLESTYLE
350
347
  3
ACAD_VISUALSTYLE
350
2A
  3
AcDbVariableDictionary
350
325
  0
IMAGEDEF_REACTOR
  5
76
330
75
100
AcDbRasterImageDefReactor
 90
        2
330
75
  0
DICTIONARY
  5
D
102
{ACAD_REACTORS
330
C
102
}
330
C
100
AcDbDictionary
281
     1
  0
DICTIONARY
  5
73
102
{ACAD_REACTORS
330
C
102
}
330
C
100
AcDbDictionary
281
     1
  3
S:\MWDesign CLIENT L -Z\Marley NZ\RAINWATER PRODUCTS\12-501 illustration of rainwater products\12-501 CAD\dxf19F.bmp
350
74
  0
RASTERVARIABLES
  5
349
102
{ACAD_REACTORS
330
C
102
}
330
C
100
AcDbRasterVariables
 90
        0
 70
     1
 71
     1
 72
     1
  0
DICTIONARY
  5
1A
102
{ACAD_REACTORS
330
C
102
}
330
C
100
AcDbDictionary
281
     1
  3
Layout1
350
1E
  3
Layout2
350
26
  3
Model
350
22
  0
DICTIONARY
  5
3B
102
{ACAD_REACTORS
330
C
102
}
330
C
100
AcDbDictionary
281
     1
  3
ByBlock
350
3D
  3
ByLayer
350
3C
  3
Global
350
3E
  0
DICTIONARY
  5
348
102
{ACAD_REACTORS
330
C
102
}
330
C
100
AcDbDictionary
281
     1
  0
DICTIONARY
  5
17
102
{ACAD_REACTORS
330
C
102
}
330
C
100
AcDbDictionary
281
     1
  3
Standard
350
18
  0
DICTIONARY
  5
19
102
{ACAD_REACTORS
330
C
102
}
330
C
100
AcDbDictionary
281
     1
  0
ACDBDICTIONARYWDFLT
  5
E
102
{ACAD_REACTORS
330
C
102
}
330
C
100
AcDbDictionary
281
     1
  3
Normal
350
F
100
AcDbDictionaryWithDefault
340
F
  0
DICTIONARY
  5
4A
102
{ACAD_REACTORS
330
C
102
}
330
C
100
AcDbDictionary
281
     1
  3
A0
350
4B
  3
A1
350
4C
  3
A2
350
4D
  3
A3
350
4E
  3
A4
350
4F
  3
A5
350
50
  3
A6
350
51
  3
A7
350
52
  3
A8
350
53
  3
A9
350
54
  3
B0
350
55
  3
B1
350
56
  3
B2
350
57
  3
B3
350
58
  3
B4
350
59
  3
B5
350
5A
  3
B6
350
5B
  3
B7
350
5C
  3
B8
350
5D
  3
B9
350
5E
  3
C0
350
5F
  3
C1
350
60
  3
C2
350
61
  3
C3
350
62
  3
C4
350
63
  3
C5
350
64
  3
C6
350
65
  3
C7
350
66
  3
C8
350
67
  3
C9
350
68
  3
D0
350
69
  3
D1
350
6A
  3
D2
350
6B
  0
DICTIONARY
  5
347
102
{ACAD_REACTORS
330
C
102
}
330
C
100
AcDbDictionary
281
     1
  0
DICTIONARY
  5
2A
102
{ACAD_REACTORS
330
C
102
}
330
C
100
AcDbDictionary
281
     1
  3
2dWireframe
350
2F
  3
3D Hidden
350
31
  3
3dWireframe
350
30
  3
Basic
350
32
  3
Brighten
350
36
  3
ColorChange
350
3A
  3
Conceptual
350
34
  3
Dim
350
35
  3
Facepattern
350
39
  3
Flat
350
2B
  3
FlatWithEdges
350
2C
  3
Gouraud
350
2D
  3
GouraudWithEdges
350
2E
  3
Linepattern
350
38
  3
Realistic
350
33
  3
Thicken
350
37
  0
DICTIONARY
  5
325
102
{ACAD_REACTORS
330
C
102
}
330
C
100
AcDbDictionary
281
     1
  3
CANNOSCALE
350
326
  0
IMAGEDEF
  5
74
102
{ACAD_REACTORS
330
73
330
76
102
}
330
73
100
AcDbRasterImageDef
 90
        0
  1
S:\MWDesign CLIENT L -Z\Marley NZ\RAINWATER PRODUCTS\12-501 illustration of rainwater products\12-501 CAD\dxf19F.bmp
 10
394.0
 20
64.0
 11
0.2645502645502645
 21
0.2645502645502645
280
     1
281
     3
  0
LAYOUT
  5
1E
102
{ACAD_REACTORS
330
1A
102
}
330
1A
100
AcDbPlotSettings
  1

  2
none_device
  4

  6

 40
0.0
 41
0.0
 42
0.0
 43
0.0
 44
0.0
 45
0.0
 46
0.0
 47
0.0
 48
0.0
 49
0.0
140
0.0
141
0.0
142
1.0
143
1.0
 70
   688
 72
     0
 73
     0
 74
     5
  7

 75
    16
 76
     0
 77
     2
 78
   300
147
1.0
148
0.0
149
0.0
100
AcDbLayout
  1
Layout1
 70
     1
 71
     1
 10
0.0
 20
0.0
 11
420.0
 21
297.0
 12
0.0
 22
0.0
 32
0.0
 14
1.0000000000E+20
 24
1.0000000000E+20
 34
1.0000000000E+20
 15
-1.0000000000E+20
 25
-1.0000000000E+20
 35
-1.0000000000E+20
146
0.0
 13
0.0
 23
0.0
 33
0.0
 16
1.0
 26
0.0
 36
0.0
 17
0.0
 27
1.0
 37
0.0
 76
     0
330
1B
  0
LAYOUT
  5
26
102
{ACAD_REACTORS
330
1A
102
}
330
1A
100
AcDbPlotSettings
  1

  2
none_device
  4

  6

 40
0.0
 41
0.0
 42
0.0
 43
0.0
 44
0.0
 45
0.0
 46
0.0
 47
0.0
 48
0.0
 49
0.0
140
0.0
141
0.0
142
1.0
143
1.0
 70
   688
 72
     0
 73
     0
 74
     5
  7

 75
    16
 76
     0
 77
     2
 78
   300
147
1.0
148
0.0
149
0.0
100
AcDbLayout
  1
Layout2
 70
     1
 71
     2
 10
0.0
 20
0.0
 11
0.0
 21
0.0
 12
0.0
 22
0.0
 32
0.0
 14
0.0
 24
0.0
 34
0.0
 15
0.0
 25
0.0
 35
0.0
146
0.0
 13
0.0
 23
0.0
 33
0.0
 16
1.0
 26
0.0
 36
0.0
 17
0.0
 27
1.0
 37
0.0
 76
     0
330
23
  0
LAYOUT
  5
22
102
{ACAD_REACTORS
330
1A
102
}
330
1A
100
AcDbPlotSettings
  1

  2
none_device
  4

  6

 40
0.0
 41
0.0
 42
0.0
 43
0.0
 44
0.0
 45
0.0
 46
0.0
 47
0.0
 48
0.0
 49
0.0
140
0.0
141
0.0
142
1.0
143
1.0
 70
  1712
 72
     0
 73
     0
 74
     0
  7

 75
     0
 76
     0
 77
     2
 78
   300
147
1.0
148
0.0
149
0.0
100
AcDbLayout
  1
Model
 70
     1
 71
     0
 10
0.0
 20
0.0
 11
420.0
 21
594.0
 12
0.0
 22
0.0
 32
0.0
 14
0.0
 24
0.0
 34
0.0
 15
420.0
 25
594.0
 35
0.0
146
0.0
 13
0.0
 23
0.0
 33
0.0
 16
1.0
 26
0.0
 36
0.0
 17
0.0
 27
1.0
 37
0.0
 76
     0
330
1F
331
29
  0
MATERIAL
  5
3D
102
{ACAD_REACTORS
330
3B
102
}
330
3B
100
AcDbMaterial
  1
ByBlock
 72
     1
 94
      127
  0
MATERIAL
  5
3C
102
{ACAD_REACTORS
330
3B
102
}
330
3B
100
AcDbMaterial
  1
ByLayer
 72
     1
 94
      127
  0
MATERIAL
  5
3E
102
{ACAD_REACTORS
330
3B
102
}
330
3B
100
AcDbMaterial
  1
Global
 72
     1
 94
      127
  0
MLINESTYLE
  5
18
102
{ACAD_REACTORS
330
17
102
}
330
17
100
AcDbMlineStyle
  2
Standard
 70
     0
  3

 62
   256
 51
90.0
 52
90.0
 71
     2
 49
0.5
 62
   256
  6
BYLAYER
 49
-0.5
 62
   256
  6
BYLAYER
  0
ACDBPLACEHOLDER
  5
F
102
{ACAD_REACTORS
330
E
102
}
330
E
  0
SCALE
  5
4B
102
{ACAD_REACTORS
330
4A
102
}
330
4A
100
AcDbScale
 70
     0
300
1:1
140
1.0
141
1.0
290
     1
  0
SCALE
  5
4C
102
{ACAD_REACTORS
330
4A
102
}
330
4A
100
AcDbScale
 70
     0
300
1:2
140
1.0
141
2.0
290
     0
  0
SCALE
  5
4D
102
{ACAD_REACTORS
330
4A
102
}
330
4A
100
AcDbScale
 70
     0
300
1:4
140
1.0
141
4.0
290
     0
  0
SCALE
  5
4E
102
{ACAD_REACTORS
330
4A
102
}
330
4A
100
AcDbScale
 70
     0
300
1:5
140
1.0
141
5.0
290
     0
  0
SCALE
  5
4F
102
{ACAD_REACTORS
330
4A
102
}
330
4A
100
AcDbScale
 70
     0
300
1:8
140
1.0
141
8.0
290
     0
  0
SCALE
  5
50
102
{ACAD_REACTORS
330
4A
102
}
330
4A
100
AcDbScale
 70
     0
300
1:10
140
1.0
141
10.0
290
     0
  0
SCALE
  5
51
102
{ACAD_REACTORS
330
4A
102
}
330
4A
100
AcDbScale
 70
     0
300
1:16
140
1.0
141
16.0
290
     0
  0
SCALE
  5
52
102
{ACAD_REACTORS
330
4A
102
}
330
4A
100
AcDbScale
 70
     0
300
1:20
140
1.0
141
20.0
290
     0
  0
SCALE
  5
53
102
{ACAD_REACTORS
330
4A
102
}
330
4A
100
AcDbScale
 70
     0
300
1:30
140
1.0
141
30.0
290
     0
  0
SCALE
  5
54
102
{ACAD_REACTORS
330
4A
102
}
330
4A
100
AcDbScale
 70
     0
300
1:40
140
1.0
141
40.0
290
     0
  0
SCALE
  5
55
102
{ACAD_REACTORS
330
4A
102
}
330
4A
100
AcDbScale
 70
     0
300
1:50
140
1.0
141
50.0
290
     0
  0
SCALE
  5
56
102
{ACAD_REACTORS
330
4A
102
}
330
4A
100
AcDbScale
 70
     0
300
1:100
140
1.0
141
100.0
290
     0
  0
SCALE
  5
57
102
{ACAD_REACTORS
330
4A
102
}
330
4A
100
AcDbScale
 70
     0
300
2:1
140
2.0
141
1.0
290
     0
  0
SCALE
  5
58
102
{ACAD_REACTORS
330
4A
102
}
330
4A
100
AcDbScale
 70
     0
300
4:1
140
4.0
141
1.0
290
     0
  0
SCALE
  5
59
102
{ACAD_REACTORS
330
4A
102
}
330
4A
100
AcDbScale
 70
     0
300
8:1
140
8.0
141
1.0
290
     0
  0
SCALE
  5
5A
102
{ACAD_REACTORS
330
4A
102
}
330
4A
100
AcDbScale
 70
     0
300
10:1
140
10.0
141
1.0
290
     0
  0
SCALE
  5
5B
102
{ACAD_REACTORS
330
4A
102
}
330
4A
100
AcDbScale
 70
     0
300
100:1
140
100.0
141
1.0
290
     0
  0
SCALE
  5
5C
102
{ACAD_REACTORS
330
4A
102
}
330
4A
100
AcDbScale
 70
     0
300
1/128" = 1'-0"
140
0.0078125
141
12.0
290
     0
  0
SCALE
  5
5D
102
{ACAD_REACTORS
330
4A
102
}
330
4A
100
AcDbScale
 70
     0
300
1/64" = 1'-0"
140
0.015625
141
12.0
290
     0
  0
SCALE
  5
5E
102
{ACAD_REACTORS
330
4A
102
}
330
4A
100
AcDbScale
 70
     0
300
1/32" = 1'-0"
140
0.03125
141
12.0
290
     0
  0
SCALE
  5
5F
102
{ACAD_REACTORS
330
4A
102
}
330
4A
100
AcDbScale
 70
     0
300
1/16" = 1'-0"
140
0.0625
141
12.0
290
     0
  0
SCALE
  5
60
102
{ACAD_REACTORS
330
4A
102
}
330
4A
100
AcDbScale
 70
     0
300
3/32" = 1'-0"
140
0.09375
141
12.0
290
     0
  0
SCALE
  5
61
102
{ACAD_REACTORS
330
4A
102
}
330
4A
100
AcDbScale
 70
     0
300
1/8" = 1'-0"
140
0.125
141
12.0
290
     0
  0
SCALE
  5
62
102
{ACAD_REACTORS
330
4A
102
}
330
4A
100
AcDbScale
 70
     0
300
3/16" = 1'-0"
140
0.1875
141
12.0
290
     0
  0
SCALE
  5
63
102
{ACAD_REACTORS
330
4A
102
}
330
4A
100
AcDbScale
 70
     0
300
1/4" = 1'-0"
140
0.25
141
12.0
290
     0
  0
SCALE
  5
64
102
{ACAD_REACTORS
330
4A
102
}
330
4A
100
AcDbScale
 70
     0
300
3/8" = 1'-0"
140
0.375
141
12.0
290
     0
  0
SCALE
  5
65
102
{ACAD_REACTORS
330
4A
102
}
330
4A
100
AcDbScale
 70
     0
300
1/2" = 1'-0"
140
0.5
141
12.0
290
     0
  0
SCALE
  5
66
102
{ACAD_REACTORS
330
4A
102
}
330
4A
100
AcDbScale
 70
     0
300
3/4" = 1'-0"
140
0.75
141
12.0
290
     0
  0
SCALE
  5
67
102
{ACAD_REACTORS
330
4A
102
}
330
4A
100
AcDbScale
 70
     0
300
1" = 1'-0"
140
1.0
141
12.0
290
     0
  0
SCALE
  5
68
102
{ACAD_REACTORS
330
4A
102
}
330
4A
100
AcDbScale
 70
     0
300
1-1/2" = 1'-0"
140
1.5
141
12.0
290
     0
  0
SCALE
  5
69
102
{ACAD_REACTORS
330
4A
102
}
330
4A
100
AcDbScale
 70
     0
300
3" = 1'-0"
140
3.0
141
12.0
290
     0
  0
SCALE
  5
6A
102
{ACAD_REACTORS
330
4A
102
}
330
4A
100
AcDbScale
 70
     0
300
6" = 1'-0"
140
6.0
141
12.0
290
     0
  0
SCALE
  5
6B
102
{ACAD_REACTORS
330
4A
102
}
330
4A
100
AcDbScale
 70
     0
300
1'-0" = 1'-0"
140
12.0
141
12.0
290
     0
  0
VISUALSTYLE
  5
2F
102
{ACAD_REACTORS
330
2A
102
}
102
{ACAD_XDICTIONARY
360
32F
102
}
330
2A
100
AcDbVisualStyle
  2
2dWireframe
 70
     4
 71
     0
 72
     2
 73
     0
 90
        0
 40
-0.6
 41
-30.0
 62
     5
 63
     7
421
 16777215
 74
     1
 91
        4
 64
     7
 65
   257
 75
     1
175
     1
 42
1.0
 92
        0
 66
   257
 43
1.0
 76
     1
 77
     6
 78
     2
 67
     7
 79
     5
170
     0
171
     0
290
     0
174
     0
 93
        1
 44
0.0
173
     0
291
     0
 45
0.0
  0
VISUALSTYLE
  5
31
102
{ACAD_REACTORS
330
2A
102
}
102
{ACAD_XDICTIONARY
360
333
102
}
330
2A
100
AcDbVisualStyle
  2
3D Hidden
 70
     6
 71
     1
 72
     2
 73
     2
 90
        0
 40
-0.6
 41
-30.0
 62
     5
 63
     7
421
 16777215
 74
     2
 91
        2
 64
     7
 65
   257
 75
     2
175
     1
 42
40.0
 92
        0
 66
   257
 43
1.0
 76
     1
 77
     6
 78
     2
 67
     7
 79
     3
170
     0
171
     0
290
     0
174
     0
 93
        1
 44
0.0
173
     0
291
     0
 45
0.0
  0
VISUALSTYLE
  5
30
102
{ACAD_REACTORS
330
2A
102
}
102
{ACAD_XDICTIONARY
360
331
102
}
330
2A
100
AcDbVisualStyle
  2
3dWireframe
 70
     5
 71
     0
 72
     2
 73
     0
 90
        0
 40
-0.6
 41
-30.0
 62
     5
 63
     7
421
 16777215
 74
     1
 91
        4
 64
     7
 65
   257
 75
     1
175
     1
 42
1.0
 92
        0
 66
   257
 43
1.0
 76
     1
 77
     6
 78
     2
 67
     7
 79
     5
170
     0
171
     0
290
     0
174
     0
 93
        1
 44
0.0
173
     0
291
     0
 45
0.0
  0
VISUALSTYLE
  5
32
102
{ACAD_REACTORS
330
2A
102
}
102
{ACAD_XDICTIONARY
360
335
102
}
330
2A
100
AcDbVisualStyle
  2
Basic
 70
     7
 71
     1
 72
     0
 73
     1
 90
        0
 40
-0.6
 41
-30.0
 62
     5
 63
     7
421
 16777215
 74
     0
 91
        4
 64
     7
 65
   257
 75
     1
175
     1
 42
1.0
 92
        8
 66
     7
 43
1.0
 76
     1
 77
     6
 78
     2
 67
     7
 79
     5
170
     0
171
     0
290
     0
174
     0
 93
        1
 44
0.0
173
     0
291
     1
 45
0.0
  0
VISUALSTYLE
  5
36
102
{ACAD_REACTORS
330
2A
102
}
102
{ACAD_XDICTIONARY
360
33D
102
}
330
2A
100
AcDbVisualStyle
  2
Brighten
 70
    12
 71
     2
 72
     2
 73
     0
 90
        0
 40
-0.6
 41
-30.0
 62
     5
 63
     7
421
 16777215
 74
     1
 91
        4
 64
     7
 65
   257
 75
     1
175
     1
 42
1.0
 92
        8
 66
     7
 43
1.0
 76
     1
 77
     6
 78
     2
 67
     7
 79
     5
170
     0
171
     0
290
     0
174
     0
 93
        1
 44
50.0
173
     0
291
     1
 45
0.0
  0
VISUALSTYLE
  5
3A
102
{ACAD_REACTORS
330
2A
102
}
102
{ACAD_XDICTIONARY
360
345
102
}
330
2A
100
AcDbVisualStyle
  2
ColorChange
 70
    16
 71
     2
 72
     2
 73
     3
 90
        0
 40
-0.6
 41
-30.0
 62
     5
 63
     8
421
  8421504
 74
     1
 91
        4
 64
     7
 65
   257
 75
     1
175
     1
 42
1.0
 92
        8
 66
     8
424
  8421504
 43
1.0
 76
     1
 77
     6
 78
     2
 67
     7
 79
     5
170
     0
171
     0
290
     0
174
     0
 93
        1
 44
0.0
173
     0
291
     1
 45
0.0
  0
VISUALSTYLE
  5
34
102
{ACAD_REACTORS
330
2A
102
}
102
{ACAD_XDICTIONARY
360
339
102
}
330
2A
100
AcDbVisualStyle
  2
Conceptual
 70
     9
 71
     3
 72
     2
 73
     0
 90
        0
 40
-0.6
 41
-30.0
 62
     5
 63
     7
421
 16777215
 74
     2
 91
        2
 64
     7
 65
   257
 75
     1
175
     1
 42
40.0
 92
        8
 66
     7
 43
1.0
 76
     1
 77
     6
 78
     2
 67
     7
 79
     3
170
     0
171
     0
290
     0
174
     0
 93
        1
 44
0.0
173
     0
291
     0
 45
0.0
  0
VISUALSTYLE
  5
35
102
{ACAD_REACTORS
330
2A
102
}
102
{ACAD_XDICTIONARY
360
33B
102
}
330
2A
100
AcDbVisualStyle
  2
Dim
 70
    11
 71
     2
 72
     2
 73
     0
 90
        0
 40
-0.6
 41
-30.0
 62
     5
 63
     7
421
 16777215
 74
     1
 91
        4
 64
     7
 65
   257
 75
     1
175
     1
 42
1.0
 92
        8
 66
     7
 43
1.0
 76
     1
 77
     6
 78
     2
 67
     7
 79
     5
170
     0
171
     0
290
     0
174
     0
 93
        1
 44
-50.0
173
     0
291
     1
 45
0.0
  0
VISUALSTYLE
  5
39
102
{ACAD_REACTORS
330
2A
102
}
102
{ACAD_XDICTIONARY
360
343
102
}
330
2A
100
AcDbVisualStyle
  2
Facepattern
 70
    15
 71
     2
 72
     2
 73
     0
 90
        0
 40
-0.6
 41
-30.0
 62
     5
 63
     7
421
 16777215
 74
     1
 91
        4
 64
     7
 65
   257
 75
     1
175
     1
 42
1.0
 92
        8
 66
     7
 43
1.0
 76
     1
 77
     6
 78
     2
 67
     7
 79
     5
170
     0
171
     0
290
     0
174
     0
 93
        1
 44
0.0
173
     0
291
     1
 45
0.0
  0
VISUALSTYLE
  5
2B
102
{ACAD_REACTORS
330
2A
102
}
102
{ACAD_XDICTIONARY
360
327
102
}
330
2A
100
AcDbVisualStyle
  2
Flat
 70
     0
 71
     2
 72
     1
 73
     1
 90
        2
 40
-0.6
 41
30.0
 62
     5
 63
     7
421
 16777215
 74
     0
 91
        4
 64
     7
 65
   257
 75
     1
175
     1
 42
1.0
 92
        8
 66
     7
 43
1.0
 76
     1
 77
     6
 78
     2
 67
     7
 79
     5
170
     0
171
     0
290
     0
174
     0
 93
       13
 44
0.0
173
     0
291
     1
 45
0.0
  0
VISUALSTYLE
  5
2C
102
{ACAD_REACTORS
330
2A
102
}
102
{ACAD_XDICTIONARY
360
329
102
}
330
2A
100
AcDbVisualStyle
  2
FlatWithEdges
 70
     1
 71
     2
 72
     1
 73
     1
 90
        2
 40
-0.6
 41
30.0
 62
     5
 63
     7
421
 16777215
 74
     1
 91
        4
 64
     7
 65
   257
 75
     1
175
     1
 42
1.0
 92
        0
 66
   257
 43
1.0
 76
     1
 77
     6
 78
     2
 67
     7
 79
     5
170
     0
171
     0
290
     0
174
     0
 93
       13
 44
0.0
173
     0
291
     1
 45
0.0
  0
VISUALSTYLE
  5
2D
102
{ACAD_REACTORS
330
2A
102
}
102
{ACAD_XDICTIONARY
360
32B
102
}
330
2A
100
AcDbVisualStyle
  2
Gouraud
 70
     2
 71
     2
 72
     2
 73
     1
 90
        2
 40
-0.6
 41
30.0
 62
     5
 63
     7
421
 16777215
 74
     0
 91
        4
 64
     7
 65
   257
 75
     1
175
     1
 42
1.0
 92
        0
 66
     7
 43
1.0
 76
     1
 77
     6
 78
     2
 67
     7
 79
     5
170
     0
171
     0
290
     0
174
     0
 93
       13
 44
0.0
173
     0
291
     1
 45
0.0
  0
VISUALSTYLE
  5
2E
102
{ACAD_REACTORS
330
2A
102
}
102
{ACAD_XDICTIONARY
360
32D
102
}
330
2A
100
AcDbVisualStyle
  2
GouraudWithEdges
 70
     3
 71
     2
 72
     2
 73
     1
 90
        2
 40
-0.6
 41
30.0
 62
     5
 63
     7
421
 16777215
 74
     1
 91
        4
 64
     7
 65
   257
 75
     1
175
     1
 42
1.0
 92
        0
 66
   257
 43
1.0
 76
     1
 77
     6
 78
     2
 67
     7
 79
     5
170
     0
171
     0
290
     0
174
     0
 93
       13
 44
0.0
173
     0
291
     1
 45
0.0
  0
VISUALSTYLE
  5
38
102
{ACAD_REACTORS
330
2A
102
}
102
{ACAD_XDICTIONARY
360
341
102
}
330
2A
100
AcDbVisualStyle
  2
Linepattern
 70
    14
 71
     2
 72
     2
 73
     0
 90
        0
 40
-0.6
 41
-30.0
 62
     5
 63
     7
421
 16777215
 74
     1
 91
        4
 64
     7
 65
   257
 75
     7
175
     7
 42
1.0
 92
        8
 66
     7
 43
1.0
 76
     1
 77
     6
 78
     2
 67
     7
 79
     5
170
     0
171
     0
290
     0
174
     0
 93
        1
 44
0.0
173
     0
291
     1
 45
0.0
  0
VISUALSTYLE
  5
33
102
{ACAD_REACTORS
330
2A
102
}
102
{ACAD_XDICTIONARY
360
337
102
}
330
2A
100
AcDbVisualStyle
  2
Realistic
 70
     8
 71
     2
 72
     2
 73
     0
 90
        0
 40
-0.6
 41
-30.0
 62
     5
 63
     7
421
 16777215
 74
     1
 91
        0
 64
     7
 65
   257
 75
     1
175
     1
 42
1.0
 92
        8
 66
     8
424
  7895160
 43
1.0
 76
     1
 77
     6
 78
     2
 67
     7
 79
     5
170
     0
171
     0
290
     0
174
     0
 93
       13
 44
0.0
173
     0
291
     0
 45
0.0
  0
VISUALSTYLE
  5
37
102
{ACAD_REACTORS
330
2A
102
}
102
{ACAD_XDICTIONARY
360
33F
102
}
330
2A
100
AcDbVisualStyle
  2
Thicken
 70
    13
 71
     2
 72
     2
 73
     0
 90
        0
 40
-0.6
 41
-30.0
 62
     5
 63
     7
421
 16777215
 74
     1
 91
        4
 64
     7
 65
   257
 75
     1
175
     1
 42
1.0
 92
       12
 66
     7
 43
1.0
 76
     1
 77
     6
 78
     2
 67
     7
 79
     5
170
     0
171
     0
290
     0
174
     0
 93
        1
 44
0.0
173
     0
291
     1
 45
0.0
  0
DICTIONARYVAR
  5
326
102
{ACAD_REACTORS
330
325
102
}
330
325
100
DictionaryVariables
280
     0
  1
1:1
  0
DICTIONARY
  5
32F
330
2F
100
AcDbDictionary
280
     1
281
     1
  3
ACAD_XREC_ROUNDTRIP
360
330
  0
DICTIONARY
  5
333
330
31
100
AcDbDictionary
280
     1
281
     1
  3
ACAD_XREC_ROUNDTRIP
360
334
  0
DICTIONARY
  5
331
330
30
100
AcDbDictionary
280
     1
281
     1
  3
ACAD_XREC_ROUNDTRIP
360
332
  0
DICTIONARY
  5
335
330
32
100
AcDbDictionary
280
     1
281
     1
  3
ACAD_XREC_ROUNDTRIP
360
336
  0
DICTIONARY
  5
33D
330
36
100
AcDbDictionary
280
     1
281
     1
  3
ACAD_XREC_ROUNDTRIP
360
33E
  0
DICTIONARY
  5
345
330
3A
100
AcDbDictionary
280
     1
281
     1
  3
ACAD_XREC_ROUNDTRIP
360
346
  0
DICTIONARY
  5
339
330
34
100
AcDbDictionary
280
     1
281
     1
  3
ACAD_XREC_ROUNDTRIP
360
33A
  0
DICTIONARY
  5
33B
330
35
100
AcDbDictionary
280
     1
281
     1
  3
ACAD_XREC_ROUNDTRIP
360
33C
  0
DICTIONARY
  5
343
330
39
100
AcDbDictionary
280
     1
281
     1
  3
ACAD_XREC_ROUNDTRIP
360
344
  0
DICTIONARY
  5
327
330
2B
100
AcDbDictionary
280
     1
281
     1
  3
ACAD_XREC_ROUNDTRIP
360
328
  0
DICTIONARY
  5
329
330
2C
100
AcDbDictionary
280
     1
281
     1
  3
ACAD_XREC_ROUNDTRIP
360
32A
  0
DICTIONARY
  5
32B
330
2D
100
AcDbDictionary
280
     1
281
     1
  3
ACAD_XREC_ROUNDTRIP
360
32C
  0
DICTIONARY
  5
32D
330
2E
100
AcDbDictionary
280
     1
281
     1
  3
ACAD_XREC_ROUNDTRIP
360
32E
  0
DICTIONARY
  5
341
330
38
100
AcDbDictionary
280
     1
281
     1
  3
ACAD_XREC_ROUNDTRIP
360
342
  0
DICTIONARY
  5
337
330
33
100
AcDbDictionary
280
     1
281
     1
  3
ACAD_XREC_ROUNDTRIP
360
338
  0
DICTIONARY
  5
33F
330
37
100
AcDbDictionary
280
     1
281
     1
  3
ACAD_XREC_ROUNDTRIP
360
340
  0
XRECORD
  5
330
102
{ACAD_REACTORS
330
32F
102
}
330
32F
100
AcDbXrecord
280
     1
102
RTVSPropertyOp0
 70
     1
102
RTVSPropertyOp1
 70
     1
102
RTVSPropertyOp2
 70
     1
102
RTVSPropertyOp3
 70
     1
102
RTVSPropertyOp4
 70
     1
102
RTVSPropertyOp5
 70
     1
102
RTVSPropertyOp6
 70
     1
102
RTVSPropertyOp7
 70
     1
102
RTVSPropertyOp8
 70
     1
102
RTVSPropertyOp9
 70
     1
102
RTVSPropertyOp10
 70
     1
102
RTVSPropertyOp11
 70
     1
102
RTVSPropertyOp12
 70
     1
102
RTVSPropertyOp13
 70
     1
102
RTVSPropertyOp14
 70
     1
102
RTVSPropertyOp15
 70
     1
102
RTVSPropertyOp16
 70
     1
102
RTVSPropertyOp17
 70
     1
102
RTVSPropertyOp18
 70
     1
102
RTVSPropertyOp19
 70
     1
102
RTVSPropertyOp20
 70
     1
102
RTVSPropertyOp21
 70
     1
102
RTVSPropertyOp22
 70
     1
102
RTVSPropertyOp23
 70
     1
102
RTVSPropertyOp24
 70
     1
102
RTVSPropertyOp25
 70
     1
102
RTVSPropertyOp26
 70
     1
102
RTVSPropertyOp27
 70
     1
  0
XRECORD
  5
334
102
{ACAD_REACTORS
330
333
102
}
330
333
100
AcDbXrecord
280
     1
102
RTVSPropertyOp0
 70
     1
102
RTVSPropertyOp1
 70
     1
102
RTVSPropertyOp2
 70
     1
102
RTVSPropertyOp3
 70
     1
102
RTVSPropertyOp4
 70
     1
102
RTVSPropertyOp5
 70
     1
102
RTVSPropertyOp6
 70
     1
102
RTVSPropertyOp7
 70
     1
102
RTVSPropertyOp8
 70
     1
102
RTVSPropertyOp9
 70
     1
102
RTVSPropertyOp10
 70
     1
102
RTVSPropertyOp11
 70
     1
102
RTVSPropertyOp12
 70
     1
102
RTVSPropertyOp13
 70
     1
102
RTVSPropertyOp14
 70
     1
102
RTVSPropertyOp15
 70
     1
102
RTVSPropertyOp16
 70
     1
102
RTVSPropertyOp17
 70
     1
102
RTVSPropertyOp18
 70
     1
102
RTVSPropertyOp19
 70
     1
102
RTVSPropertyOp20
 70
     1
102
RTVSPropertyOp21
 70
     1
102
RTVSPropertyOp22
 70
     1
102
RTVSPropertyOp23
 70
     1
102
RTVSPropertyOp24
 70
     1
102
RTVSPropertyOp25
 70
     1
102
RTVSPropertyOp26
 70
     1
102
RTVSPropertyOp27
 70
     1
  0
XRECORD
  5
332
102
{ACAD_REACTORS
330
331
102
}
330
331
100
AcDbXrecord
280
     1
102
RTVSPropertyOp0
 70
     1
102
RTVSPropertyOp1
 70
     1
102
RTVSPropertyOp2
 70
     1
102
RTVSPropertyOp3
 70
     1
102
RTVSPropertyOp4
 70
     1
102
RTVSPropertyOp5
 70
     1
102
RTVSPropertyOp6
 70
     1
102
RTVSPropertyOp7
 70
     1
102
RTVSPropertyOp8
 70
     1
102
RTVSPropertyOp9
 70
     1
102
RTVSPropertyOp10
 70
     1
102
RTVSPropertyOp11
 70
     1
102
RTVSPropertyOp12
 70
     1
102
RTVSPropertyOp13
 70
     1
102
RTVSPropertyOp14
 70
     1
102
RTVSPropertyOp15
 70
     1
102
RTVSPropertyOp16
 70
     1
102
RTVSPropertyOp17
 70
     1
102
RTVSPropertyOp18
 70
     1
102
RTVSPropertyOp19
 70
     1
102
RTVSPropertyOp20
 70
     1
102
RTVSPropertyOp21
 70
     1
102
RTVSPropertyOp22
 70
     1
102
RTVSPropertyOp23
 70
     1
102
RTVSPropertyOp24
 70
     1
102
RTVSPropertyOp25
 70
     1
102
RTVSPropertyOp26
 70
     1
102
RTVSPropertyOp27
 70
     1
  0
XRECORD
  5
336
102
{ACAD_REACTORS
330
335
102
}
330
335
100
AcDbXrecord
280
     1
102
RTVSPropertyOp0
 70
     1
102
RTVSPropertyOp1
 70
     1
102
RTVSPropertyOp2
 70
     1
102
RTVSPropertyOp3
 70
     1
102
RTVSPropertyOp4
 70
     1
102
RTVSPropertyOp5
 70
     1
102
RTVSPropertyOp6
 70
     1
102
RTVSPropertyOp7
 70
     1
102
RTVSPropertyOp8
 70
     1
102
RTVSPropertyOp9
 70
     1
102
RTVSPropertyOp10
 70
     1
102
RTVSPropertyOp11
 70
     1
102
RTVSPropertyOp12
 70
     1
102
RTVSPropertyOp13
 70
     1
102
RTVSPropertyOp14
 70
     1
102
RTVSPropertyOp15
 70
     1
102
RTVSPropertyOp16
 70
     1
102
RTVSPropertyOp17
 70
     1
102
RTVSPropertyOp18
 70
     1
102
RTVSPropertyOp19
 70
     1
102
RTVSPropertyOp20
 70
     1
102
RTVSPropertyOp21
 70
     1
102
RTVSPropertyOp22
 70
     1
102
RTVSPropertyOp23
 70
     1
102
RTVSPropertyOp24
 70
     1
102
RTVSPropertyOp25
 70
     1
102
RTVSPropertyOp26
 70
     1
102
RTVSPropertyOp27
 70
     1
  0
XRECORD
  5
33E
102
{ACAD_REACTORS
330
33D
102
}
330
33D
100
AcDbXrecord
280
     1
102
RTVSPropertyOp0
 70
     1
102
RTVSPropertyOp1
 70
     1
102
RTVSPropertyOp2
 70
     1
102
RTVSPropertyOp3
 70
     1
102
RTVSPropertyOp4
 70
     1
102
RTVSPropertyOp5
 70
     1
102
RTVSPropertyOp6
 70
     1
102
RTVSPropertyOp7
 70
     1
102
RTVSPropertyOp8
 70
     1
102
RTVSPropertyOp9
 70
     1
102
RTVSPropertyOp10
 70
     1
102
RTVSPropertyOp11
 70
     1
102
RTVSPropertyOp12
 70
     1
102
RTVSPropertyOp13
 70
     1
102
RTVSPropertyOp14
 70
     1
102
RTVSPropertyOp15
 70
     1
102
RTVSPropertyOp16
 70
     1
102
RTVSPropertyOp17
 70
     1
102
RTVSPropertyOp18
 70
     1
102
RTVSPropertyOp19
 70
     1
102
RTVSPropertyOp20
 70
     1
102
RTVSPropertyOp21
 70
     1
102
RTVSPropertyOp22
 70
     1
102
RTVSPropertyOp23
 70
     1
102
RTVSPropertyOp24
 70
     1
102
RTVSPropertyOp25
 70
     1
102
RTVSPropertyOp26
 70
     1
102
RTVSPropertyOp27
 70
     1
  0
XRECORD
  5
346
102
{ACAD_REACTORS
330
345
102
}
330
345
100
AcDbXrecord
280
     1
102
RTVSPropertyOp0
 70
     1
102
RTVSPropertyOp1
 70
     1
102
RTVSPropertyOp2
 70
     1
102
RTVSPropertyOp3
 70
     1
102
RTVSPropertyOp4
 70
     1
102
RTVSPropertyOp5
 70
     1
102
RTVSPropertyOp6
 70
     1
102
RTVSPropertyOp7
 70
     1
102
RTVSPropertyOp8
 70
     1
102
RTVSPropertyOp9
 70
     1
102
RTVSPropertyOp10
 70
     1
102
RTVSPropertyOp11
 70
     1
102
RTVSPropertyOp12
 70
     1
102
RTVSPropertyOp13
 70
     1
102
RTVSPropertyOp14
 70
     1
102
RTVSPropertyOp15
 70
     1
102
RTVSPropertyOp16
 70
     1
102
RTVSPropertyOp17
 70
     1
102
RTVSPropertyOp18
 70
     1
102
RTVSPropertyOp19
 70
     1
102
RTVSPropertyOp20
 70
     1
102
RTVSPropertyOp21
 70
     1
102
RTVSPropertyOp22
 70
     1
102
RTVSPropertyOp23
 70
     1
102
RTVSPropertyOp24
 70
     1
102
RTVSPropertyOp25
 70
     1
102
RTVSPropertyOp26
 70
     1
102
RTVSPropertyOp27
 70
     1
  0
XRECORD
  5
33A
102
{ACAD_REACTORS
330
339
102
}
330
339
100
AcDbXrecord
280
     1
102
RTVSPropertyOp0
 70
     1
102
RTVSPropertyOp1
 70
     1
102
RTVSPropertyOp2
 70
     1
102
RTVSPropertyOp3
 70
     1
102
RTVSPropertyOp4
 70
     1
102
RTVSPropertyOp5
 70
     1
102
RTVSPropertyOp6
 70
     1
102
RTVSPropertyOp7
 70
     1
102
RTVSPropertyOp8
 70
     1
102
RTVSPropertyOp9
 70
     1
102
RTVSPropertyOp10
 70
     1
102
RTVSPropertyOp11
 70
     1
102
RTVSPropertyOp12
 70
     1
102
RTVSPropertyOp13
 70
     1
102
RTVSPropertyOp14
 70
     1
102
RTVSPropertyOp15
 70
     1
102
RTVSPropertyOp16
 70
     1
102
RTVSPropertyOp17
 70
     1
102
RTVSPropertyOp18
 70
     1
102
RTVSPropertyOp19
 70
     1
102
RTVSPropertyOp20
 70
     1
102
RTVSPropertyOp21
 70
     1
102
RTVSPropertyOp22
 70
     1
102
RTVSPropertyOp23
 70
     1
102
RTVSPropertyOp24
 70
     1
102
RTVSPropertyOp25
 70
     1
102
RTVSPropertyOp26
 70
     1
102
RTVSPropertyOp27
 70
     1
  0
XRECORD
  5
33C
102
{ACAD_REACTORS
330
33B
102
}
330
33B
100
AcDbXrecord
280
     1
102
RTVSPropertyOp0
 70
     1
102
RTVSPropertyOp1
 70
     1
102
RTVSPropertyOp2
 70
     1
102
RTVSPropertyOp3
 70
     1
102
RTVSPropertyOp4
 70
     1
102
RTVSPropertyOp5
 70
     1
102
RTVSPropertyOp6
 70
     1
102
RTVSPropertyOp7
 70
     1
102
RTVSPropertyOp8
 70
     1
102
RTVSPropertyOp9
 70
     1
102
RTVSPropertyOp10
 70
     1
102
RTVSPropertyOp11
 70
     1
102
RTVSPropertyOp12
 70
     1
102
RTVSPropertyOp13
 70
     1
102
RTVSPropertyOp14
 70
     1
102
RTVSPropertyOp15
 70
     1
102
RTVSPropertyOp16
 70
     1
102
RTVSPropertyOp17
 70
     1
102
RTVSPropertyOp18
 70
     1
102
RTVSPropertyOp19
 70
     1
102
RTVSPropertyOp20
 70
     1
102
RTVSPropertyOp21
 70
     1
102
RTVSPropertyOp22
 70
     1
102
RTVSPropertyOp23
 70
     1
102
RTVSPropertyOp24
 70
     1
102
RTVSPropertyOp25
 70
     1
102
RTVSPropertyOp26
 70
     1
102
RTVSPropertyOp27
 70
     1
  0
XRECORD
  5
344
102
{ACAD_REACTORS
330
343
102
}
330
343
100
AcDbXrecord
280
     1
102
RTVSPropertyOp0
 70
     1
102
RTVSPropertyOp1
 70
     1
102
RTVSPropertyOp2
 70
     1
102
RTVSPropertyOp3
 70
     1
102
RTVSPropertyOp4
 70
     1
102
RTVSPropertyOp5
 70
     1
102
RTVSPropertyOp6
 70
     1
102
RTVSPropertyOp7
 70
     1
102
RTVSPropertyOp8
 70
     1
102
RTVSPropertyOp9
 70
     1
102
RTVSPropertyOp10
 70
     1
102
RTVSPropertyOp11
 70
     1
102
RTVSPropertyOp12
 70
     1
102
RTVSPropertyOp13
 70
     1
102
RTVSPropertyOp14
 70
     1
102
RTVSPropertyOp15
 70
     1
102
RTVSPropertyOp16
 70
     1
102
RTVSPropertyOp17
 70
     1
102
RTVSPropertyOp18
 70
     1
102
RTVSPropertyOp19
 70
     1
102
RTVSPropertyOp20
 70
     1
102
RTVSPropertyOp21
 70
     1
102
RTVSPropertyOp22
 70
     1
102
RTVSPropertyOp23
 70
     1
102
RTVSPropertyOp24
 70
     1
102
RTVSPropertyOp25
 70
     1
102
RTVSPropertyOp26
 70
     1
102
RTVSPropertyOp27
 70
     1
  0
XRECORD
  5
328
102
{ACAD_REACTORS
330
327
102
}
330
327
100
AcDbXrecord
280
     1
102
RTVSPropertyOp0
 70
     1
102
RTVSPropertyOp1
 70
     1
102
RTVSPropertyOp2
 70
     1
102
RTVSPropertyOp3
 70
     1
102
RTVSPropertyOp4
 70
     1
102
RTVSPropertyOp5
 70
     1
102
RTVSPropertyOp6
 70
     1
102
RTVSPropertyOp7
 70
     1
102
RTVSPropertyOp8
 70
     1
102
RTVSPropertyOp9
 70
     1
102
RTVSPropertyOp10
 70
     1
102
RTVSPropertyOp11
 70
     1
102
RTVSPropertyOp12
 70
     1
102
RTVSPropertyOp13
 70
     1
102
RTVSPropertyOp14
 70
     1
102
RTVSPropertyOp15
 70
     1
102
RTVSPropertyOp16
 70
     1
102
RTVSPropertyOp17
 70
     1
102
RTVSPropertyOp18
 70
     1
102
RTVSPropertyOp19
 70
     1
102
RTVSPropertyOp20
 70
     1
102
RTVSPropertyOp21
 70
     1
102
RTVSPropertyOp22
 70
     1
102
RTVSPropertyOp23
 70
     1
102
RTVSPropertyOp24
 70
     1
102
RTVSPropertyOp25
 70
     1
102
RTVSPropertyOp26
 70
     1
102
RTVSPropertyOp27
 70
     1
  0
XRECORD
  5
32A
102
{ACAD_REACTORS
330
329
102
}
330
329
100
AcDbXrecord
280
     1
102
RTVSPropertyOp0
 70
     1
102
RTVSPropertyOp1
 70
     1
102
RTVSPropertyOp2
 70
     1
102
RTVSPropertyOp3
 70
     1
102
RTVSPropertyOp4
 70
     1
102
RTVSPropertyOp5
 70
     1
102
RTVSPropertyOp6
 70
     1
102
RTVSPropertyOp7
 70
     1
102
RTVSPropertyOp8
 70
     1
102
RTVSPropertyOp9
 70
     1
102
RTVSPropertyOp10
 70
     1
102
RTVSPropertyOp11
 70
     1
102
RTVSPropertyOp12
 70
     1
102
RTVSPropertyOp13
 70
     1
102
RTVSPropertyOp14
 70
     1
102
RTVSPropertyOp15
 70
     1
102
RTVSPropertyOp16
 70
     1
102
RTVSPropertyOp17
 70
     1
102
RTVSPropertyOp18
 70
     1
102
RTVSPropertyOp19
 70
     1
102
RTVSPropertyOp20
 70
     1
102
RTVSPropertyOp21
 70
     1
102
RTVSPropertyOp22
 70
     1
102
RTVSPropertyOp23
 70
     1
102
RTVSPropertyOp24
 70
     1
102
RTVSPropertyOp25
 70
     1
102
RTVSPropertyOp26
 70
     1
102
RTVSPropertyOp27
 70
     1
  0
XRECORD
  5
32C
102
{ACAD_REACTORS
330
32B
102
}
330
32B
100
AcDbXrecord
280
     1
102
RTVSPropertyOp0
 70
     1
102
RTVSPropertyOp1
 70
     1
102
RTVSPropertyOp2
 70
     1
102
RTVSPropertyOp3
 70
     1
102
RTVSPropertyOp4
 70
     1
102
RTVSPropertyOp5
 70
     1
102
RTVSPropertyOp6
 70
     1
102
RTVSPropertyOp7
 70
     1
102
RTVSPropertyOp8
 70
     1
102
RTVSPropertyOp9
 70
     1
102
RTVSPropertyOp10
 70
     1
102
RTVSPropertyOp11
 70
     1
102
RTVSPropertyOp12
 70
     1
102
RTVSPropertyOp13
 70
     1
102
RTVSPropertyOp14
 70
     1
102
RTVSPropertyOp15
 70
     1
102
RTVSPropertyOp16
 70
     1
102
RTVSPropertyOp17
 70
     1
102
RTVSPropertyOp18
 70
     1
102
RTVSPropertyOp19
 70
     1
102
RTVSPropertyOp20
 70
     1
102
RTVSPropertyOp21
 70
     1
102
RTVSPropertyOp22
 70
     1
102
RTVSPropertyOp23
 70
     1
102
RTVSPropertyOp24
 70
     1
102
RTVSPropertyOp25
 70
     1
102
RTVSPropertyOp26
 70
     1
102
RTVSPropertyOp27
 70
     1
  0
XRECORD
  5
32E
102
{ACAD_REACTORS
330
32D
102
}
330
32D
100
AcDbXrecord
280
     1
102
RTVSPropertyOp0
 70
     1
102
RTVSPropertyOp1
 70
     1
102
RTVSPropertyOp2
 70
     1
102
RTVSPropertyOp3
 70
     1
102
RTVSPropertyOp4
 70
     1
102
RTVSPropertyOp5
 70
     1
102
RTVSPropertyOp6
 70
     1
102
RTVSPropertyOp7
 70
     1
102
RTVSPropertyOp8
 70
     1
102
RTVSPropertyOp9
 70
     1
102
RTVSPropertyOp10
 70
     1
102
RTVSPropertyOp11
 70
     1
102
RTVSPropertyOp12
 70
     1
102
RTVSPropertyOp13
 70
     1
102
RTVSPropertyOp14
 70
     1
102
RTVSPropertyOp15
 70
     1
102
RTVSPropertyOp16
 70
     1
102
RTVSPropertyOp17
 70
     1
102
RTVSPropertyOp18
 70
     1
102
RTVSPropertyOp19
 70
     1
102
RTVSPropertyOp20
 70
     1
102
RTVSPropertyOp21
 70
     1
102
RTVSPropertyOp22
 70
     1
102
RTVSPropertyOp23
 70
     1
102
RTVSPropertyOp24
 70
     1
102
RTVSPropertyOp25
 70
     1
102
RTVSPropertyOp26
 70
     1
102
RTVSPropertyOp27
 70
     1
  0
XRECORD
  5
342
102
{ACAD_REACTORS
330
341
102
}
330
341
100
AcDbXrecord
280
     1
102
RTVSPropertyOp0
 70
     1
102
RTVSPropertyOp1
 70
     1
102
RTVSPropertyOp2
 70
     1
102
RTVSPropertyOp3
 70
     1
102
RTVSPropertyOp4
 70
     1
102
RTVSPropertyOp5
 70
     1
102
RTVSPropertyOp6
 70
     1
102
RTVSPropertyOp7
 70
     1
102
RTVSPropertyOp8
 70
     1
102
RTVSPropertyOp9
 70
     1
102
RTVSPropertyOp10
 70
     1
102
RTVSPropertyOp11
 70
     1
102
RTVSPropertyOp12
 70
     1
102
RTVSPropertyOp13
 70
     1
102
RTVSPropertyOp14
 70
     1
102
RTVSPropertyOp15
 70
     1
102
RTVSPropertyOp16
 70
     1
102
RTVSPropertyOp17
 70
     1
102
RTVSPropertyOp18
 70
     1
102
RTVSPropertyOp19
 70
     1
102
RTVSPropertyOp20
 70
     1
102
RTVSPropertyOp21
 70
     1
102
RTVSPropertyOp22
 70
     1
102
RTVSPropertyOp23
 70
     1
102
RTVSPropertyOp24
 70
     1
102
RTVSPropertyOp25
 70
     1
102
RTVSPropertyOp26
 70
     1
102
RTVSPropertyOp27
 70
     1
  0
XRECORD
  5
338
102
{ACAD_REACTORS
330
337
102
}
330
337
100
AcDbXrecord
280
     1
102
RTVSPropertyOp0
 70
     1
102
RTVSPropertyOp1
 70
     1
102
RTVSPropertyOp2
 70
     1
102
RTVSPropertyOp3
 70
     1
102
RTVSPropertyOp4
 70
     1
102
RTVSPropertyOp5
 70
     1
102
RTVSPropertyOp6
 70
     1
102
RTVSPropertyOp7
 70
     1
102
RTVSPropertyOp8
 70
     1
102
RTVSPropertyOp9
 70
     1
102
RTVSPropertyOp10
 70
     1
102
RTVSPropertyOp11
 70
     1
102
RTVSPropertyOp12
 70
     1
102
RTVSPropertyOp13
 70
     1
102
RTVSPropertyOp14
 70
     1
102
RTVSPropertyOp15
 70
     1
102
RTVSPropertyOp16
 70
     1
102
RTVSPropertyOp17
 70
     1
102
RTVSPropertyOp18
 70
     1
102
RTVSPropertyOp19
 70
     1
102
RTVSPropertyOp20
 70
     1
102
RTVSPropertyOp21
 70
     1
102
RTVSPropertyOp22
 70
     1
102
RTVSPropertyOp23
 70
     1
102
RTVSPropertyOp24
 70
     1
102
RTVSPropertyOp25
 70
     1
102
RTVSPropertyOp26
 70
     1
102
RTVSPropertyOp27
 70
     1
  0
XRECORD
  5
340
102
{ACAD_REACTORS
330
33F
102
}
330
33F
100
AcDbXrecord
280
     1
102
RTVSPropertyOp0
 70
     1
102
RTVSPropertyOp1
 70
     1
102
RTVSPropertyOp2
 70
     1
102
RTVSPropertyOp3
 70
     1
102
RTVSPropertyOp4
 70
     1
102
RTVSPropertyOp5
 70
     1
102
RTVSPropertyOp6
 70
     1
102
RTVSPropertyOp7
 70
     1
102
RTVSPropertyOp8
 70
     1
102
RTVSPropertyOp9
 70
     1
102
RTVSPropertyOp10
 70
     1
102
RTVSPropertyOp11
 70
     1
102
RTVSPropertyOp12
 70
     1
102
RTVSPropertyOp13
 70
     1
102
RTVSPropertyOp14
 70
     1
102
RTVSPropertyOp15
 70
     1
102
RTVSPropertyOp16
 70
     1
102
RTVSPropertyOp17
 70
     1
102
RTVSPropertyOp18
 70
     1
102
RTVSPropertyOp19
 70
     1
102
RTVSPropertyOp20
 70
     1
102
RTVSPropertyOp21
 70
     1
102
RTVSPropertyOp22
 70
     1
102
RTVSPropertyOp23
 70
     1
102
RTVSPropertyOp24
 70
     1
102
RTVSPropertyOp25
 70
     1
102
RTVSPropertyOp26
 70
     1
102
RTVSPropertyOp27
 70
     1
  0
ENDSEC
  0
EOF
